#TITLE:蛇神;
#ARTIST:Zektbach;
#TITLETRANSLIT:Kagachi;
#BANNER:Kagachi.png;
#BACKGROUND:Kagachi-bg.png;
#MUSIC:Kagachi.ogg;
#OFFSET:2.808;
#SAMPLESTART:52.251;
#SAMPLELENGTH:15;
#LASTBEATHINT:2.55;
#BPMS:0=85,12=170,205=85,221=170,285=85;
#STOPS:76=1.059;
#BGCHANGES:1.75=Kagachi.avi=1=0=0=0=StretchNoLoop====,99999=-nosongbg-=1=0=0=0 // don't automatically add -songbackground-;

//---------------dance-single - Talkion-bSP----------------
#NOTES:
     dance-single:
     Talkion:
     Beginner:
     4:
     0.155102,0.244082,0.114286,0.114286,0,133,119,14,14,0,0,0.155102,0.244082,0.114286,0.114286,0,133,119,14,14,0,0:
0000
0000
0000
0000
,
0000
0000
0000
0000
,
0000
0000
0000
0000
,
1000
0000
1000
0000
,
1000
0000
1000
0000
,
0001
0000
0001
0000
,
0001
0000
0001
0000
,
1000
0000
1000
0000
,
1000
0000
1000
0000
,
0001
0000
0001
0000
,
0001
0000
0001
0000
,
1000
0000
0000
1000
0000
0000
0000
0000
,
0010
0000
0000
0010
0000
0000
0000
0000
,
0100
0000
0000
0100
0000
0000
0000
0000
,
0001
0000
0000
0001
0000
0000
0000
0000
,
0010
0000
0000
0010
0000
0000
0000
0000
,
0100
0000
0000
0100
0000
0000
0000
0000
,
1000
0000
0000
1000
0000
0000
0000
0000
,
0001
0000
0000
0001
0000
0000
0000
0000
,
0000
2002
0000
0000
,
0000
0000
0000
0000
,
0000
0000
0000
0000
,
0000
0000
0000
3003
,
0000
0220
0000
0000
,
0000
0000
0000
0000
,
0000
0000
0000
0000
,
0000
0000
0000
0330
,
0000
0000
0001
0000
0000
0010
0000
0000
,
0000
0000
0001
0000
0000
0010
0000
0000
,
0000
0000
1000
0000
0000
0010
0000
0000
,
0000
0000
1000
0000
0000
0010
0000
0000
,
0000
0000
0001
0000
0000
0100
0000
0000
,
0000
0000
0001
0000
0000
0100
0000
0000
,
0000
0000
1000
0000
0000
0100
0000
0000
,
0000
0000
1000
0000
0000
0100
0000
0000
,
0000
0001
0000
0010
,
0000
0200
0000
0000
,
0000
0300
0000
1000
,
0000
0010
0000
0100
,
0000
0001
0000
0100
,
0000
0020
0000
0000
,
0000
0030
0000
1000
,
0000
0100
0000
0010
,
0000
0001
0000
1001
,
0000
0000
0000
1001
,
0000
0000
0000
0110
,
0000
0000
0000
0110
,
0000
0000
0000
1001
,
0000
0000
0000
1001
,
0000
0000
0000
0110
,
0000
0000
0000
0110
,
0000
0002
0000
1003
,
0000
2000
0000
3001
,
0000
0002
0000
0103
,
0000
0200
0000
0301
,
0000
1000
0000
1000
,
0000
0001
0000
0001
,
0000
1000
0000
1000
,
0000
0001
0000
0001
,
0000
0100
0000
0100
,
0000
0010
0000
0010
,
0000
0100
0000
0100
,
0000
0010
0000
0010
,
0000
0000
1000
0000
0000
1000
0000
0000
,
0000
0000
0001
0000
0000
0001
0000
0000
,
0000
0000
0100
0000
0000
0100
0000
0000
,
0000
0000
0010
0000
0000
0010
0000
0000
,
0000
0000
1000
0000
0000
1001
0000
0000
,
0000
0000
0001
0000
0000
1001
0000
0000
,
0000
0000
1000
0000
0000
1001
0000
0000
,
0000
0000
0001
0000
0000
1001
0000
0000
,
0000
2000
0000
3100
,
0000
0200
0000
0301
,
0000
0002
0000
0013
,
0000
0020
0000
1030
;

//---------------dance-single - Talkion-BSP----------------
#NOTES:
     dance-single:
     Talkion:
     Easy:
     10:
     0.388338,0.491429,0.383673,0.334694,0,333,286,47,41,0,0,0.388338,0.491429,0.383673,0.334694,0,333,286,47,41,0,0:
0000
0000
0000
0000
,
0000
0000
0000
0000
,
0000
0000
0000
0000
,
0001
0001
0100
0100
,
0010
0000
0010
0000
1000
0001
1000
0000
,
0100
0100
0010
0010
,
0001
0000
0001
0000
1000
0010
1000
0000
,
0001
0001
0010
0010
,
1000
0000
1000
0000
0010
0100
0010
0000
,
0001
0001
0100
0100
,
1000
0000
1000
0000
0100
0010
0100
0000
,
0001
0000
0000
0011
0000
0000
0110
0000
,
1000
0000
0000
1010
0000
0000
0110
0000
,
0001
0000
0000
1001
0000
0000
1100
0000
,
0010
0000
0000
1001
0000
0000
0101
0000
,
0010
0000
0000
1010
0000
0000
1100
0000
,
0001
0000
0000
0011
0000
0000
0101
0000
,
1000
0000
0000
1010
0000
0000
0011
0000
,
0100
0000
0000
0110
0000
0000
1001
0000
,
0000
0002
0000
0000
,
0103
0020
0000
0000
,
0000
0030
0000
2000
,
0000
3002
0000
0023
,
0000
0230
0000
0000
,
1300
0020
0000
0000
,
0000
0030
0000
0200
,
0000
0302
0000
2003
,
0000
0000
3001
0000
0010
0001
0000
0000
,
0011
0000
1000
0000
0010
1000
0000
0000
,
1010
0000
0001
0000
0100
0001
0000
0000
,
0101
0000
1000
0000
0100
1000
0000
0000
,
1100
0000
0001
0000
0100
0010
0000
0000
,
0110
0000
1000
0000
0100
0010
0000
0000
,
0110
0000
0001
0000
0100
1000
0000
0000
,
1100
0000
1000
0000
0100
0001
0100
0000
,
0010
2000
3100
0200
,
0301
0002
0013
0020
,
1030
2000
0100
0001
,
0100
3002
0103
0200
,
0301
0002
0013
0020
,
1030
2000
3100
0200
,
0301
0002
0010
1000
,
0010
2003
3010
0020
,
1030
0000
0001
0000
0010
0001
0101
0000
,
0000
0000
1000
0000
0010
1000
1100
0000
,
0000
0000
0001
0000
0100
0001
0011
0000
,
0000
0000
1000
0000
0100
1000
1010
0000
,
0000
0000
0001
0000
0100
0010
0110
0000
,
0000
0000
1000
0000
0100
0010
0110
0000
,
0000
0000
0100
0000
1000
0001
1001
0000
,
0000
0000
0100
0000
0001
1000
1001
0000
,
0000
0000
0001
0000
0010
0000
0100
2000
,
3001
0000
1000
0000
0010
0000
0100
0002
,
1003
0000
0001
0000
0010
0000
1000
0020
,
0031
0000
1000
0000
0010
0000
0001
0020
,
1030
0000
0001
0000
0010
0000
0001
0010
,
0001
0000
1000
0000
0010
0000
1000
0010
,
1000
0000
0001
0000
0100
0000
0001
0100
,
0001
0000
1000
0000
0100
0000
1000
0100
,
1000
0002
0203
2300
,
0000
3002
0023
2030
,
3200
0320
0001
0100
,
0001
0000
0130
0000
0010
0000
0100
1000
,
0100
1000
0001
0000
0100
0101
0000
0001
,
0101
0000
1000
0000
0100
1100
0000
1000
,
1100
0000
0010
0000
0100
0110
0000
0010
,
0110
0000
0001
0000
1000
1001
0000
0001
,
1001
0000
1000
0000
0100
0110
0000
0010
,
0011
0000
0001
0000
0100
0110
0000
0010
,
1010
0000
1000
0000
0001
0011
0000
1000
,
1010
0000
0001
0000
0100
0110
0000
0100
,
1001
0000
1000
0000
0100
0000
0010
0002
,
0103
0000
0001
0000
0010
0000
0100
2000
,
3010
0000
0100
0000
1000
0000
0100
0002
,
0013
0000
0100
0000
0001
0000
0100
2000
,
3020
0030
0000
0000
;

//---------------dance-single - Talkion-DSP----------------
#NOTES:
     dance-single:
     Talkion:
     Medium:
     13:
     0.577259,0.675714,0.457143,0.604082,0.151020,495,439,56,74,0,0,0.577259,0.675714,0.457143,0.604082,0.151020,495,439,56,74,0,0:
0000
0000
0000
0000
,
0000
0000
0000
0000
,
0000
0000
0000
0000
,
1000
0000
0000
1000
0100
0000
0000
0000
0100
0000
0000
0100
0010
0000
0000
0000
,
0010
0000
0000
0010
0001
0000
1000
0000
0001
0000
0100
0000
1000
0000
0100
0000
,
0001
0000
0000
0001
0010
0000
0000
0000
0010
0000
0000
0010
0100
0000
0000
0000
,
0100
0000
0000
0100
1000
0000
0001
0000
1000
0000
0010
0000
0001
0000
0010
0000
,
1000
0000
0000
1000
0001
0000
0000
0000
0001
0000
0000
0001
0010
0000
0000
0000
,
0010
0000
0000
0010
1000
0000
0010
0000
0001
0000
0010
0000
1000
0000
0010
0000
,
0100
0000
0000
0100
1000
0000
0000
0000
1000
0000
0000
1000
0010
0000
0000
0000
,
0010
0000
0000
0010
0100
0000
0001
0000
0100
0000
1000
0000
0100
0000
0010
0000
,
0110
0000
0100
0101
0000
0001
1001
0000
,
0110
0000
0100
1100
0000
1000
1001
0000
,
0110
0000
0010
0011
0000
0001
1001
0000
,
0110
0000
0010
1010
0000
1000
1001
0000
,
0001
0000
0000
0001
0010
0000
0002
0000
0000
0000
0103
0000
0101
0000
0000
0000
,
1000
0000
0000
1000
0010
0000
2000
0000
0000
0000
3100
0000
1100
0000
0000
0000
,
0100
0000
0000
0100
0001
0000
0200
0000
0000
0000
1300
0000
1001
0000
0000
0000
,
0001
0000
0000
0001
0100
0000
0020
0000
0000
0000
1030
0000
1001
0000
0000
0000
,
0000
2000
0000
0000
,
3200
0302
0000
0000
,
0000
0000
0000
2003
,
0000
3020
0000
0032
,
0000
0203
0000
0000
,
0320
2030
0000
0000
,
0000
0000
0000
3020
,
0000
0032
0000
0023
,
0000
0000
1030
0000
0010
1100
0000
0010
,
0101
0000
0110
0000
0100
1010
0000
0100
,
0011
0000
1001
0000
0001
0110
0000
1000
,
0110
0000
1001
0000
0010
1001
0000
0100
,
1001
0000
0000
0000
0001
0000
0010
0001
0010
0000
0200
0000
0000
0000
1000
0000
,
1300
0000
0000
0000
1000
0000
0010
1000
0010
0000
0200
0000
0000
0000
0001
0000
,
0301
0000
0000
0000
1000
0000
0001
1000
0100
0000
2000
0000
0000
0000
0010
0000
,
3010
0000
1000
0010
0001
0010
1000
0100
,
0010
0001
1000
0100
1000
0001
1000
0010
,
1000
0000
0001
0100
0001
1000
0001
0010
,
0001
0020
1000
0100
,
0001
0000
0130
0010
0001
0100
0010
1000
,
0001
1000
0100
0010
0100
0001
0100
1000
,
0100
0000
0010
0100
0010
1000
0010
0001
,
0010
0200
0001
0010
,
1000
0000
0310
0100
1000
0010
0100
0001
,
1000
0000
1100
0000
1000
1010
0010
1000
,
1010
0000
0110
0000
0100
0101
0001
0100
,
0101
0000
1001
0000
0010
0011
0001
0100
,
0110
0000
1001
0000
0010
1010
1000
0100
,
0110
0000
0011
0001
0010
0011
0001
0100
,
0101
0000
1010
0010
1000
1010
0010
1000
,
1100
0000
0110
0010
0100
0110
0010
0001
,
1001
0000
1000
0010
1000
0010
0001
0010
,
0100
0010
0100
0010
2000
0000
3002
0000
0023
0000
0000
0130
2000
0000
3002
0000
,
0203
0000
0000
0000
0320
0000
2030
0000
3002
0000
0000
0013
0200
0000
0320
0000
,
0032
0000
0000
0000
2003
0000
3020
0000
0230
0000
0000
0301
2000
0000
3200
0000
,
0320
0000
0000
0000
0032
0000
0023
0000
0230
0000
0000
1300
0020
0000
0230
0000
,
0302
0000
1003
0100
0010
0100
1000
0100
,
0010
0000
0010
0001
0100
0001
0010
0001
,
0100
0000
0100
1000
0100
0001
0100
1000
,
0100
0000
0100
0100
0010
1000
0100
0010
,
0001
0000
0002
0000
1003
0010
0002
0000
,
1003
0100
0020
0000
1030
0001
0200
0000
,
0301
0010
0002
0000
0100
0000
0010
0000
,
0100
0000
0013
0100
1000
0001
0100
0010
,
0110
0000
0000
0000
0100
0000
0100
0010
0100
0000
0010
0000
1000
0000
0001
0000
,
1001
0000
0000
0000
0001
0000
0001
0010
0001
0000
0100
0000
0010
0000
1000
0000
,
1010
0000
0000
0000
1000
0000
1000
0100
1000
0000
0010
0000
0100
0000
0001
0000
,
0101
0000
0000
0000
0001
0000
0001
1000
0001
0000
0010
0000
0100
0000
1000
0000
,
1001
0000
0000
0000
0001
0000
0010
0100
1000
0000
0001
0000
0001
0000
0100
0000
,
0110
0000
0000
0000
0010
0000
1000
0001
0010
0000
0100
0000
0100
0000
1000
0000
,
1001
0000
0000
0000
1000
0000
0010
0100
0001
0000
1000
0000
1000
0000
0100
0000
,
0110
0000
0000
0000
0010
0000
0001
0100
0001
0000
0100
0000
0100
0000
1000
0000
,
0100
0000
0100
0000
0020
0000
2030
0000
3200
0000
0000
0310
0002
0000
0023
0000
,
0230
0000
0000
0000
2300
0000
3020
0000
0230
0000
0000
0301
2000
0000
3002
0000
,
0023
0000
0000
0000
0230
0000
0320
0000
0032
0000
0000
0103
0020
0000
2030
0000
,
3200
0000
0000
0000
2300
0000
3020
0000
0032
0000
0000
0013
2000
0000
3200
0000
,
0320
0030
0000
0000
;

//---------------dance-single - Talkion-ESP----------------
#NOTES:
     dance-single:
     Talkion:
     Hard:
     16:
     0.780175,0.890714,0.269388,0.514286,0.677551,669,636,33,63,0,0,0.780175,0.890714,0.269388,0.514286,0.677551,669,636,33,63,0,0:
0000
0000
0000
0000
,
0000
0000
0000
0000
,
0000
0000
0000
0000
,
0010
0000
1000
0100
0010
0000
0000
0000
0010
0000
0001
0100
0010
0000
0000
0000
,
0010
0000
1000
0100
0010
0001
0000
0001
0100
0010
0100
0010
1000
0001
1000
0001
,
0100
0000
0001
0010
0100
0000
0000
0000
0100
0000
1000
0010
0100
0000
0000
0000
,
0100
0000
0001
0010
0100
1000
0000
1000
0010
0100
0010
0100
0001
1000
0001
1000
,
0010
0000
0100
0001
0010
0000
0000
0000
0010
0000
0100
1000
0010
0000
0000
0000
,
0010
0000
0100
0001
0010
0100
0000
0100
1000
0001
1000
0001
0100
0010
0100
0010
,
1000
0000
0100
0010
0001
0000
0000
0000
0001
0000
0010
0100
1000
0000
0000
0000
,
1000
0000
0001
0100
0010
1000
0000
1000
0001
0010
0100
1000
0100
0010
0001
0100
,
0010
0000
0000
0010
0100
0000
0101
0000
0000
0001
1000
0000
1001
0000
0000
0000
,
0100
0000
0000
0100
0010
0000
1010
0000
0000
1000
0001
0000
1001
0000
0000
0000
,
0001
0000
0000
0001
0010
0000
0110
0000
0000
0100
1000
0000
1100
0000
0000
0000
,
1000
0000
0000
1000
0010
0000
0110
0000
0000
0100
0001
0000
0101
0000
0000
0000
,
0001
0000
1000
0100
1000
0000
0001
0000
1000
0010
1000
0000
1100
0000
0000
0000
,
1000
0000
0001
0010
0001
0000
1000
0000
0001
0100
0001
0000
0011
0000
0000
0000
,
0010
0000
0001
0100
0001
0000
0010
0000
0100
1000
0100
0000
1100
0000
0000
0000
,
0100
0000
1000
0010
1000
0000
0100
0000
0010
0001
0010
0000
0011
0000
0000
0000
,
0000
0000
0000
0002
0000
0000
1003
0100
0010
0012
0000
0000
,
0203
0000
0000
0320
0000
0000
1030
0010
0100
0101
0000
0000
,
0000
0000
0000
0200
0000
0000
0301
0010
0100
2100
0000
0000
,
3002
0000
0000
0203
0000
0000
0310
0100
0001
0201
0000
0000
,
0320
0000
0000
2030
0000
0000
3100
0010
0001
0201
0000
0000
,
0320
0000
0000
2030
0000
0000
3010
0100
0001
0011
0000
0000
,
0000
0000
0000
0020
0000
0000
0031
0100
0010
0120
0000
0000
,
2030
0000
0000
3200
0000
0000
0310
0100
1000
1002
0000
0000
,
0203
0000
0000
0000
0310
0000
1000
0100
1000
0000
0010
0000
1000
0010
0100
0001
,
1000
0000
0001
0000
0010
0000
0001
0100
0001
0000
0010
0000
1100
0000
1000
0000
,
1001
0000
0000
0000
0100
0000
0001
0010
0001
0000
0100
0000
0001
0100
0010
1000
,
0001
0000
1000
0000
0100
0000
1000
0010
1000
0000
0100
0000
0011
0000
0001
0000
,
1001
0000
0000
0000
0001
0000
0010
0100
0010
0000
0001
0000
0010
0100
1000
0001
,
0010
0000
0001
0000
0100
0000
0010
1000
0010
0000
0100
0000
0110
0000
0010
0000
,
1001
0000
0000
0000
1000
0000
0100
0010
0100
0000
1000
0000
0100
0010
0001
1000
,
0100
0000
1000
0000
0010
0000
0100
0001
0100
0000
0010
0000
0110
0000
0100
0000
,
1001
0000
1000
0100
0001
0100
1000
0100
,
0010
1000
0001
0100
0010
0001
1000
0010
,
0100
0010
2000
0000
0100
0000
3010
0001
,
0010
1000
0100
0010
0001
0100
0010
1000
,
1001
0000
0001
0010
1000
0010
0001
0010
,
0100
0001
1000
0010
0100
1000
0001
0100
,
0010
0100
0002
0000
0010
0000
0103
1000
,
0100
0001
0010
0100
1000
0010
0100
0001
,
1001
0000
0000
0000
1000
0100
1000
0100
0010
0000
0001
0100
0001
0100
0010
0000
,
1000
0000
0000
0000
1000
0010
1000
0010
0100
0000
0001
0010
0001
0010
0100
0000
,
1000
0000
1000
0000
0010
1000
0010
1000
0001
0000
0010
0001
0010
0001
1000
0000
,
0010
0000
0000
0000
0010
0100
0010
0100
0001
0000
0010
0100
0010
0100
1000
0000
,
0001
0000
0001
0000
1000
0001
0100
0001
1000
0000
0100
1000
0100
1000
0001
0000
,
0100
0000
0000
0000
0100
0010
1000
0010
0100
0000
0001
0010
0001
0010
0100
0000
,
0010
0000
0010
0000
0001
1000
0100
1000
0001
0000
0100
1000
0100
0010
0100
0000
,
0010
0000
0000
0000
0010
1000
0100
1000
0010
0000
0100
0001
0010
0000
0001
0010
,
0100
1000
0100
0010
0002
0000
0000
0000
0203
0000
0000
0000
0320
0000
2030
0000
,
3200
0000
0302
0000
2003
0000
3020
0032
,
0203
0000
2300
0000
3200
0000
0302
0023
,
0230
0000
0302
0000
2003
0000
3020
0230
,
2300
0000
3001
1000
0001
0010
0100
1000
,
0001
0000
1000
0000
0010
0000
0001
0000
1000
0000
0100
0000
0001
0000
1000
0001
,
1000
0000
1000
0001
1000
0100
0010
0001
,
1000
0000
0001
0000
0100
0000
1000
0000
0001
0000
0010
0000
1000
0000
0001
1000
,
0001
0000
0000
0000
0001
0000
0010
0000
0001
0000
0010
0100
0010
0000
0100
0000
,
1000
0000
0100
1000
0100
0000
1000
0000
0010
0000
0100
0010
0100
0000
1000
0000
,
0100
0001
1002
0000
0010
0000
0103
0001
,
0100
0000
0010
0000
1000
0000
0001
0100
0001
0000
1000
0100
1000
0000
0001
0000
,
1001
0000
0000
0000
1000
0010
1000
0010
0100
0000
0001
0100
0001
0100
0010
0000
,
1000
0100
0010
0000
0001
1000
0001
1000
0010
0000
1000
0001
1000
0001
0010
0000
,
0100
0010
0001
0000
0100
0010
0100
0010
1000
0000
0100
0010
0100
0010
0001
0000
,
0010
0001
0100
0000
0010
1000
0010
1000
0100
0000
0010
0001
0010
0001
1000
0000
,
1001
0000
0000
0000
0001
0100
1000
0100
0001
0000
0100
0010
1000
0010
0100
0000
,
0001
0010
0100
0000
1000
0010
0001
0010
1000
0000
0010
0100
0001
0100
0010
0000
,
0100
0010
1000
0000
0001
1000
0100
0010
0001
0000
1000
0001
0010
0100
1000
0000
,
0001
0100
1000
0000
0100
0001
0010
0001
0100
0000
0010
0001
0010
1000
0010
0100
,
0001
0010
0100
1000
0002
0000
0000
0000
0203
0000
0000
0000
2300
0000
3200
0000
,
0302
0000
0023
0000
0230
0000
0302
0203
,
2300
0000
3020
0000
0032
0000
2003
3200
,
0320
0000
2030
0000
3200
0000
0302
0203
,
0320
0030
0000
0000
;

//---------------dance-double - Talkion-BDP----------------
#NOTES:
     dance-double:
     Talkion:
     Easy:
     10:
     0.358017,0.428571,0.261224,0.359184,0,307,275,32,44,0,0,0.358017,0.428571,0.261224,0.359184,0,307,275,32,44,0,0:
00000000
00000000
00000000
00000000
,
00000000
00000000
00000000
00000000
,
00000000
00000000
00000000
00000000
,
00000001
00000001
00000100
00000100
,
00000010
00000000
00000010
00000000
00010000
00001000
00010000
00000000
,
00001000
00001000
00100000
00100000
,
01000000
00000000
01000000
00000000
10000000
00010000
10000000
00000000
,
00100000
00100000
00010000
00010000
,
00001000
00000000
00001000
00000000
00000010
00000001
00000010
00000000
,
00001000
00001000
00010000
00010000
,
00100000
00000000
00100000
00000000
10000000
01000000
00100000
00000000
,
00010000
00000000
00000000
10010000
00000000
00000000
10000000
00000000
,
01000000
00000000
00000000
01010000
00000000
00000000
00010000
00000000
,
00001000
00000000
00000000
00001100
00000000
00000000
00000100
00000000
,
00000001
00000000
00000000
00000011
00000000
00000000
00000010
00000000
,
00000100
00000000
00000000
00001001
00000000
00000000
00010000
00000000
,
00011000
00000000
00000000
00100000
00000000
00000000
00010000
00000000
,
10010000
00000000
00000000
10000000
00000000
00000000
00100000
00000000
,
01100000
00000000
00000000
00001000
00000000
00000000
00011000
00000000
,
00000000
00020000
00000000
00000000
,
00032000
00003020
00000000
00000000
,
00000000
00000030
00000000
00000002
,
00000000
00000203
00000000
00002300
,
00000000
00023000
00000000
00000000
,
02030000
23000000
00000000
00000000
,
00000000
30000000
00000000
00200000
,
00000000
00320000
00000000
00032000
,
00000000
00000000
00003010
00000000
00000000
00001001
00000000
00000000
,
00000001
00000000
00000100
00000000
00000000
00000110
00000000
00000000
,
00010000
00000000
00001000
00000000
00000000
00011000
00000000
00000000
,
00100000
00000000
00010000
00000000
00000000
01100000
00000000
00000000
,
10000000
00000000
01000000
00000000
00000000
00110000
00000000
00000000
,
00001000
00000000
00010000
00000000
00000000
00001100
00000000
00000000
,
00000010
00000000
00000001
00000000
00000000
00000110
00000000
00000000
,
00001000
00000000
00000100
00000000
00010000
00001000
00010000
00001000
,
00100000
00020000
10030000
20000000
,
31000000
02000000
03010000
00020000
,
00031000
00002000
00000010
00010000
,
00010000
00003020
00000130
00000200
,
00001300
00002000
00003001
00000002
,
00000103
00000200
00001300
00002000
,
00013000
00020000
00100000
00001000
,
00001000
00230000
01300000
02000000
,
03010000
00000000
10010000
00000000
10000000
01000000
00010000
00000000
,
00000000
00000000
00011000
00000000
00001000
00000100
00000001
00000000
,
00000000
00000000
00001001
00000000
00000001
00000010
00001000
00000000
,
00000000
00000000
00011000
00000000
00010000
00100000
10000000
00000000
,
00000000
00000000
10010000
00000000
10000000
01000000
00100000
00000000
,
00000000
00000000
00011000
00000000
00010000
00000100
00000010
00000000
,
00000000
00000000
00001001
00000000
00000001
00000100
00000010
00000000
,
00000000
00000000
00011000
00000000
00001000
01000000
00100000
01000000
,
00010000
00000000
10000000
00000000
01000000
00000000
00001000
00000200
,
00001300
00000000
00000001
00000000
00000100
00000000
00010000
02000000
,
03010000
00000000
10000000
00000000
00100000
00000000
00001000
00000020
,
00001030
00000000
00000001
00000000
00000010
00000000
00010000
00200000
,
00310000
20000000
00100000
00010000
,
32000000
03020000
00001000
00100000
,
00032000
00003200
00000010
00001000
,
00000320
00002030
00000100
00000001
,
00003020
00000130
00001000
00200000
,
00300000
00100000
00001000
00000100
,
00000001
00000020
00000100
00001000
,
00000100
00000000
00000031
00000000
00000100
00000000
00001000
00010000
,
00001000
00010000
00001000
00000000
00100000
00110000
00000000
00000000
,
10010000
00000000
10000000
00000000
00100000
10100000
00000000
00000000
,
10010000
00000000
00100000
00000000
00001000
00011000
00000000
00000000
,
00010100
00000000
00000100
00000000
00010000
00011000
00000000
00000000
,
00101000
00000000
00001000
00000000
00000100
00000001
00000000
00000100
,
00001000
00000000
00010000
00000000
01000000
10000000
00000000
01000000
,
00010000
00000000
00001000
00000000
00000100
00000010
00000000
00001000
,
00000001
00000000
00000010
00000000
00001000
00010000
00001000
00010000
,
00001000
00000000
00000100
00000000
00000010
00000000
00010000
00200000
,
01300000
00000000
00100000
00000000
01000000
00000000
00001000
00000200
,
00000310
00000000
00001000
00000000
00000001
00000000
00000010
00002000
,
00013000
00000000
10000000
00000000
00010000
00000000
00001000
00000020
,
00000031
00000000
00000000
00000000
;

//---------------dance-double - Talkion-DDP----------------
#NOTES:
     dance-double:
     Talkion:
     Medium:
     14:
     0.549271,0.614286,0.408163,0.571429,0.151020,471,421,50,70,0,0,0.549271,0.614286,0.408163,0.571429,0.151020,471,421,50,70,0,0:
00000000
00000000
00000000
00000000
,
00000000
00000000
00000000
00000000
,
00000000
00000000
00000000
00000000
,
10000000
00000000
00000000
10000000
01000000
00000000
00000000
00000000
01000000
00000000
00000000
01000000
00010000
00000000
00000000
00000000
,
00001000
00000100
00000001
00000100
00001000
00010000
00000100
00000010
,
00000001
00000000
00000000
00000001
00000010
00000000
00000000
00000000
00000010
00000000
00000000
00000010
00001000
00000000
00000000
00000000
,
00010000
00100000
10000000
00100000
00010000
00001000
00100000
01000000
,
00010000
00000000
00000000
00010000
00001000
00000000
00000000
00000000
00001000
00000000
00000000
00001000
00000100
00000000
00000000
00000000
,
00000010
00001000
00000100
00000010
00001000
00010000
00000010
00010000
,
00001000
00000000
00000000
00001000
00010000
00000000
00000000
00000000
00010000
00000000
00000000
00010000
00100000
00000000
00000000
00000000
,
01000000
00010000
00100000
01000000
00010000
00001000
00000100
00000001
,
00001001
00000000
00000000
00011000
00000000
00000000
01100000
00000000
,
10010000
00000000
00000000
00011000
00000000
00000000
00000110
00000000
,
00001001
00000000
00000000
00011000
00000000
00000000
00110000
00000000
,
10100000
00000000
00000000
01010000
00000000
00000000
00001010
00000000
,
00000101
00000000
00000000
00000100
00000000
00000000
00001000
00000000
00000000
01000000
00000000
00000000
10010000
00000000
00000000
00000000
,
10100000
00000000
00000000
00100000
00000000
00000000
00010000
00000000
00000000
00000010
00000000
00000000
00001001
00000000
00000000
00000000
,
00000110
00000000
00000000
00000001
00000000
00000000
00000010
00000000
00000000
00001000
00000000
00000000
00011000
00000000
00000000
00000000
,
01100000
00000000
00000000
01000000
00000000
00000000
00010000
00000000
00000000
00001000
00000000
00000000
00011000
00000000
00000000
00000000
,
00000000
00000002
00000000
00000000
,
00002003
00023000
00000000
00000000
,
00000000
00000000
00000000
20030000
,
00000000
32000000
00000000
03020000
,
00000000
00030200
00000000
00000000
,
00000302
00002003
00000000
00000000
,
00000000
00000000
00000000
00023000
,
00000000
00230000
00000000
20300000
,
00000000
00000000
30010000
00000000
00100000
00011000
00000000
00000010
,
00011000
00000000
00001000
00000000
00000100
00001001
00000000
00000010
,
00001001
00000000
00000001
00000000
00001000
00010100
00000000
00010000
,
00101000
00000000
00001000
00000000
01000000
00011000
00000000
00000100
,
00011000
00000000
00000000
00000000
00010000
00000000
01000000
00100000
01000000
00000000
20000000
00000000
00000000
00000000
00010000
00000000
,
30010000
00000000
00000000
00000000
00100000
00000000
00001000
00010000
00001000
00000000
00000020
00000000
00000000
00000000
00000100
00000000
,
00000130
00000000
00000000
00000000
00000001
00000000
00000100
00000010
00000100
00000000
00002000
00000000
00000000
00000000
00000001
00000000
,
00003001
00000000
00000100
00001000
01000000
00010000
00001000
00000100
,
00010000
00001000
00010000
01000000
00010000
00001000
00010000
00100000
,
10000000
00100000
00010000
00001000
00000010
00000100
00001000
00000010
,
00000100
00000020
00000001
00001000
,
00010030
00000000
00001000
00010000
01000000
00000000
01000000
00010000
,
00001000
00000000
00001000
00000010
00001000
00010000
00001000
00000100
,
00000001
00000100
00001000
00010000
01000000
00100000
00010000
01000000
,
00100000
02000000
10000000
00010000
,
03001000
00000000
00010000
00001000
00000010
00000000
00000010
00000001
,
00000100
00000000
00000101
00000000
00001001
00001000
00010100
00000000
,
00011000
00000000
00101000
00000000
00110000
00100000
10010000
00000000
,
01100000
00000000
10100000
00000000
10010000
00010000
00101000
00000000
,
00011000
00000000
00010100
00000000
00010000
00001000
00000100
00000001
,
00000010
00000100
00001000
00000000
00001001
00000001
00000010
00001000
,
00011000
00000000
00110000
00000000
10100000
10000000
01000000
00100000
,
01100000
00000000
00110000
00000000
10010000
10000000
00100000
00010000
,
00011000
00000000
00001000
00000010
00000001
00000100
00001000
01000000
,
00100000
01000000
00100000
01000000
00020000
00000000
20030000
00000000
32000000
00000000
00000000
03010000
00002000
00000000
00003200
00000000
,
00000302
00000000
00000000
00000000
00002003
00000000
00003002
00000000
00000023
00000000
00000000
00001030
00020000
00000000
00230000
00000000
,
20300000
00000000
00000000
00000000
30200000
00000000
00320000
00000000
00030020
00000000
00000000
00001030
00000200
00000000
00002300
00000000
,
00003002
00000000
00000000
00000000
00000023
00000000
00002030
00000000
00203000
00000000
00000000
00310000
20000000
00000000
30200000
00000000
,
02300000
00000000
03001000
00010000
00001000
00000010
00000100
00010000
,
00001000
00000000
00010000
00001000
00010000
00100000
01000000
00001000
,
00010000
00000000
01000000
10000000
01000000
00010000
00001000
00100000
,
00001000
00000000
00000100
00000001
00000100
00001000
00010000
00000010
,
00010000
00000000
00002000
00000000
00003010
00000001
00002000
00000000
,
00003001
00000100
00002000
00000000
00013000
00000100
00002000
00000000
,
00013000
00100000
02000000
00000000
10000000
00000000
00010000
00000000
,
00001000
00000000
03100000
00001000
00010000
00001000
00100000
00001000
,
00011000
00000000
00000000
00000000
00000100
00000000
00001000
00000100
00001000
00000000
00000001
00000000
00000100
00000000
00000010
00000000
,
00001000
00000000
00000000
00000000
00010000
00000000
00100000
00010000
00100000
00000000
01000000
00000000
10000000
00000000
00010000
00000000
,
01000000
00000000
00000000
00000000
00100000
00000000
01000000
00100000
01000000
00000000
00001000
00000000
00010000
00000000
00000100
00000000
,
00000010
00000000
00000000
00000000
00001000
00000000
00010000
00001000
00010000
00000000
00000010
00000000
00000100
00000000
00000001
00000000
,
00001000
00000000
00000000
00000000
00000010
00000000
00001000
00000010
00001000
00000000
00000100
00000000
00010000
00000000
00001000
00000000
,
00000010
00000000
00000000
00000000
00001000
00000000
00010000
00001000
00010000
00000000
00100000
00000000
01000000
00000000
00001000
00000000
,
00010000
00000000
00000000
00000000
01000000
00000000
10000000
01000000
10000000
00000000
00010000
00000000
01000000
00000000
00100000
00000000
,
00010000
00000000
00000000
00000000
00001000
00000000
00000010
00001000
00000010
00000000
00000100
00000000
00001000
00000000
00000001
00000000
,
00000100
00000000
00000100
00000000
00000020
00000000
00002030
00000000
00003200
00000000
00000000
00000301
00002000
00000000
00003020
00000000
,
00000032
00000000
00000000
00000000
00000203
00000000
00002300
00000000
00023000
00000000
00000000
01030000
00200000
00000000
00320000
00000000
,
02030000
00000000
00000000
00000000
23000000
00000000
32000000
00000000
03020000
00000000
00000000
00130000
00002000
00000000
00003020
00000000
,
00000032
00000000
00000000
00000000
00002003
00000000
00003020
00000000
00000032
00000000
00000000
00001003
00000200
00000000
00000320
00000000
,
00020030
00030000
00000000
00000000
;

//---------------dance-double - Talkion-EDP----------------
#NOTES:
     dance-double:
     Talkion:
     Hard:
     17:
     0.747522,0.890714,0.220408,0.546939,0.644898,641,614,27,67,0,0,0.747522,0.890714,0.220408,0.546939,0.644898,641,614,27,67,0,0:
// measure 0
00000000
00000000
00000000
00000000
,  // measure 1
00000000
00000000
00000000
00000000
,  // measure 2
00000000
00000000
00000000
00000000
,  // measure 3
00000010
00000000
00000001
00000100
00000010
00000000
00000000
00000000
00000010
00000000
00001000
00000100
00000010
00000000
00000000
00000000
,  // measure 4
00001000
00000000
00010000
00001000
00010000
00001000
00000000
00001000
00100000
00010000
00100000
00010000
10000000
00100000
10000000
00100000
,  // measure 5
01000000
00000000
00010000
00100000
01000000
00000000
00000000
00000000
01000000
00000000
10000000
00100000
01000000
00000000
00000000
00000000
,  // measure 6
00100000
00000000
00010000
00001000
00010000
00001000
00000000
00001000
00000010
00000100
00000010
00000100
00001000
00000001
00001000
00000001
,  // measure 7
00000100
00000000
00001000
00010000
00000100
00000000
00000000
00000000
00000100
00000000
00000010
00001000
00010000
00000000
00000000
00000000
,  // measure 8
00000010
00000000
00010000
00001000
00010000
00001000
00000000
00001000
00100000
00010000
00100000
00010000
01000000
00010000
01000000
00010000
,  // measure 9
00100000
00000000
00001000
00010000
00100000
00000000
00000000
00000000
00100000
00000000
10000000
00100000
00010000
00000000
00000000
00000000
,  // measure 10
00001000
00000000
01000000
00001000
01000000
00001000
00000000
00001000
00010000
00000100
00000010
00000001
00001000
00000100
00000010
00000001
,  // measure 11
00000100
00000000
00000000
00001100
00000000
00000000
00011000
00000000
00000000
01010000
00000000
00000000
01100000
00000000
00000000
00000000
,  // measure 12
00100000
00000000
00000000
00110000
00000000
00000000
00011000
00000000
00000000
00001010
00000000
00000000
00000110
00000000
00000000
00000000
,  // measure 13
00000001
00000000
00000000
00000011
00000000
00000000
00001100
00000000
00000000
00110000
00000000
00000000
01010000
00000000
00000000
00000000
,  // measure 14
10000000
00000000
00000000
11000000
00000000
00000000
00110000
00000000
00000000
00001100
00000000
00000000
00001010
00000000
00000000
00000000
,  // measure 15
00000001
00000000
00000010
00001000
00010000
00000000
00000010
00000000
00000000
00000010
00001000
00000000
00010000
00000000
00010000
00000000
,  // measure 16
10000000
00000000
00100000
00010000
00001000
00000000
00100000
00000000
00000000
00100000
00010000
00000000
00001000
00000000
00001000
00000000
,  // measure 17
00000001
00000000
00000010
00000100
00001000
00000000
00010000
00000000
00000000
00010000
00100000
00000000
00001000
00000000
00100000
00000000
,  // measure 18
01000000
00000000
10000000
00010000
10000000
00000000
00100000
00000000
00000000
00100000
00020000
00000000
00002000
00000000
00000000
00000000
,  // measure 19
00033000
00000000
00000000
00000020
00000000
00000000
00000031
00000010
00001000
00020000
00000000
00000000
,  // measure 20
20030000
00000000
00000000
30200000
00000000
00000000
00310000
00100000
01000000
10000000
00000000
00000000
,  // measure 21
00000000
00000000
00000000
20000000
00000000
00000000
30100000
10000000
01000000
00020000
00000000
00000000
,  // measure 22
00032000
00000000
00000000
00003002
00000000
00000000
00001003
00010000
00000100
00000020
00000000
00000000
,  // measure 23
00000230
00000000
00000000
00002300
00000000
00000000
00003001
00000100
00001000
00020000
00000000
00000000
,  // measure 24
20030000
00000000
00000000
32000000
00000000
00000000
03001000
00010000
00100000
01000000
00000000
00000000
,  // measure 25
00000000
00000000
00000000
00020000
00000000
00000000
10030000
00100000
00010000
00002000
00000000
00000000
,  // measure 26
00003002
00000000
00000000
00000023
00000000
00000000
00010030
00001000
00000100
00000020
00000000
00000000
,  // measure 27
00002030
00000000
00000000
00000000
00003100
00000000
00010000
00001000
00010000
00000000
00001000
00000000
00000100
00001000
00010000
00000000
,  // measure 28
00011000
00000000
00000000
00000000
00100000
00000000
00001000
00010000
00001000
00000000
00010000
00000000
00100000
00010000
00001000
00000000
,  // measure 29
00010000
00000000
01000000
00000000
10000000
00000000
00100000
01000000
00100000
00000000
10000000
00000000
01000000
00010000
00001000
00000000
,  // measure 30
00011000
00000000
00000000
00000000
00001000
00000000
00000100
00000010
00000100
00000000
00001000
00000000
00010000
00001000
00000010
00000000
,  // measure 31
00000100
00000000
00000010
00000000
00001000
00000000
00010000
00001000
00010000
00000000
00100000
00000000
10000000
00100000
00010000
00000000
,  // measure 32
00011000
00000000
00000000
00000000
00010000
00000000
00001000
00010000
00001000
00000000
00000010
00000000
00000001
00000010
00001000
00000000
,  // measure 33
00010000
00000000
00000100
00000000
00000010
00000000
00000001
00000010
00001000
00000000
00010000
00000000
00001000
00010000
00100000
00000000
,  // measure 34
01100000
00000000
00000000
00000000
00100000
00000000
10000000
01000000
00010000
00000000
00001000
00000000
00100000
00001000
00010000
00000000
,  // measure 35
00011000
00000000
00001000
00000100
00000001
00000100
00010000
00001000
,  // measure 36
00000100
00000010
00010000
00100000
00001000
00010000
00100000
01000000
,  // measure 37
00010000
10000000
02000000
00000000
00010000
00000000
00001000
00000000
,  // measure 38
03100000
00001000
00000010
00001000
00010000
00000010
00000100
00000001
,  // measure 39
00001001
00000000
00000001
00000010
00001000
00100000
00001000
00000010
,  // measure 40
00000100
00010000
00100000
01000000
00001000
00010000
10000000
00100000
,  // measure 41
00010000
01000000
00200000
00000000
00010000
00000000
00001000
00000000
,  // measure 42
01300000
00100000
10000000
01000000
00010000
10000000
00100000
00001000
,  // measure 43
00011000
00000000
00000000
00000000
00001000
00000100
00001000
00000100
00000001
00000000
00000010
00000001
00000010
00000001
00000100
00000000
,  // measure 44
00001000
00000000
00000000
00000000
00001000
00010000
00001000
00010000
01000000
00000000
00100000
00010000
00100000
00010000
01000000
00000000
,  // measure 45
00100000
00000000
00100000
00000000
10000000
00100000
10000000
00100000
00010000
00000000
00001000
00100000
00001000
00100000
00010000
00000000
,  // measure 46
00001000
00000000
00000000
00000000
00001000
00000001
00001000
00000001
00000100
00000000
00000001
00000010
00000100
00001000
00000001
00000000
,  // measure 47
00000100
00000000
00000100
00000000
00001000
00010000
00001000
00010000
00000100
00000000
00001000
00010000
00001000
00010000
00100000
00000000
,  // measure 48
00010000
00000000
00000000
00000000
00010000
10000000
00010000
10000000
00100000
00000000
00010000
00001000
00010000
00001000
00100000
00000000
,  // measure 49
01000000
00000000
01000000
00000000
00100000
00010000
00100000
00010000
01000000
00000000
00100000
00010000
00100000
00010000
00001000
00000000
,  // measure 50
00000010
00000000
00000000
00000000
00000010
00000001
00000100
00000001
00000010
00000000
00000001
00000100
00001000
00000000
00010000
00000000
,  // measure 51
00100000
01000000
00100000
01000000
00200000
00000000
00000000
00000000
20300000
00000000
00000000
00000000
30020000
00000000
00032000
00000000
,  // measure 52
00003002
00000000
00000023
00000000
00000032
00000000
00002003
00023000
,  // measure 53
20030000
00000000
32000000
00000000
03200000
00000000
00302000
00003020
,  // measure 54
00000032
00000000
00000203
00000000
00000320
00000000
00020030
00230000
,  // measure 55
20300000
00000000
30010000
10000000
01000000
00010000
00000100
00001000
,  // measure 56
00100000
00010000
00000100
00000010
00001000
01000000
00100000
00010000
,  // measure 57
00011000
00000000
00001000
00000010
00000001
00001000
00000010
00010000
,  // measure 58
00100000
00001000
00000100
00000010
00001000
00010000
00000010
00001000
,  // measure 59
00001001
00000000
00000001
00000010
00001000
00000000
00010000
00100000
,  // measure 60
10000000
01000000
00020000
00000000
00032000
00000000
00003200
00000000
,  // measure 61
00000001
00000301
00001000
00000100
00000010
00001000
01000000
00100000
,  // measure 62
00010000
00001000
01000000
00010000
00100000
00001000
00010000
00000100
,  // measure 63
00000110
00000000
00000000
00000000
00000010
00000001
00000010
00000001
00000100
00000000
00001000
00010000
00001000
00010000
01000000
00000000
,  // measure 64
00100000
00010000
10000000
00000000
00100000
10000000
00100000
10000000
01000000
00000000
00010000
00001000
00010000
00001000
00000100
00000000
,  // measure 65
00000010
00001000
00000001
00000000
00000010
00001000
00000010
00001000
00010000
00000000
00100000
00010000
00100000
00010000
00001000
00000000
,  // measure 66
00100000
00010000
01000000
00000000
00100000
10000000
00100000
10000000
00010000
00000000
00100000
01000000
10000000
00010000
00100000
00000000
,  // measure 67
10010000
00000000
00000000
00000000
10000000
00100000
00010000
00100000
01000000
00000000
00100000
00010000
00001000
00010000
00001000
00000000
,  // measure 68
00010000
01000000
00010000
00000000
00001000
00000010
00000001
00000010
00000100
00000000
00010000
00001000
00010000
00001000
00000010
00000000
,  // measure 69
00000001
00001000
00000001
00000000
00000100
00001000
00010000
00001000
00010000
00000000
01000000
00010000
00001000
00010000
00001000
00000000
,  // measure 70
00000100
00000010
00001000
00000000
00000001
00000010
00000100
00001000
00010000
00000000
00100000
00010000
10000000
00010000
00100000
01000000
,  // measure 71
10000000
01000000
00100000
00010000
02000000
00000000
00000000
00000000
03020000
00000000
00000000
00000000
00030200
00000000
00000320
00000000
,  // measure 72
00002030
00000000
00003002
00000000
00000023
00000000
00020030
02030000
,  // measure 73
03002000
00000000
00203000
00000000
00320000
00000000
00030020
00000230
,  // measure 74
00002300
00000000
00003002
00000000
00002003
00000000
00023000
20030000
,  // measure 75
32000000
03000000
00000000
00000000
;
