#TITLE:KALACAKLA;
#ARTIST:aran & lapix;
#BANNER:KALACAKLA.png;
#BACKGROUND:KALACAKLA-bg.png;
#MUSIC:KALACAKLA.ogg;
#OFFSET:0.906;
#SAMPLESTART:58.733002;
#SAMPLELENGTH:15;
#BPMS:0=165;

//---------------dance-single - NewbStepper-ESP----------------
#NOTES:
     dance-single:
     NewbStepper:
     Hard:
     14:
     0.668919,0.880906,0.213184,0.350231,0.521539,615,587,28,46,0,0,0.668919,0.880906,0.213184,0.350231,0.521539,615,587,28,46,0,0:
0000
0000
0000
0000
,
0000
0000
0000
0000
,
0000
0000
0000
0000
,
0000
0000
0000
0000
,
0000
0000
0000
0000
,
2000
0100
0000
0100
0000
0100
0000
3100
,
0020
0001
0000
0001
0000
0001
0000
0031
,
1000
0100
0010
0001
0100
0010
1000
0100
,
0020
0100
0130
0110
,
0001
0100
1000
0100
0001
0010
1000
0010
,
0001
0000
0100
0000
0010
0000
1000
0100
0010
0000
0001
0000
1001
0000
0000
0000
,
0100
0010
0100
1000
0100
0001
0100
0010
,
0100
1000
0100
0001
0100
0010
0110
0000
,
1000
0100
0001
0100
1000
0010
0001
0010
,
1000
0000
0100
0000
0010
0000
0001
0100
0010
0000
1000
0000
1001
0000
0000
0000
,
0010
0001
0101
0000
0010
1000
1100
0000
,
0010
0000
0001
0000
1000
0010
1000
0010
0100
0000
0000
0000
1010
0000
0000
0000
,
0201
0000
0001
0001
0000
0000
0320
0000
,
1000
0000
0000
0100
0000
0000
0100
0000
0000
0000
0000
0000
2030
0000
0000
0000
,
0100
0000
0000
0000
0100
0000
0100
0000
0000
0000
0000
0000
3001
0000
1000
0100
,
0020
0000
0000
0001
0000
0000
0001
0000
0000
0000
0130
0000
0010
0000
0001
0000
,
1000
0000
0000
1000
0100
0000
0000
0100
0010
0000
0000
0010
0001
0000
0000
0001
,
0100
0000
0000
0100
1000
0000
0000
1000
0100
0000
0000
0100
0010
0000
0000
0010
,
1000
0000
0000
1000
0100
0000
0000
0100
0001
0000
0000
0001
0100
0000
0000
0100
,
0020
0000
0000
0000
0031
0100
0001
0100
0020
0000
0000
0000
0000
0000
0030
0000
,
1000
0100
1000
0000
0001
0000
0100
0000
0010
0000
0100
0000
0001
0000
0100
0000
,
0010
1000
0100
0010
0100
1000
0100
0001
,
0100
0010
0001
0100
1000
0100
0001
0010
,
0100
1000
0100
0001
0100
1000
0010
0100
,
0001
0000
1000
0000
0100
0010
0100
0000
1000
0000
0001
0000
0100
0010
0100
0000
,
0001
0000
1000
0000
0010
0100
0010
0000
1000
0000
0001
0000
0010
0100
0010
0000
,
0001
1000
0001
0000
1000
0001
1000
0000
0100
0010
0100
0000
0010
0100
0010
0000
,
0001
1000
0001
1000
0001
1000
0001
1000
0002
0000
0000
0000
0000
0000
0000
0000
,
0103
0100
0010
0010
,
1000
1000
0001
0001
,
0010
0010
0100
0100
,
1000
1000
0001
0001
,
2000
0010
3200
0001
,
0320
1000
0230
0001
,
0310
0001
0100
0010
1000
0100
0010
0001
,
0200
0000
0310
0000
,
1000
0000
0001
0100
0010
0000
1000
0000
0001
0000
0100
0000
0010
0000
1000
0000
,
0100
0001
0100
1000
0100
0001
0100
1000
,
0001
0000
1000
0100
0010
0000
0001
0000
1000
0000
0100
0000
0010
0000
0001
0000
,
0100
0000
1000
0000
0100
0000
0001
1000
0001
1000
0001
1000
0010
0000
1000
0100
,
0010
0001
0010
0001
1000
0010
0100
0001
,
0010
1000
0010
0001
0010
1000
0010
0001
,
0100
0000
0001
0010
0001
0000
1000
0010
1000
0000
0001
0010
0001
0000
1000
0010
,
2000
3000
0202
0303
2020
3030
0220
0330
,
1001
0000
0000
0010
0000
0000
0010
0000
0001
0000
0100
0000
0110
0000
0000
0000
,
0010
0000
1000
0000
0100
0000
0010
0001
0010
0000
0100
0000
0001
0000
0100
0000
,
1000
0000
0000
0100
0000
0000
0100
0000
1000
0000
0001
0010
0001
0000
1000
0010
,
2000
3200
0320
0031
,
1001
0000
0000
0010
0000
0000
0010
0000
1000
0000
0100
0000
0110
0000
0000
0000
,
0010
0000
0001
0000
0100
0000
0010
1000
0010
0000
0100
0000
1000
0000
0100
0000
,
0001
0000
0000
0100
0000
0000
0100
0000
0001
0000
1000
0010
1000
0000
0001
0010
,
0002
0000
0000
0000
1003
0000
0000
0000
0100
0010
0100
0000
0110
0000
0000
0000
,
1000
0000
0001
0000
0100
0000
0010
0000
1000
0000
0001
0100
0010
0000
0000
0000
,
2000
0000
3001
0100
0010
0100
1000
0100
,
0001
0000
1000
0000
0010
0000
0100
0000
0001
0000
1000
0100
1000
0000
0001
0100
,
0002
0203
0320
1030
,
0001
0000
1000
0000
0100
0000
0010
0000
0001
0000
1000
0100
0010
0000
0000
0000
,
0002
0000
1003
0100
0010
0100
0001
0100
,
1000
0001
0010
0100
1000
0001
0100
0010
,
1000
0100
0020
0000
0130
0000
0110
0000
,
2002
0000
0000
0000
,
0000
0000
0000
3003
,
0010
0000
0000
0010
0000
0000
0010
0000
0000
0001
0000
0100
,
0001
0000
0000
1000
0100
1000
0100
0000
0100
0010
0000
0000
,
0002
0100
2003
0100
,
3002
0203
0320
1030
,
0001
0000
0100
0000
0010
0000
1000
0000
0100
0000
0010
0000
,
0001
0000
0000
1000
0001
1000
0100
0000
0000
1001
0000
0000
,
0010
0000
0010
0001
0000
0001
0100
0000
0100
0010
1000
0010
,
1000
0000
0100
0010
0001
0010
0002
0000
0000
1003
0000
0000
,
0001
0000
0001
1000
0000
1000
0100
0000
0100
0010
0001
0100
,
0010
0000
0010
1000
0001
1000
0020
0000
0000
0130
0000
0000
,
0010
0000
0010
1000
0000
1000
0100
0000
0100
0010
0001
0010
,
0001
0000
0100
0010
1000
0010
2000
0000
0000
3001
0000
0000
,
1000
0000
1010
0000
0110
0000
0001
0000
0011
0000
0110
0000
,
1000
0100
0010
0001
0100
0010
1000
0001
0010
0200
0000
0000
,
1300
0000
1000
0100
0000
0100
0001
0000
0001
0100
1000
0100
,
0010
0000
0010
0001
1000
0001
0200
0000
0000
0310
0000
0000
,
1000
0000
1000
0001
0000
0001
0010
0000
0010
0100
1000
0001
,
0100
0000
0100
1000
0100
0001
0010
0000
0000
0110
0000
0000
,
0001
0000
0001
0100
0000
0100
1000
0000
1000
0100
0001
0100
,
0010
0000
0010
1000
0001
1000
0200
0000
0000
0310
0000
0000
,
0001
0000
0011
0000
0110
0000
1000
0000
1010
0000
0110
0000
,
0001
0100
0010
1000
0100
0010
0001
1000
0010
0200
0000
0000
,
0300
0000
0000
0000
;

//---------------dance-single - NewbStepper-DSP----------------
#NOTES:
     dance-single:
     NewbStepper:
     Medium:
     11:
     0.468787,0.641931,0.228411,0.213184,0.213184,431,401,30,28,0,0,0.468787,0.641931,0.228411,0.213184,0.213184,431,401,30,28,0,0:
0000
0000
0000
0000
,
0000
0000
0000
0000
,
0000
0000
0000
0000
,
0000
0000
0000
0000
,
0000
0000
0000
0000
,
0002
0000
0000
0000
,
2003
0000
0000
0000
,
3010
0010
0100
0100
,
2002
0000
0000
3003
,
0010
0000
0001
0000
0100
0010
1000
0000
,
0001
0000
1000
0100
0010
0001
1000
0000
,
0010
1000
0001
0100
,
0020
0000
1000
0000
0100
0100
0130
0000
,
0010
0000
1000
0000
0100
0010
0001
0000
,
1000
0000
0001
0100
0010
1000
0001
0000
,
0010
0001
1000
0100
,
0020
0000
0100
0100
0130
0000
0110
0000
,
2002
0000
0003
0000
,
0020
0000
3000
0000
,
0200
0000
0030
0000
,
0002
0000
0303
0000
,
1000
0000
1000
0000
1000
0000
1000
0100
,
0001
0000
0001
0000
0001
0000
0001
0100
,
0010
0000
0010
0000
0010
0000
0010
0001
,
0200
0000
0320
0000
,
1030
0001
0100
0000
0001
1000
0100
0000
,
0010
0000
0001
0000
1000
0010
0100
0000
,
0001
1000
0100
0000
1000
0001
0100
0000
,
0010
0000
1000
0000
0001
0010
0100
0000
,
1000
0010
1000
0010
0100
0001
0100
0001
,
1000
0100
1000
0100
0010
0001
0010
0001
,
1000
0010
1000
0001
0010
0001
1000
0010
,
0200
0000
0310
0000
,
1000
1000
1000
1000
,
0001
0001
0001
0001
,
0100
0100
0100
0100
,
0010
0010
0010
0010
,
1000
0100
0001
0010
,
1000
0100
0001
0010
,
1000
0001
1000
0000
0001
1000
0001
0000
,
0101
0000
1010
0000
,
0001
0100
1000
0000
1000
0100
0001
0000
,
0001
0100
0010
0100
1000
0100
0001
0000
,
1000
0100
0001
0000
0001
0100
1000
0000
,
1000
0100
0010
0100
0001
0100
1000
0000
,
0010
1000
0100
0001
,
0010
1000
0100
0001
,
0010
0101
1010
0110
,
2001
0100
3010
0110
,
0001
0000
0000
1000
0000
0000
0001
0000
0200
0000
0000
0000
0310
0000
0000
0000
,
2000
0000
0000
0000
3000
0010
1000
0010
,
0100
0000
0000
0100
0010
0000
0000
0000
1000
0000
0000
1000
0001
0000
0000
0000
,
1000
0000
1000
0100
0001
0000
0100
0000
,
0010
0000
0000
0001
0000
0000
1000
0000
0200
0000
0000
0000
0310
0000
0000
0000
,
0001
0000
1000
0100
0010
0001
0100
0010
,
1000
0000
0000
1000
0000
0000
1000
0000
0001
0000
0000
0001
0000
0000
0001
0000
,
2000
3010
0110
1001
,
1000
0000
0000
0001
0000
0000
1000
0000
0200
0000
0000
0000
0310
0000
0000
0000
,
0002
0000
0000
0000
0003
0010
0001
0010
,
0100
0000
0000
0100
0010
0000
0000
0000
0001
0000
0000
0001
1000
0000
0000
0000
,
1000
0000
0001
0100
1000
0000
0100
0000
,
0010
0000
0000
1000
0000
0000
0001
0000
0200
0000
0000
0000
0310
0000
0000
0000
,
1000
0000
0001
0100
0010
1000
0100
0010
,
0001
0000
0000
0001
0000
0000
0001
0000
1000
0000
0000
1000
0000
0000
1000
0000
,
0020
1000
0001
0130
,
0220
0000
0000
0000
,
0000
0000
0000
0330
,
1000
0000
0000
1000
0000
0000
1000
0000
0000
0001
0000
0001
,
0100
0000
0000
0010
0000
0010
0100
0000
0000
1001
0000
0000
,
1000
1100
0010
0110
,
0001
0000
0001
0100
0000
0100
0010
0000
0000
0110
0000
0000
,
0001
0000
0001
0000
0001
0000
1000
0000
1000
0000
1000
0000
,
0020
0100
0100
0130
,
0001
0101
1000
1100
,
0001
0000
0001
1000
0000
1000
0010
0000
0000
1001
0000
0000
,
1000
1100
0001
0101
,
1000
0000
1000
0001
0000
0001
0010
0000
0000
0110
0000
0000
,
1000
1010
0010
0110
,
0100
0000
0100
0010
0000
0010
1000
0000
0000
1001
0000
0000
,
0001
0000
0001
0000
0001
0000
1000
0000
1000
0000
1000
0000
,
0020
0100
0130
0110
,
1000
0000
1000
0100
0000
0100
0010
0000
0010
0001
0000
0001
,
1000
0000
1000
0100
0010
0001
0010
0000
0000
0110
0000
0000
,
0001
0000
0001
0100
0000
0100
0010
0000
0010
1000
0000
1000
,
0001
0000
0001
0100
0010
1000
0010
0000
0000
0110
0000
0000
,
1000
0000
1000
0001
0000
0001
0100
0000
0100
0010
1000
0010
,
1000
0000
1000
0100
0010
0100
0010
0000
0000
0110
0000
0000
,
1000
0000
1000
0000
1000
0000
0001
0000
0001
0000
0001
0000
,
0200
0010
1000
0301
;

//---------------dance-single - NewbStepper-BSP----------------
#NOTES:
     dance-single:
     NewbStepper:
     Easy:
     6:
     0.289321,0.439216,0.304548,0.213184,0,266,226,40,28,0,0,0.289321,0.439216,0.304548,0.213184,0,266,226,40,28,0,0:
0000
0000
0000
0000
,
0000
0000
0000
0000
,
0000
0000
0000
0000
,
0000
0000
0000
0000
,
0000
0000
0000
0000
,
2000
0000
0000
3000
,
0000
0000
0000
0000
,
0002
0000
0000
0003
,
0000
0000
0000
0000
,
1000
0100
0001
0100
,
0010
0001
0100
0100
,
0001
0100
1000
0100
,
0010
1000
0001
1000
,
0001
0100
1000
0100
,
0001
0100
1000
0100
,
0001
1000
0100
0001
,
0100
0000
0110
0000
,
2002
0000
0000
0000
,
0000
0000
0000
0000
,
0000
0000
0000
0000
,
0000
0000
3003
0000
,
1000
1000
1000
1000
,
0001
0001
0001
0001
,
0010
0010
0010
0010
,
0100
0000
0110
0000
,
1001
0000
0010
0000
,
0010
0000
0100
0000
,
1001
0000
0100
0000
,
0100
0000
0010
0000
,
1000
1000
0001
0001
,
0100
0100
0010
0010
,
1000
0100
0010
0001
,
2002
0000
3003
0000
,
1000
0100
1000
0100
,
1000
0100
1000
0100
,
0001
0100
0001
0100
,
0001
0100
0001
0100
,
0001
0010
0001
0010
,
0001
0010
0001
0010
,
1000
0010
1000
0010
,
2000
3000
0002
0003
,
1000
0100
1100
0000
,
0001
0100
0101
0000
,
1000
0010
0001
1000
,
0100
0001
0010
0000
,
0001
0100
0101
0000
,
1000
0100
1100
0000
,
0001
0010
1000
0100
,
0001
0110
1001
0110
,
2001
0000
0100
0000
,
3200
0000
0000
0300
,
0010
0000
0010
0000
,
0001
0100
1000
0100
,
0002
0000
0100
0000
,
0203
0000
0000
0300
,
0010
1000
0100
0010
,
0001
0100
0010
0110
,
1000
0100
1000
0010
,
0001
0010
1000
0000
,
0001
0100
0001
0010
,
1000
0010
0001
0000
,
1000
0010
1000
0100
,
0001
0100
1000
0000
,
0001
0010
0001
0100
,
1000
0100
0001
0000
,
2002
0000
0000
0000
,
0000
0000
0000
3003
,
0220
0000
0000
0000
,
0000
0000
0000
0330
,
1000
0100
1100
0000
,
0001
0100
0101
0000
,
1001
0000
0110
0000
,
2002
0000
0000
3003
,
0001
0100
1000
0010
,
0001
0100
0220
0330
,
1000
0100
0001
0010
,
1000
0100
0220
0330
,
0001
0010
1000
0001
,
0100
1000
2002
3003
,
1001
0000
0110
0000
,
2002
0000
0000
3003
,
1010
0000
0101
0000
,
0100
0001
1001
0000
,
0011
0000
1100
0000
,
0100
1000
1001
0000
,
0101
0000
1010
0000
,
0010
1000
1001
0000
,
1001
0000
0110
0000
,
2002
0000
0000
3003
;

//---------------dance-single - NewbStepper-bSP----------------
#NOTES:
     dance-single:
     NewbStepper:
     Beginner:
     3:
     0.142485,0.270287,0.053296,0.175115,0,131,124,7,23,0,0,0.142485,0.270287,0.053296,0.175115,0,131,124,7,23,0,0:
0000
0000
0000
0000
,
0000
0000
0000
0000
,
0000
0000
0000
0000
,
0000
0000
0000
0000
,
0000
0000
0000
0000
,
0001
0000
0000
0000
,
0000
0000
0000
0000
,
0001
0000
0000
0000
,
0000
0000
0000
0000
,
1000
0000
0000
0000
,
0000
0000
0000
0000
,
1000
0000
0000
0000
,
0010
0000
0010
0000
,
1000
0000
0000
0000
,
0000
0000
0000
0000
,
1000
0000
0000
0000
,
0001
0000
0000
0000
,
2002
0000
0000
0000
,
0000
0000
0000
0000
,
0000
0000
0000
0000
,
0000
0000
3003
0000
,
0001
0000
0001
0000
,
0001
0000
0000
0000
,
1000
0000
1000
0000
,
1000
0000
1000
0000
,
0002
0000
0000
0000
,
0000
0000
0003
0000
,
0200
0000
0000
0000
,
0000
0000
0300
0000
,
0020
0000
0000
0000
,
0000
0000
0030
0000
,
2000
0000
0000
0000
,
0000
0000
3000
0000
,
0001
0000
0001
0000
,
0001
0000
0001
0000
,
1000
0000
1000
0000
,
1000
0000
1000
0000
,
0010
0000
0010
0000
,
0010
0000
0010
0000
,
0100
0000
0100
0000
,
0100
0000
0100
0000
,
0001
0000
0001
0000
,
0100
0100
0100
0000
,
1000
0000
1000
0000
,
0100
0100
0100
0000
,
0001
0000
0001
0000
,
0010
0010
0010
0000
,
0220
0000
0000
0330
,
0000
0000
0000
0000
,
1000
0000
0000
0000
,
0002
0000
0003
0000
,
1000
0000
1000
0000
,
0020
0000
0030
0000
,
0100
0000
0000
0000
,
0200
0000
0300
0000
,
0001
0000
1000
0000
,
0100
0000
0000
1001
,
0001
0000
0000
0000
,
2000
0000
3000
0000
,
0001
0000
0000
0000
,
2000
0000
3000
0000
,
0001
0000
0001
0000
,
0020
0000
0030
0000
,
0100
0000
0000
0000
,
0200
0000
0300
0000
,
2002
0000
0000
0000
,
0000
0000
0000
0000
,
0000
0000
0000
0000
,
0000
0000
0000
3003
,
0001
0001
0001
0000
,
1000
1000
1000
0000
,
0001
0000
1000
0000
,
2002
0000
0000
3003
,
0001
0000
0001
0000
,
0100
0100
0100
0000
,
1000
0000
1000
0000
,
0100
0100
0100
0000
,
0001
0001
0001
0000
,
1000
1000
1000
0000
,
2002
0000
0000
0000
,
0000
0000
3003
0000
,
0001
0001
0001
0001
,
1000
1000
1000
0000
,
0010
0010
0010
0010
,
0100
0100
0100
0000
,
1000
1000
1000
1000
,
0001
0001
0001
0000
,
1000
0000
0001
0000
,
2002
0000
0000
3003
;

//---------------dance-double - NewbStepper-EDP----------------
#NOTES:
     dance-double:
     NewbStepper:
     Hard:
     14:
     0.640639,0.847025,0.159888,0.251252,0.494891,589,568,21,33,0,0,0.640639,0.847025,0.159888,0.251252,0.494891,589,568,21,33,0,0:
00000000
00000000
00000000
00000000
,
00000000
00000000
00000000
00000000
,
00000000
00000000
00000000
00000000
,
00000000
00000000
00000000
00000000
,
00000000
00000000
00000000
00000000
,
00020000
00000100
00000000
00000100
00000000
00000100
00030000
00000100
,
00002000
00000001
00000000
00000001
00000000
00000001
00000000
00003001
,
00000100
00000010
00001000
00000100
00010000
00001000
00100000
00010000
,
20000000
00100000
30100000
01100000
,
10000000
01000000
00100000
00010000
01000000
00100000
00010000
00001000
,
00100000
01000000
10000000
00100000
00010000
00001000
00000010
00000001
,
00001000
00000010
00010000
00001000
00010000
00000010
00000100
00001000
,
00010000
00100000
10000000
01000000
00010000
00001000
00000100
00000000
,
00000001
00000100
00000010
00001000
00000100
00000010
00001000
00010000
,
00000010
00000100
00000001
00000010
00001000
00010000
00100000
10000000
,
10100000
11000000
01010000
00110000
,
01100000
00000000
00000000
00000000
10000000
00010000
10000000
00010000
00100000
00000000
00000000
00000000
01100000
00000000
00000000
00000000
,
00012000
00000000
01000000
01000000
00000000
00000000
00023000
00000000
,
00001000
00000000
00000000
00000010
00000000
00000000
00000010
00000000
00000000
00000000
00000000
00000000
00031000
00000000
00000000
00000000
,
00021000
00000000
00000000
00000000
00000100
00000000
00000100
00000000
00000000
00000000
00000000
00000000
00031000
00000000
00010000
00001000
,
02000000
00000000
00000000
00100000
00000000
00000000
03100000
00000000
00000000
00000000
10000000
00000000
01000000
00000000
00100000
00000000
,
00010000
00000000
00000000
00010000
10000000
00000000
00000000
10000000
01000000
00000000
00000000
01000000
00010000
00000000
00000000
00010000
,
00001000
00000000
00000000
00001000
00000010
00000000
00000000
00000010
00000100
00000000
00000000
00000100
00010000
00000000
00000000
00010000
,
00001000
00000000
00000000
00001000
00000100
00000000
00000000
00000100
00000001
00000000
00000000
00000001
00000010
00000000
00000000
00000010
,
00002000
00000000
00000000
00000000
00013000
00001000
00010000
00001000
02000000
00000000
00000000
00000000
00000000
00000000
00000000
00000000
,
03010000
00000000
10010000
00000000
,
10000000
01000000
00010000
00000000
00011000
00000000
00000000
00000000
,
00000100
00010000
00001000
00000100
00000010
00001000
00000100
00000010
,
00000001
00000100
00001000
00010000
01000000
10000000
00100000
01000000
,
00001000
00000000
00100000
00000000
00001000
00010000
00001000
00000000
00010000
00000000
00000010
00000000
00010000
00001000
00010000
00000000
,
00000010
00001000
00000001
00000100
00001000
00010000
01000000
10000000
,
00010000
01000000
00010000
00000000
10000000
01000000
10000000
00000000
00010000
00100000
00010000
00000000
00100000
00001000
00100000
00000000
,
00001000
00010000
00001000
00010000
00001000
00010000
00001000
00010000
00002000
00000000
00000000
00000000
00000000
00000000
00000000
00000000
,
00013000
00010000
01000000
01000000
,
10000000
10000000
00100000
00100000
,
00010000
00010000
00001000
00001000
,
00000100
00000100
00000001
00000001
,
00000020
00000001
00000230
00000010
,
00002300
00000100
00023000
00001000
,
01030000
00010000
10000000
01000000
00010000
00001000
00000010
00000001
,
00002000
00000000
00003001
00000000
,
00001000
00000001
00000100
00001000
00010000
01000000
10000000
00100000
,
00010000
00001000
00010000
01000000
00010000
00001000
00000100
00000001
,
00000010
00000000
00001000
00000000
00000010
00000000
00000001
00000000
00000100
00000000
00001000
00000000
00010000
00000000
00100000
10000000
,
00100000
00000000
01000000
00010000
01000000
00000000
00010000
10000000
00010000
00000000
10000000
01000000
10000000
00000000
00010000
01000000
,
00010000
10000000
01000000
00010000
00001000
00000100
00000001
00000010
,
00001000
00010000
00001000
00000100
00001000
00010000
01000000
10000000
,
00100000
00000000
10000000
01000000
10000000
00000000
00010000
01000000
00010000
00000000
00100000
00001000
00100000
00000000
00001000
00010000
,
00002000
00000010
00100000
00003010
,
00000110
00000000
00000000
00000100
00001000
00000000
00000001
00000000
00000100
00000000
00001000
00000000
00011000
00000000
00000000
00000000
,
00010000
00001000
00100000
01000000
10000000
00100000
00010000
00100000
,
01000000
00000000
00000000
01000000
00000000
00000000
00001000
00000000
00000100
00000000
00000000
00000100
00000000
00000000
00010000
00000000
,
02000000
00010000
10000000
03100000
,
01100000
00000000
00000000
01000000
00010000
00000000
10000000
00000000
01000000
00000000
00010000
00000000
00011000
00000000
00000000
00000000
,
00001000
00010000
00000010
00000100
00000001
00000010
00001000
00000010
,
00000100
00000000
00000000
00000100
00000000
00000000
00010000
00000000
00001000
00000000
00100000
00010000
00100000
00000000
01000000
10000000
,
02000000
00000000
00000000
00000000
03010000
00000000
00000000
00000000
00001000
00010000
00001000
00000000
00011000
00000000
00000000
00000000
,
00010000
00000000
00001000
00000000
00000100
00000000
00000001
00000000
00000010
00000000
00000001
00001000
00000100
00000000
00000000
00000000
,
00000020
00000000
00000031
00000100
00000010
00000100
00001000
00010000
,
01000000
00000000
10000000
00000000
00100000
00000000
00010000
00000000
00100000
00000000
10000000
01000000
10000000
00000000
00010000
01000000
,
00020000
01000000
10000000
00130000
,
00001000
00000000
00010000
00000000
01000000
00000000
10000000
00000000
00100000
00000000
10000000
00010000
01000000
00000000
00000000
00000000
,
00200000
00000000
10300000
01000000
00100000
01000000
00010000
00001000
,
00000100
00000000
00000001
00000000
00000010
00000000
00001000
00000000
00000010
00000000
00000001
00000100
00000001
00000000
00001000
00000100
,
00002000
00000100
00000001
00003010
,
00000220
00000000
00000000
00000000
,
00000000
00000000
00000000
00000330
,
00000001
00000000
00000000
00000001
00000000
00000000
00000001
00000000
00000000
00001000
00000000
00000100
,
00001000
00000000
00000000
00000010
00010000
00000010
00010000
00000000
00010000
00001000
00000000
00000000
,
00020000
01000000
00032000
00000100
,
00023000
00230000
20300000
30010000
,
10000000
00000000
01000000
00000000
00010000
00000000
00001000
00000000
00000100
00000000
00000001
00000000
,
00001000
00000000
00000000
00000001
00001000
00000001
00000100
00000000
00000000
00001001
00000000
00000000
,
00000010
00000000
00000010
00000001
00000000
00000001
00000100
00000000
00000100
00001000
00010000
00001000
,
00010000
00000000
01000000
00010000
00001000
00010000
00001000
00000000
00000000
00011000
00000000
00000000
,
00100000
00000000
00100000
10000000
00000000
10000000
01000000
00000000
01000000
00010000
00001000
00010000
,
00001000
00000000
00000100
00001000
00010000
00001000
00010000
00000000
00000000
00011000
00000000
00000000
,
00001000
00000000
00001000
00000010
00000000
00000010
00000001
00000000
00000001
00000100
00000010
00001000
,
00000010
00000000
00000010
00010000
00001000
00010000
00002000
00000000
00000000
00003010
00000000
00000000
,
00000001
00000000
00000100
00000000
00001000
00000000
00010000
00000000
01000000
00000000
10000000
00000000
,
00010000
10000000
01000000
00100000
00010000
01000000
00100000
00010000
00001000
00000010
00000000
00000000
,
00000001
00000000
00000001
00000100
00000000
00000100
00001000
00000000
00001000
00010000
00000100
00010000
,
00001000
00000000
01000000
00001000
00010000
00001000
00200000
00000000
00000000
01300000
00000000
00000000
,
10000000
00000000
10000000
01000000
00000000
01000000
00010000
00000000
00010000
00001000
01000000
00001000
,
00010000
00000000
00000100
00010000
00001000
00010000
00000020
00000000
00000000
00000130
00000000
00000000
,
00000001
00000000
00000001
00001000
00000000
00001000
00000010
00000000
00000010
00000100
00001000
00010000
,
00001000
00000000
00001000
00010000
01000000
10000000
00100000
00000000
00000000
01100000
00000000
00000000
,
10000000
00000000
01000000
00000000
00010000
00000000
00001000
00000000
00000100
00000000
00000001
00000000
,
00001000
00000001
00000100
00000010
00001000
00000100
00000010
00001000
00010000
00200000
00000000
00000000
,
00300000
00000000
00000000
00000000
;

//---------------dance-double - NewbStepper-DDP----------------
#NOTES:
     dance-double:
     NewbStepper:
     Medium:
     11:
     0.463349,0.641931,0.213184,0.213184,0.213184,426,398,28,28,0,0,0.463349,0.641931,0.213184,0.213184,0.213184,426,398,28,28,0,0:
00000000
00000000
00000000
00000000
,
00000000
00000000
00000000
00000000
,
00000000
00000000
00000000
00000000
,
00000000
00000000
00000000
00000000
,
00000000
00000000
00000000
00000000
,
00000002
00000000
00000000
00000000
,
00002003
00000000
00000000
00000000
,
00003010
00000010
00000100
00000100
,
00002002
00000000
00000000
00003003
,
00000010
00000000
00000001
00000000
00000100
00001000
00010000
00000000
,
00100000
00000000
01000000
00010000
10000000
01000000
00100000
00000000
,
00001000
00010000
01000000
00100000
,
00020000
00000000
10000000
00000000
01000000
01000000
01030000
00000000
,
00100000
00000000
10000000
00000000
01000000
00010000
00001000
00000000
,
00000010
00000000
00000100
00001000
00000001
00000100
00000010
00000000
,
00010000
00001000
00000100
00000010
,
00002000
00000001
00003100
00000110
,
00002002
00000000
00000003
00000000
,
00000020
00000000
00003000
00000000
,
00020030
00000000
00000000
00000000
,
00002000
00000000
00033000
00000000
,
00001000
00000000
00001000
00000000
00001000
00000000
00001000
00010000
,
01000000
00000000
01000000
00000000
01000000
00000000
01000000
10000000
,
00010000
00000000
00010000
00000000
00010000
00000000
00010000
01000000
,
00002000
00000000
00023000
00000000
,
00030010
00001000
00000001
00000000
00000010
00000001
00001000
00000000
,
00000010
00000000
00010000
00000000
00001000
00010000
01000000
00000000
,
00100000
00010000
10000000
00000000
00100000
10000000
00010000
00000000
,
00100000
00000000
00001000
00000000
00010000
00001000
00000100
00000000
,
00000001
00000100
00000001
00000100
00000010
00001000
00000010
00001000
,
00000100
00010000
00000100
00010000
00001000
00100000
00001000
00100000
,
00010000
01000000
00010000
01000000
00100000
10000000
00100000
10000000
,
02000000
00000000
03100000
00000000
,
00010000
00010000
00010000
00010000
,
10000000
10000000
10000000
10000000
,
01000000
01000000
01000000
01000000
,
00010000
00010000
00010000
00010000
,
00001000
00000100
00000001
00000010
,
00001000
00010000
01000000
10000000
,
00100000
01000000
00100000
00000000
10000000
00010000
10000000
00000000
,
11000000
00000000
00110000
00000000
,
10000000
01000000
00010000
00000000
00001000
00000100
00000001
00000000
,
00001000
00000100
00000010
00000100
00000001
00000100
00001000
00000000
,
00000001
00000100
00001000
00000000
00010000
01000000
10000000
00000000
,
00010000
01000000
00100000
01000000
10000000
01000000
00010000
00000000
,
00100000
01000000
00010000
00001000
,
00000010
00000100
00010000
00001000
,
00000100
00000011
00001100
00000110
,
00002001
00000100
00003010
00000110
,
00000001
00000000
00000000
00001000
00000000
00000000
00000001
00000000
00000200
00000000
00000000
00000000
00001300
00000000
00000000
00000000
,
00020000
00000000
00000000
00000000
00030000
00001000
00100000
00001000
,
00010000
00000000
00000000
00010000
01000000
00000000
00000000
00000000
10000000
00000000
00000000
10000000
00100000
00000000
00000000
00000000
,
10000000
00000000
10000000
01000000
00010000
00000000
00001000
00000000
,
00000010
00000000
00000000
00000001
00000000
00000000
00000100
00000000
00000020
00000000
00000000
00000000
00001030
00000000
00000000
00000000
,
00000001
00000000
00000100
00001000
00010000
01000000
10000000
00000000
,
00010000
00000000
00000000
00010000
00000000
00000000
00010000
00000000
10000000
00000000
00000000
10000000
00000000
00000000
10000000
00000000
,
00020000
00130000
01100000
10010000
,
10000000
00000000
00000000
00010000
00000000
00000000
10000000
00000000
02000000
00000000
00000000
00000000
03010000
00000000
00000000
00000000
,
00002000
00000000
00000000
00000000
00003000
00010000
00000010
00010000
,
00001000
00000000
00000000
00001000
00000100
00000000
00000000
00000000
00000001
00000000
00000000
00000001
00000010
00000000
00000000
00000000
,
00000001
00000000
00000001
00000100
00001000
00000000
00010000
00000000
,
00100000
00000000
00000000
10000000
00000000
00000000
01000000
00000000
00200000
00000000
00000000
00000000
00310000
00000000
00000000
00000000
,
10000000
00000000
01000000
00010000
00001000
00000100
00000001
00000000
,
00001000
00000000
00000000
00001000
00000000
00000000
00001000
00000000
00000001
00000000
00000000
00000001
00000000
00000000
00000001
00000000
,
00000020
00000001
00001000
00000130
,
00000220
00000000
00000000
00000000
,
00000000
00000000
00000000
00000330
,
00000001
00000000
00000000
00000001
00000000
00000000
00000001
00000000
00000000
00001000
00000000
00001000
,
00000100
00000000
00000000
00010000
00000000
00010000
00001000
00000000
00000000
00011000
00000000
00000000
,
00100000
10000000
01000000
00010000
,
00001000
00000000
00001000
00100000
00000000
00100000
01000000
00000000
00000000
01100000
00000000
00000000
,
10000000
00000000
10000000
00000000
10000000
00000000
00010000
00000000
00010000
00000000
00010000
00000000
,
00200000
01000000
01000000
01300000
,
00100000
11000000
00100000
01010000
,
00100000
00000000
00100000
00001000
00000000
00001000
00010000
00000000
00000000
00011000
00000000
00000000
,
00000010
00000101
00000010
00001100
,
00000010
00000000
00000010
00010000
00000000
00010000
00001000
00000000
00000000
00011000
00000000
00000000
,
01000000
01100000
00010000
10010000
,
10000000
00000000
10000000
01000000
00000000
01000000
00010000
00000000
00000000
00011000
00000000
00000000
,
00000100
00000000
00000100
00000000
00000100
00000000
00000010
00000000
00000010
00000000
00000010
00000000
,
00002000
00010000
00003010
00000110
,
00000001
00000000
00000001
00000100
00000000
00000100
00000010
00000000
00000010
00001000
00000000
00001000
,
00000100
00000000
00000100
00010000
00001000
01000000
00010000
00000000
00000000
10010000
00000000
00000000
,
10000000
00000000
10000000
01000000
00000000
01000000
00100000
00000000
00100000
00010000
00000000
00010000
,
01000000
00000000
01000000
00001000
00010000
00000100
00001000
00000000
00000000
00001001
00000000
00000000
,
00000001
00000000
00000001
00001000
00000000
00001000
00000100
00000000
00000100
00010000
00001000
00010000
,
00001000
00000000
00001000
01000000
00100000
01000000
00100000
00000000
00000000
01100000
00000000
00000000
,
10000000
00000000
10000000
00000000
10000000
00000000
00010000
00000000
00010000
00000000
00010000
00000000
,
00200000
10000000
00010000
01300000
;

//---------------dance-double - NewbStepper-BDP----------------
#NOTES:
     dance-double:
     NewbStepper:
     Easy:
     7:
     0.257778,0.390964,0.182729,0.182729,0,237,213,24,24,0,0,0.257778,0.390964,0.182729,0.182729,0,237,213,24,24,0,0:
00000000
00000000
00000000
00000000
,
00000000
00000000
00000000
00000000
,
00000000
00000000
00000000
00000000
,
00000000
00000000
00000000
00000000
,
00000000
00000000
00000000
00000000
,
20000000
00000000
00000000
30000000
,
00000000
00000000
00000000
00000000
,
00020000
00000000
00000000
00030000
,
00000000
00000000
00000000
00000000
,
10000000
01000000
00010000
01000000
,
00100000
00001000
00010000
00010000
,
00001000
00000100
00000001
00000100
,
00000010
00001000
00000001
00001000
,
00000001
00000100
00001000
00010000
,
01000000
10000000
00010000
10000000
,
01000000
00010000
00001000
00000100
,
00000010
00000000
00000110
00000000
,
00002002
00000000
00000000
00000000
,
00000000
00000000
00000000
00000000
,
00000000
00000000
00000000
00000000
,
00000000
00000000
00003003
00000000
,
00000001
00000001
00000001
00000001
,
00001000
00001000
00001000
00001000
,
00000010
00000010
00000010
00000010
,
00010000
00000000
01100000
00000000
,
10010000
00000000
00100000
00000000
,
00100000
00000000
01000000
00000000
,
00010000
00000000
00000100
00000000
,
00000100
00000000
00000010
00000000
,
00000001
00000001
00001000
00001000
,
00000100
00000100
00010000
00010000
,
00001000
01000000
00100000
10000000
,
20020000
00000000
00000000
30030000
,
10000000
01000000
10000000
01000000
,
10000000
01000000
10000000
01000000
,
00010000
01000000
00010000
01000000
,
00010000
01000000
00010000
00001000
,
00010000
00001000
00010000
00001000
,
00000010
00001000
00000010
00001000
,
00000010
00000001
00000010
00000001
,
00002000
00003000
00000002
00000003
,
00001000
00000100
00001100
00000000
,
00000001
00000100
00000101
00000000
,
00000001
00000100
00001000
00010000
,
00100000
10000000
00010000
00000000
,
00010000
01000000
01010000
00000000
,
10000000
01000000
11000000
00000000
,
10000000
01000000
00010000
00001000
,
00000010
00000001
00001000
00000000
,
00000001
00000100
00001000
00010000
,
00100000
01100000
10010000
01100000
,
20010000
00000000
01000000
00000000
,
32000000
00000000
00000000
03000000
,
00010000
00000000
00010000
00000000
,
00000100
00001000
00000100
00000010
,
00000002
00000000
00000100
00000000
,
00000203
00000000
00000000
00000300
,
00000010
00001000
00000100
00000010
,
00000001
00000100
00001000
00010000
,
01000000
10000000
00010000
10000000
,
00100000
00010000
00001000
00000000
,
00000100
00000001
00001000
00000001
,
00000010
00001000
00010000
00000000
,
01000000
10000000
00010000
10000000
,
00100000
00010000
00001000
00000000
,
00000010
00000001
00001000
00000001
,
00000100
00001000
00010000
00000000
,
00022000
00000000
00000000
00033000
,
02200000
00000000
00000000
03300000
,
10000000
01000000
11000000
00000000
,
00010000
01000000
01010000
00000000
,
10010000
00000000
00011000
00000000
,
00002002
00000000
00000000
00003003
,
00000001
00000100
00001000
00010000
,
00100000
10000000
20020000
30030000
,
10000000
01000000
00010000
00001000
,
00000010
00000001
00002002
00003003
,
00000001
00000010
00001000
00010000
,
00100000
10000000
20020000
30030000
,
10010000
00000000
00000000
00000000
;

//---------------dance-single - RGTM-CSP----------------
#NOTES:
     dance-single:
     RGTM:
     Challenge:
     17:
     0.859262,1.118073,0.342617,0.494891,1.054499,790,745,45,65,0,0,0.859262,1.118073,0.342617,0.494891,1.054499,790,745,45,65,0,0:
0000
0000
0000
0000
,
0000
0000
0000
0000
,
0000
0000
0000
0000
,
0000
0000
0000
0000
,
0000
0000
0000
0000
,
0001
0010
0001
0000
1000
0000
0020
0000
,
0130
0000
0000
0000
0001
0000
1000
0100
0000
0100
0010
0001
2000
0000
0000
0000
,
3001
0000
0000
1000
0000
0000
0001
0000
0000
0000
0000
0000
0010
0000
0000
0000
0000
0000
0100
0000
0000
0010
0000
0000
0100
0000
0000
1000
0000
0000
0001
0000
1000
0000
0001
0000
1000
0000
0000
0010
0000
0000
0100
0000
0000
0001
0000
0000
,
1000
0000
0000
0000
0100
0000
0000
0000
0001
0000
0000
0000
0100
0000
0010
0000
0001
0000
0100
0000
0010
0000
0000
0000
0210
0000
0000
0000
0000
0300
0000
0000
,
1001
0000
0001
0000
0010
0000
0100
1000
0001
1000
0100
0000
0020
0000
0001
0000
,
0130
0000
0010
0000
0001
0000
1000
0010
0000
0010
0100
0001
2000
0000
0001
0000
,
3100
0000
0000
0000
0000
0000
1000
0000
0000
0001
0000
0000
1000
0000
0000
0000
0000
0000
0010
0000
0000
0100
0000
0000
0001
0000
0000
1000
0000
0000
0100
0000
0010
0000
0100
0000
0010
0000
0000
0000
0000
0000
0001
0000
0000
0000
0000
0000
,
1000
0000
0010
1000
0001
0000
0100
0010
1000
0100
0010
0000
0001
0000
1000
0001
,
1000
0000
0010
0000
0100
0000
0001
0100
0001
1000
0100
0010
0002
0000
1000
0000
,
0103
0000
0001
0100
0001
0000
1000
0100
0000
0100
0010
0001
2000
0000
0010
0000
,
3001
0000
0000
1000
0000
0000
0010
0000
0000
0000
0000
0000
0100
0000
0000
0000
0000
0000
0010
0000
0000
1000
0000
0000
0100
0000
0000
0000
0000
0000
1000
0000
0001
0000
1000
0000
0001
0000
0000
0000
0000
0000
0100
0000
0000
0000
0000
0000
,
0220
0000
0000
0000
0330
0000
0010
0100
1001
0000
0100
0000
0110
0000
0000
0000
,
2001
0000
0000
0000
0000
0000
0010
0010
,
0001
0000
0000
0001
0000
0000
0001
0000
3100
0000
1000
0100
0010
0000
0001
1000
,
0002
0000
0000
0010
0000
0000
0010
0000
1000
0000
0000
1000
0000
0000
1003
0001
,
0200
0000
0000
0010
0000
0000
0010
0000
0001
0000
0000
0301
0100
0000
0001
0010
,
0100
0000
0000
0100
1000
0000
0000
1000
0010
0000
0000
0010
0100
0000
0100
0001
,
1000
0000
0000
1000
0100
0000
0000
0100
0010
0000
0000
0010
0001
0000
0001
1000
,
0010
0000
0000
0010
0100
0000
0000
0100
0001
0000
0000
0001
1000
0000
0100
0010
,
0110
0000
0000
0000
0100
1000
0001
0100
0110
0000
0000
0000
0000
0000
0000
0000
,
1001
0000
0000
1000
0000
0000
0100
1000
0100
0000
0000
0100
0000
0000
0010
0100
,
0010
0000
0000
0010
0000
0000
0001
0010
0001
0000
0000
0001
0000
0000
1000
0001
,
1001
0000
0000
1000
0000
0000
0010
1000
0010
0000
0000
0010
0000
0000
0100
0010
,
0100
0000
0000
0100
0000
0000
0001
0100
0001
0000
0000
0001
0000
0000
0001
0000
,
1000
0100
1000
0100
0010
0100
0010
0100
0010
0001
0010
0001
1000
0001
1000
0001
,
1000
0010
1000
0010
0100
0010
0100
0010
0100
0001
0100
0001
1000
0001
1000
0001
,
1000
0100
0010
0001
1000
0001
1000
0001
0100
0010
1000
0001
0010
0100
0010
0100
,
1000
0000
0100
0000
0010
0000
0001
0000
0100
0000
0010
0000
1000
0000
0100
0000
0020
0000
0000
0000
0000
0000
0000
0000
0000
0000
0000
0000
0000
0030
0000
0000
,
0110
0100
1000
1000
,
0001
0001
0100
0100
,
0010
0000
0010
0000
1000
0000
1000
0002
,
1003
1000
0100
0100
,
0020
0000
0000
0000
0031
0010
0001
0010
0002
0000
0000
0000
1003
0001
1000
0001
,
1000
0100
0010
0001
,
1000
0000
0000
0010
0000
0000
0100
0000
0000
0010
0000
0000
1000
0000
0000
0000
0000
0000
0001
0000
0000
0100
0000
0000
0010
0000
0000
1000
0000
0000
0100
0000
0000
0010
0000
0000
0001
0000
0000
0000
0000
0000
1000
0000
0001
0000
1000
0000
,
0002
0100
2003
3100
,
1001
0000
1000
0010
0100
0000
0100
0001
1000
0000
1000
0001
0010
0001
1000
0010
,
0100
0000
0001
0010
0100
0000
0100
1000
0001
0000
0001
1000
0010
1000
0001
0010
,
0100
0000
1000
0100
1000
0000
0001
0100
0001
0000
1000
0001
1000
0100
0010
0100
,
1000
0100
0010
0100
1000
0000
0001
0100
0010
0100
0001
0100
0010
0100
0001
0100
,
0010
0000
1000
0010
1000
0000
0001
0010
0001
0000
1000
0001
1000
0000
0001
1000
,
0010
1000
0100
0010
0001
0010
0100
1000
0010
0100
0001
1000
0100
0010
0001
1000
,
0010
0000
0100
0010
0100
0000
0001
1000
0001
0010
0100
1000
0010
0100
0001
0010
,
0200
1300
0020
0031
2000
3100
0110
0000
,
1001
0000
0000
1000
0100
0000
0020
0000
1030
0000
0001
0100
1000
0010
0100
0001
,
1000
0020
0130
2000
3100
0010
0020
0032
,
1003
0000
0010
0100
2000
0000
3100
0000
0001
0000
0010
0100
0001
0000
0100
0010
,
0002
0000
0000
0000
0000
0000
0000
0000
0203
0000
0000
0000
0310
0000
0000
0000
0020
0000
0000
0000
0000
0000
0000
0000
2030
0000
0000
0000
0000
3000
0000
0000
,
1001
0000
1000
0100
0001
0000
0100
0000
0100
0010
0001
0100
1000
0100
0010
0100
,
0001
0000
0020
0000
0130
0000
2000
0000
3010
0000
0010
0100
0101
0000
1100
0000
,
1000
0000
0001
0010
2000
0000
3010
0000
0001
0100
0010
1000
0001
0000
0010
0100
,
2100
0000
0000
0000
3001
0000
0000
0000
0101
0000
0000
0000
0000
0000
0000
0000
0010
0000
0010
0000
0010
0000
0000
0000
0200
0000
0000
0000
0000
0300
0000
0000
,
1001
0000
1000
0001
0100
0000
0020
0000
0031
0000
1000
0100
0001
0010
0100
1000
,
0001
0020
0130
2000
3100
0010
0020
2030
,
3001
0000
0010
0100
0002
0000
0103
0000
1000
0000
0010
0100
1000
0000
0100
0010
,
2000
0000
0000
0000
0000
0000
0000
0000
3200
0000
0000
0000
0310
0000
0000
0000
0020
0000
0000
0000
0000
0000
0000
0000
0032
0000
0000
0000
0000
0003
0000
0000
,
1001
0000
0001
0100
1000
0000
0100
0000
0100
0010
1000
0100
0001
0100
0010
0100
,
1000
0000
0020
0000
0130
0000
0002
0000
0013
0000
0010
0100
1100
0000
0101
0000
,
0001
0000
1000
0010
0002
0000
0013
0000
1000
0100
0010
0001
1000
0000
0010
0100
,
0102
2003
3200
0310
,
2002
0000
0000
0000
,
0000
0000
0000
3003
,
1000
1000
0100
0100
,
0010
0010
0001
0001
,
1000
0000
0010
0100
0000
0001
0100
0000
0010
1000
0100
0010
,
0001
0000
0010
0100
1000
0010
0002
0000
0000
0013
0000
0000
,
1000
0100
0010
0110
0000
0000
0001
0100
0010
0110
0000
0000
,
1001
0000
0000
0000
0000
0000
0000
0000
0000
0000
0000
0000
0000
0000
0000
0000
1000
0000
0000
0000
0000
0000
0000
0000
0000
0000
0000
0000
0000
0000
0000
0000
0001
0000
0000
0000
0000
0000
0000
0000
0000
0000
0000
0000
0000
0000
0000
0000
0010
0000
0000
0000
0000
0000
0000
0000
0000
0000
0000
0000
0000
0000
0000
0000
0000
0000
0000
0000
0000
0000
0000
0000
0000
0000
0000
0000
0000
0000
0000
0000
0010
0000
0000
0000
0000
0000
0000
0000
0000
0000
0000
0000
0000
0000
0000
0000
0100
0000
0000
0000
0000
0000
0000
0000
0000
0000
0000
0000
0000
0000
0000
0000
0001
0000
0000
0000
0000
0000
0000
0000
0000
0000
0000
0000
0000
0000
0000
0000
0100
0000
0000
0000
0000
0000
0000
0000
0000
0000
0000
0000
0000
0000
0000
0000
2000
0000
0000
0000
0000
0000
0000
0000
0000
0000
0000
0000
0000
0000
0000
0000
0000
0000
0000
0000
0000
0000
0000
0000
0000
0000
0000
0000
0000
0000
3000
0000
0000
0000
0000
0000
0000
0000
0000
0000
0000
0000
0000
0000
0000
0000
0000
0000
,
1001
0000
1000
0010
0000
0010
0100
0000
0100
0100
1000
0001
,
0100
0000
0100
0100
1000
0010
0200
0000
0000
1000
0000
0000
,
0310
0000
0010
1000
0000
1000
0100
0000
0100
0100
0001
1000
,
0100
0000
0000
0000
0010
0100
0010
0000
0001
0000
1000
0000
0020
0000
0000
0000
0000
0000
0100
0000
0000
0000
0000
0000
,
1030
0000
1000
0010
0000
0010
0100
0000
0010
0010
0001
1000
,
0100
0000
0010
0010
1000
0001
0020
0000
0000
0100
0000
0000
,
0031
0000
0011
0000
0110
0000
1100
0000
1001
0000
0101
0000
,
0110
0000
0000
0000
0000
0000
0000
0000
0000
0000
0000
0000
0000
0000
0000
0000
0010
0000
0000
0000
0000
0000
0000
0000
0000
0000
0000
0000
0000
0000
0000
0000
1000
0000
0000
0000
0000
0000
0000
0000
0000
0000
0000
0000
0000
0000
0000
0000
0100
0000
0000
0000
0000
0000
0000
0000
0000
0000
0000
0000
0000
0000
0000
0000
0001
0000
0000
0000
0000
0000
0000
0000
0000
0000
0000
0000
0000
0000
0000
0000
1000
0000
0000
0000
0000
0000
0000
0000
0000
0000
0000
0000
0000
0000
0000
0000
0001
0000
0000
0000
0000
0000
0000
0000
0000
0000
0000
0000
0000
0000
0000
0000
0100
0000
0000
0000
0000
0000
0000
0000
0000
0000
0000
0000
0000
0000
0000
0000
1000
0000
0000
0000
0000
0000
0000
0000
0000
0000
0000
0000
0000
0000
0000
0000
1002
0000
0000
0000
0000
0000
0000
0000
0000
0000
0000
0000
0000
0000
0000
0000
0000
0000
0000
0000
0000
0000
0000
0000
0000
0000
0000
0000
0000
0000
0003
0000
0000
0000
0000
0000
0000
0000
0000
0000
0000
0000
0000
0000
0000
0000
0000
0000
,
0101
0000
0100
0010
0000
0010
1000
0000
0001
0001
0010
1000
,
0001
0000
1000
1000
0010
0001
2000
0000
0000
0010
0000
0000
,
3100
0000
0100
0010
0000
0010
0001
0000
1000
1000
0100
0001
,
1000
0000
0000
0000
0001
0100
0001
0000
0010
0000
0010
0000
2000
0000
0000
0000
0000
0000
0100
0000
0000
0000
0000
3000
,
1100
0000
0100
0010
0000
0010
0001
0000
1000
1000
0010
0001
,
1000
0000
0001
0001
0010
1000
0002
0000
0000
0010
0000
0000
,
1003
0000
1100
0000
0110
0000
0011
0000
0101
0000
0110
0000
,
1010
0010
0100
1000
0100
0001
0010
0100
0001
2002
0000
0000
,
3003
0000
0000
0000
;

//---------------dance-double - RGTM-CDP----------------
#NOTES:
     dance-double:
     RGTM:
     Challenge:
     17:
     0.837508,1.118073,0.258866,0.502505,1.043078,770,736,34,66,0,0,0.837508,1.118073,0.258866,0.502505,1.043078,770,736,34,66,0,0:
// measure 0
00000000
00000000
00000000
00000000
,  // measure 1
00000000
00000000
00000000
00000000
,  // measure 2
00000000
00000000
00000000
00000000
,  // measure 3
00000000
00000000
00000000
00000000
,  // measure 4
00000000
00000000
00000000
00000000
,  // measure 5
00001000
00010000
00001000
00000000
00000100
00000000
00000020
00000000
,  // measure 6
00001030
00000000
00000000
00000000
00000100
00000000
00000010
00000001
00000000
00000001
00001000
00000001
00002000
00000000
00000000
00000000
,  // measure 7
00003010
00001000
00000010
00000000
00010000
00000000
00001000
00010000
00001000
01000000
00010000
01000000
00100000
01000000
00100000
10000000
,  // measure 8
00100000
00000000
10000000
00000000
01000000
00000000
10000000
00010000
01000000
00010000
00100000
00001000
00020000
00000000
00000000
00030000
,  // measure 9
00011000
00000000
00001000
00000000
00100000
00000000
01000000
00100000
00010000
00100000
01000000
00000000
20000000
00000000
00010000
00000000
,  // measure 10
31000000
00000000
00100000
00000000
00001000
00000000
00010000
00000100
00000000
00000100
00000010
00000001
00002000
00000000
00000010
00000000
,  // measure 11
00003001
00001000
00000001
00000000
00000010
00000000
00000100
00000010
00000100
00010000
00001000
00010000
00000010
00001000
00000010
00001000
,  // measure 12
00000100
00000000
00010000
00000000
00001000
00000000
00010000
00100000
01000000
00100000
10000000
00000000
00020000
00000000
00100000
00000000
,  // measure 13
10030000
00000000
00010000
00000000
00100000
00000000
01000000
10000000
00010000
10000000
00100000
00000000
20000000
00000000
00010000
00000000
,  // measure 14
30100000
00000000
01000000
00000000
00001000
00000000
00010000
00000010
00000000
00000010
00000100
00000001
00002000
00000000
00000100
00000000
,  // measure 15
00003001
00001000
00000001
00000000
00000100
00000000
00000010
00000100
00000010
00010000
00000100
00010000
00000100
00010000
00001000
00000000
,  // measure 16
00022000
00000000
00000000
00000000
00033000
00000000
00100000
01000000
10010000
00000000
01000000
00000000
01100000
00000000
00000000
00000000
,  // measure 17
20010000
00000000
00000000
00000000
00000000
00000000
00100000
00100000
,  // measure 18
00010000
00000000
00000000
00010000
00000000
00000000
00010000
00000000
01000000
00000000
00000000
01000000
30000000
00000000
10000000
01000000
,  // measure 19
00200000
00000000
00000000
01000000
00000000
00000000
01000000
00000000
00001000
00000000
00000000
00001000
00300000
00000000
00001000
00010000
,  // measure 20
00002000
00000000
00000000
00010000
00000000
00000000
00010000
00000000
00000100
00000000
00000000
00000100
00003000
00000000
00000010
00000100
,  // measure 21
00000001
00000000
00000000
00000001
00000010
00000000
00000000
00000010
00000100
00000000
00000000
00000100
00010000
00000000
00010000
00001000
,  // measure 22
00010000
00000000
00000000
00010000
00001000
00000000
00000000
00001000
01000000
00000000
00000000
01000000
00100000
00000000
00100000
10000000
,  // measure 23
00100000
00000000
00000000
00100000
10000000
00000000
00000000
10000000
01000000
00000000
00000000
01000000
00010000
00000000
00001000
00010000
,  // measure 24
00011000
00000000
00000000
00000000
00001000
00000010
00000001
00000100
00000010
00000000
00000000
00000000
00000000
00000000
00000000
00000000
,  // measure 25
00001001
00000000
00000000
00000001
00000000
00000000
00000100
00000001
00000100
00000000
00000000
00000100
00000000
00000000
00000010
00000100
,  // measure 26
00000010
00000000
00000000
00000010
00000000
00000000
00010000
00000010
00010000
00000000
00000000
00010000
00000000
00000000
00001000
00010000
,  // measure 27
00011000
00000000
00000000
00001000
00000000
00000000
00100000
00001000
00100000
00000000
00000000
00100000
00000000
00000000
01000000
00100000
,  // measure 28
01000000
00000000
00000000
01000000
00000000
00000000
10000000
01000000
10000000
00000000
00000000
10000000
00000000
00000000
00010000
00000000
,  // measure 29
10000000
01000000
10000000
01000000
00100000
01000000
00100000
01000000
00100000
00001000
00100000
00001000
00010000
00001000
00010000
00001000
,  // measure 30
00010000
00000010
00010000
00000010
00000100
00000010
00000100
00000010
00000100
00000001
00000100
00000001
00001000
00000001
00001000
00000001
,  // measure 31
00000010
00000100
00001000
00000001
00000100
00000010
00000100
00000010
00001000
00000100
00010000
00001000
00100000
01000000
00100000
01000000
,  // measure 32
10000000
00000000
00100000
00000000
01000000
00000000
00010000
00000000
00100000
00000000
01000000
00000000
00010000
00000000
00001000
00000000
00020000
00000000
00000000
00000000
00000000
00000000
00000000
00000000
00000000
00000000
00000000
00000000
00000000
00030000
00000000
00000000
,  // measure 33
00011000
00001000
00000100
00000100
,  // measure 34
00000010
00000010
00001000
00001000
,  // measure 35
00000100
00000000
00000100
00000000
00000010
00000000
00000010
00000002
,  // measure 36
00001003
00001000
00000001
00000001
,  // measure 37
00000200
00000000
00000000
00000000
00000310
00000100
00000010
00000100
00000020
00000000
00000000
00000000
00010030
00000010
00010000
00000010
,  // measure 38
00010000
00001000
00100000
01000000
,  // measure 39
10000000
00100000
01000000
00100000
10000000
00000000
00010000
00100000
01000000
00100000
00001000
00010000
00001000
00010000
00000100
00000010
,  // measure 40
00000002
00000010
00002003
00003100
,  // measure 41
00001001
00000000
00001000
00000010
00001000
00000000
00001000
00000001
00001000
00000000
00001000
00000010
00001000
00010000
01000000
00100000
,  // measure 42
10000000
00000000
00010000
00100000
00010000
00000000
00010000
10000000
00010000
00000000
00010000
00100000
00010000
00001000
00000100
00000010
,  // measure 43
00000001
00000000
00000010
00000100
00000010
00000000
00000100
00001000
00000100
00000000
00010000
00001000
00010000
00100000
01000000
00010000
,  // measure 44
00100000
00010000
00100000
00010000
10000000
00000000
00100000
10000000
00100000
10000000
00010000
01000000
00001000
01000000
00001000
01000000
,  // measure 45
00100000
00000000
10000000
00100000
10000000
00000000
00010000
00100000
00010000
00000000
00100000
00001000
00100000
00000000
00001000
00010000
,  // measure 46
00001000
00000010
00000100
00000010
00000001
00000000
00000100
00000010
00001000
00000010
00000100
00000001
00000010
00000100
00010000
00001000
,  // measure 47
00010000
00000000
00001000
00010000
00100000
00000000
00010000
00001000
00000010
00000000
00001000
00010000
00100000
00000000
00010000
00001000
,  // measure 48
00000020
00000031
00000200
00001300
00020000
01030000
00100000
00000000
,  // measure 49
10010000
00000000
00000000
10000000
00100000
00000000
01000000
00000000
00010000
00000000
00100000
00001000
00010000
00001000
00010000
00000100
,  // measure 50
00000010
00000200
00001300
00000020
00000130
00000002
00000203
00002300
,  // measure 51
00013000
00000000
00001000
00100000
01000000
00000000
10000000
00000000
00010000
01000000
00100000
01000000
00010000
00000000
00100000
00010000
,  // measure 52
02000000
00000000
00000000
00000000
03002000
00000000
00000000
00000000
00023000
00000000
00000000
00000000
00030200
00000000
00000000
00000300
,  // measure 53
00000110
00000000
00000010
00000001
00000100
00000000
00000010
00000000
00001000
00000010
00010000
00001000
00010000
00001000
00100000
00010000
,  // measure 54
01000000
00000000
00200000
00000000
01300000
00000000
00020000
00000000
10030000
00000000
01000000
00100000
00020000
00000000
20030000
00000000
,  // measure 55
30010000
00000000
00100000
01000000
10000000
00000000
00100000
00000000
00010000
00001000
00010000
01000000
00100000
00000000
00001000
00010000
,  // measure 56
00011000
00000000
00000000
00000000
00000000
00000000
00000000
00000000
00001001
00000000
00000000
00000000
00000000
00000000
00000000
00000000
00000010
00000000
00000010
00000000
00000010
00000000
00000000
00000000
00000200
00000000
00000000
00000000
00000000
00000300
00000000
00000000
,  // measure 57
00001001
00000000
00001000
00000001
00000010
00000000
00000100
00000000
00001000
00000000
00000010
00010000
00001000
00010000
00001000
01000000
,  // measure 58
00100000
02000000
03010000
00200000
01300000
20000000
32000000
03020000
,  // measure 59
00031000
00000000
00010000
00000010
00000100
00000000
00000001
00000000
00001000
00000100
00000010
00000100
00001000
00000000
00000010
00001000
,  // measure 60
00000200
00000000
00000000
00000000
00000000
00000000
00000000
00000000
00020300
00000000
00000000
00000000
00000000
00000000
00000000
00000000
00032000
00000000
00000000
00000000
00000000
00000000
00000000
00000000
02003000
00000000
00000000
00000000
00000000
03000000
00000000
00000000
,  // measure 61
01100000
00000000
00100000
10000000
01000000
00000000
00100000
00000000
00010000
00100000
00001000
00010000
00001000
00010000
00000010
00001000
,  // measure 62
00000100
00000000
00000020
00000000
00000130
00000000
00002000
00000000
00003001
00000000
00000100
00000010
00002000
00000000
00003002
00000000
,  // measure 63
00001003
00000000
00000010
00000100
00000001
00000000
00000010
00000000
00001000
00010000
00001000
00000100
00000010
00000000
00010000
00001000
,  // measure 64
00020000
02030000
23000000
30100000
,  // measure 65
02200000
00000000
00000000
00000000
,  // measure 66
00000000
00000000
00000000
03300000
,  // measure 67
10000000
10000000
01000000
01000000
,  // measure 68
00010000
00010000
00001000
00001000
,  // measure 69
00000010
00000000
00000010
00000001
00000000
00000001
00000100
00000000
00000100
00000010
00000100
00001000
,  // measure 70
00020000
00000000
00031000
00010000
00100000
01000000
00020000
00000000
00000000
00130000
00000000
00000000
,  // measure 71
01000000
10000000
00100000
01100000
00000000
00000000
01000000
00001000
00010000
00011000
00000000
00000000
,  // measure 72
00010100
00000100
00000010
00000002
00000000
00001003
00000010
00000001
00000010
00002000
00000000
00003000
,  // measure 73
00001001
00000000
00000001
00000100
00000000
00000100
00000010
00000000
00001000
00001000
00000010
00000100
,  // measure 74
00001000
00000000
00010000
00010000
00100000
01000000
00020000
00000000
00000000
00100000
00000000
00000000
,  // measure 75
10030000
00000000
10000000
01000000
00000000
01000000
00100000
00000000
00010000
00010000
00100000
01000000
,  // measure 76
00001000
00000000
00000000
00000000
00010000
00001000
00010000
00000000
00000010
00000000
00000100
00000000
00000002
00000000
00000000
00000000
00000000
00000000
00000010
00000000
00000000
00000000
00000000
00000000
,  // measure 77
00001003
00000000
00001000
00000010
00000000
00000010
00000100
00000000
00001000
00001000
00000010
00000100
,  // measure 78
00001000
00000000
00010000
00010000
00100000
01000000
00020000
00000000
00000000
00001000
00000000
00000000
,  // measure 79
00130000
00000000
00110000
00000000
01100000
00000000
01010000
00000000
10010000
00000000
11000000
00000000
,  // measure 80
01000000
00100000
00001000
00010000
00000010
00010000
00001000
01000000
00100000
01100000
00000000
00000000
,  // measure 81
10010000
00000000
10000000
00100000
00000000
00100000
01000000
00000000
00010000
00010000
01000000
00100000
,  // measure 82
00010000
00000000
00001000
00001000
00000100
00000010
00002000
00000000
00000000
00000100
00000000
00000000
,  // measure 83
00003001
00000000
00000001
00000010
00000000
00000010
00000100
00000000
00001000
00001000
00000100
00000010
,  // measure 84
00010000
00000000
00000000
00000000
00001000
00010000
00001000
00000000
01000000
00000000
00100000
00000000
20000000
00000000
00000000
00000000
00000000
00000000
01000000
00000000
00000000
00000000
00000000
00000000
,  // measure 85
30010000
00000000
00010000
01000000
00000000
01000000
00100000
00000000
00010000
00010000
01000000
00100000
,  // measure 86
00010000
00000000
00001000
00001000
00000100
00000010
00002000
00000000
00000000
00010000
00000000
00000000
,  // measure 87
00003100
00000000
00001100
00000000
00000110
00000000
00001010
00000000
00001001
00000000
00000011
00000000
,  // measure 88
00000010
00000100
00010000
00001000
01000000
00100000
00010000
00001000
00000010
00000220
00000000
00000000
,  // measure 89
00000330
00000000
00000000
00000000
;
