#VERSION:0.83;
#TITLE:Joy to the World;
#ARTIST:Violent String Ensemble;
#BANNER:Joy to the World.png;
#BACKGROUND:Joy to the World-bg.png;
#JACKET:Joy to the World-jacket.png;
#MUSIC:Joy to the World.ogg;
#OFFSET:1.00185;
#SAMPLESTART:76.396;
#SAMPLELENGTH:15;
#BPMS:0=176.75,116=88.375,132=176.75;

//---------------dance-single - NewbStepper-bSP----------------
#NOTEDATA:;
#CHARTNAME:NewbStepper-bSP;
#STEPSTYPE:dance-single;
#DESCRIPTION:NewbStepper-bSP;
#DIFFICULTY:Beginner;
#METER:4;
#CREDIT:NewbStepper;
#NOTES:
0000
0000
0000
0000
,
0000
0000
0000
0000
,
0000
0000
0000
0000
,
0000
0000
0000
0000
,
0000
0000
0000
0000
,
0001
0000
0000
0000
,
1000
0000
0000
0000
,
1000
0000
0000
0000
,
0100
0100
0100
0000
,
1000
0000
0001
0000
,
0100
0100
0100
0000
,
0001
0000
1000
0000
,
0002
0000
0000
0003
,
1000
0000
1000
0000
,
2000
0000
3000
0000
,
0001
0000
0001
0000
,
0002
0000
0003
0000
,
0100
0000
0010
0000
,
0100
0100
0100
0000
,
0010
0010
0010
0000
,
2002
0000
3003
0000
,
1001
0000
0110
0000
,
2002
0000
3003
0000
,
0010
0010
0010
0000
,
0100
0100
0100
0000
,
0002
0000
0003
0000
,
2000
0000
3000
0000
,
0020
0000
0000
0030
,
0000
0000
0000
0000
,
1000
0000
0001
0000
,
1000
0000
0010
0100
,
0001
0000
1000
0000
,
0001
0000
0020
0030
,
0001
0000
0000
0000
,
1000
0000
0000
0000
,
1000
0000
0000
0000
,
0100
0100
0100
0000
,
1000
0000
0000
0000
,
0001
0000
0000
0000
,
0001
0000
0000
0000
,
0100
0100
0100
0000
,
0020
0000
0000
0000
,
0030
0000
0000
0000
,
0200
0000
0000
0000
,
0300
0000
0000
0000
,
0001
0001
0001
0001
,
0002
0000
0000
0003
,
1000
1000
1000
1000
,
2000
0000
0000
3000
,
0010
0020
0030
0000
,
0100
0200
0300
0000
,
0001
0000
1000
0000
,
2002
0000
3003
0000
,
1001
0000
0110
0000
,
2002
0000
3003
0000
,
0010
0010
0010
0000
,
0100
0100
0100
0000
,
0002
0000
0003
0000
,
2000
0000
3000
0000
,
0020
0000
0000
0030
,
0000
0000
0000
0000
,
1001
0000
0110
0000
,
2002
0000
3003
0000
,
0010
0010
0010
0000
,
0100
0100
0100
0000
,
2000
0000
3000
0000
,
0002
0000
0003
0000
,
0200
0000
0000
0300
,
0000
0000
0000
0000
,
1000
0000
0000
0000
,
0001
0000
0000
0000
,
0001
0000
0000
0000
,
0100
0100
0100
0000
,
0001
0000
0000
0000
,
1000
0000
0000
0000
,
1000
0000
0000
0000
,
0001
0001
0001
0001
,
1000
1000
0010
0010
,
0100
0000
0000
0000
;

//---------------dance-single - NewbStepper-BSP----------------
#NOTEDATA:;
#CHARTNAME:NewbStepper-BSP;
#STEPSTYPE:dance-single;
#DESCRIPTION:NewbStepper-BSP;
#DIFFICULTY:Easy;
#METER:7;
#CREDIT:NewbStepper;
#NOTES:
0000
0000
0000
0000
,
0000
0000
0000
0000
,
0000
0000
0000
0000
,
0000
0000
0000
0000
,
0000
0000
0000
0000
,
0001
0100
0002
0003
,
1000
0100
2000
3000
,
0010
1000
0010
0100
,
0001
0001
0001
0000
,
1000
0100
0010
0001
,
2000
0000
0000
0010
3010
0000
0110
0000
,
0001
0100
0010
1000
,
0002
0000
0003
1000
,
0001
0000
0001
0000
0001
0000
1000
0100
,
0020
0000
0030
0100
,
1000
0000
1000
0000
1000
0000
0001
0100
,
0020
0000
0030
1000
,
0001
0202
0303
0010
,
2000
0001
3200
1000
,
0320
0000
0230
0000
,
0020
0000
0000
0330
,
1001
0000
0000
0000
0001
0000
0000
0100
,
0010
0100
0110
1000
,
0001
0100
0001
1000
,
0200
0000
0300
0010
,
0201
0000
1000
0310
,
1200
0000
0001
0310
,
0001
0000
1000
0000
0001
1000
0001
1000
,
0000
0010
0100
0010
0100
0000
0110
0000
,
0002
0003
2000
3000
,
0020
0130
0002
1003
,
2000
3000
0002
0003
,
0020
0000
0130
0000
1000
0001
1000
0000
,
0001
0100
0002
0003
,
1000
0100
2000
3000
,
0010
1000
0010
0100
,
0001
0001
0001
0000
,
1000
0100
2000
3000
,
0001
0100
0002
0003
,
0010
0001
0010
0100
,
1000
1000
1000
0000
,
0001
0100
0010
1000
,
0002
0000
0000
0010
0013
0000
0110
0000
,
1000
0100
0010
0001
,
2000
0000
3000
0001
,
1000
0000
1000
0000
1000
0000
0001
0100
,
0020
0000
0030
0100
,
0001
0000
0001
0000
0001
0000
1000
0100
,
0020
0000
0030
0001
,
1000
2200
3300
0010
,
0002
1000
0203
0001
,
0310
1000
0001
0010
,
0200
0000
0000
0300
,
1001
0000
0000
0000
0001
0000
0000
0100
,
0010
0100
0110
1000
,
0001
0100
0001
1000
,
0200
0000
0300
0010
,
0201
0000
1000
0310
,
1200
0000
0001
0310
,
0001
0000
1000
0000
0001
1000
0001
1000
,
0000
0010
0100
0010
0100
0000
0110
0000
,
1001
0000
0000
0000
1000
0000
0000
0100
,
0010
0100
0110
0001
,
1000
0100
1000
0001
,
0200
0000
0300
0010
,
1200
0000
0001
0310
,
0201
0000
1000
0310
,
1000
0000
0001
0000
1000
0001
1000
0001
,
0000
0010
0100
0010
0100
0000
0110
0000
,
1000
0100
2000
3000
,
0001
0100
0002
0003
,
0010
0001
0010
0100
,
1000
1000
1000
0000
,
0001
0100
0002
0003
,
1000
0100
2000
3000
,
0010
1000
0010
0100
,
0001
0100
1000
0100
,
0001
1000
0100
0110
,
1001
0000
0000
0000
;

//---------------dance-single - NewbStepper-DSP----------------
#NOTEDATA:;
#CHARTNAME:NewbStepper-DSP;
#STEPSTYPE:dance-single;
#DESCRIPTION:NewbStepper-DSP;
#DIFFICULTY:Medium;
#METER:11;
#CREDIT:NewbStepper;
#NOTES:
0000
0000
0000
0000
,
0000
0000
0000
0000
,
0000
0000
0000
0000
,
0000
0000
0000
0000
,
0000
0000
0000
0000
,
1000
0100
0010
0001
2000
0000
3000
0000
,
0001
0100
0010
1000
0002
0000
0003
0000
,
0010
0001
0100
0010
1000
0000
1001
0000
,
0010
1000
0100
0010
0001
0000
1001
0000
,
2000
3020
0230
0302
,
0023
0000
0030
0100
1000
0000
1001
0000
,
0002
0023
0230
2300
,
3010
0100
0010
0100
0010
0000
1001
0000
,
1000
0100
0001
0000
0001
0000
0100
1000
,
0020
0001
0130
0110
,
0001
0100
1000
0000
1000
0000
0100
0001
,
0020
1000
0130
0110
,
0001
1200
0000
0310
,
0001
0100
0010
0000
1000
0100
0010
0000
,
0001
0100
1000
0000
1000
0100
0001
0000
,
0010
0001
0100
0010
1000
0100
0010
0001
,
0101
1001
1010
0110
,
1001
0000
0010
0100
0010
0000
1000
0000
,
1100
0101
1100
0110
,
0001
0100
0010
1000
0001
0000
0100
0000
,
0010
1000
0100
0000
0010
0001
0100
0000
,
0010
1000
0001
0000
0010
0001
1000
0000
,
0010
0100
0001
1000
0100
0010
0001
0100
,
0000
0010
0010
0010
0100
0000
1001
0000
,
2000
0000
3001
0000
0010
0010
0100
0000
,
0110
0000
0000
0000
1001
0000
0000
0000
0001
0100
0001
0000
1000
0100
1000
0000
,
0002
0000
1003
0000
0010
0010
0100
0000
,
0110
0000
0000
0000
1001
0000
0000
0000
0001
0010
0100
1000
0001
0000
1001
0000
,
1000
0100
0010
0001
2000
0000
3000
0000
,
0001
0100
0010
1000
0002
0000
0003
0000
,
0010
0001
0100
0010
1000
0000
1001
0000
,
0010
1000
0100
0010
0002
0000
1003
0000
,
0001
0100
0010
1000
0002
0000
0003
0000
,
1000
0100
0010
0001
2000
0000
3000
0000
,
0010
1000
0100
0010
0001
0000
1001
0000
,
0010
0001
0100
0010
1000
0000
1001
0000
,
0002
0023
0230
2300
,
3002
0000
0003
1000
0100
0000
0110
0000
,
0002
0023
0230
2300
,
3002
0000
0000
1003
,
1000
0000
1000
0000
1000
0000
1000
0100
,
0020
0000
0000
0000
0030
0000
0100
1000
,
0001
0000
0001
0000
0001
0000
0001
0100
,
0020
0000
0000
0000
0000
0000
1030
0100
,
0010
0220
0330
1001
,
0020
0000
0030
0001
0100
0000
0010
0000
,
1000
0100
0001
0010
,
1000
0001
1000
0001
1000
0001
1000
0000
,
0101
1001
1010
0110
,
1001
0000
0010
0100
0010
0000
1000
0000
,
1100
0101
1100
0110
,
0001
0100
0010
1000
0001
0000
0100
0000
,
0010
1000
0100
0000
0010
0001
0100
0000
,
0010
1000
0001
0000
0010
0001
1000
0000
,
0010
0100
0001
1000
0100
0010
0001
0100
,
0000
0010
0010
0010
0100
0000
0110
0000
,
1100
1001
0011
0110
,
1001
0000
0010
0100
0010
0000
0001
0000
,
0101
1100
0101
0110
,
1000
0100
0010
0001
1000
0000
0100
0000
,
0010
0001
0100
0000
0010
1000
0100
0000
,
0010
0001
1000
0000
0010
1000
0001
0000
,
0010
0100
1000
0001
0100
0010
1000
0100
,
0000
0010
0010
0010
0100
0000
0110
0000
,
0001
0100
0010
1000
0002
0000
0003
0000
,
1000
0100
0010
0001
2000
0000
3000
0000
,
0010
1000
0100
0010
0001
0000
1001
0000
,
0010
0001
0100
0010
2000
0000
3001
0000
,
1000
0100
0010
0001
2000
0000
3000
0000
,
0001
0100
0010
1000
0002
0000
0003
0000
,
0010
0001
0100
0010
1000
0000
1001
0000
,
0001
0100
1000
0100
0001
0100
1000
0100
,
0001
0010
0100
1000
0010
0000
0110
0000
,
1001
0000
0000
0000
;

//---------------dance-single - NewbStepper-ESP----------------
#NOTEDATA:;
#CHARTNAME:NewbStepper-ESP;
#STEPSTYPE:dance-single;
#DESCRIPTION:NewbStepper-ESP;
#DIFFICULTY:Hard;
#METER:16;
#CREDIT:NewbStepper;
#NOTES:
0000
0000
0000
0000
,
0000
0000
0000
0000
,
0000
0000
0000
0000
,
0000
0000
0000
0000
,
0000
0000
0000
0000
,
0001
0000
0001
0000
1000
0100
0010
0001
2000
0000
0000
0000
3000
0000
0000
0000
,
0001
0000
1000
0010
1000
0001
0010
0100
0020
0000
0000
0000
0030
0000
0000
0000
,
0001
0000
1000
0010
1000
0001
0010
0100
2000
0000
0000
0000
3001
0000
0000
0000
,
0010
0001
0010
0100
1000
0010
0100
0001
0010
0000
0000
0000
1001
0000
0000
0000
,
1000
0100
0000
0000
0100
0010
0000
0000
0010
0001
0000
0000
0001
1000
0000
0000
,
0100
0001
0100
1000
0010
0100
0101
0000
,
0001
0100
0000
0000
0100
0010
0000
0000
0010
1000
0000
0000
1000
0001
0000
0000
,
0010
0001
0100
0010
0200
0000
0310
0000
,
1000
0010
0000
0000
0010
0100
0000
0000
0100
0001
0000
0000
0001
1000
0000
0000
,
0010
1000
0100
0001
1000
0010
0001
0100
,
0001
0010
0000
0000
0010
0100
0000
0000
0100
1000
0000
0000
1000
0001
0000
0000
,
0010
0001
0100
1000
0001
0010
1000
0100
,
0010
0210
0001
1300
,
0010
1000
0100
0010
0001
0100
1000
0100
,
0001
0010
0011
0000
1000
0010
1010
0000
,
1000
0000
0001
0000
1000
0100
1000
0001
1000
0010
0100
0001
1000
0100
0010
0001
,
1000
0010
1000
0000
0100
0000
0010
0000
0001
0100
0001
0000
0100
0000
0010
0000
,
1000
0001
0010
0100
0010
0001
0010
0100
1000
0000
0010
0000
0100
0000
0001
0000
,
0100
0000
1000
0000
0100
0010
0100
0000
0001
0000
1000
0000
0100
0010
0100
0000
,
1000
0100
0010
0100
1000
0100
0010
0100
1000
0000
0000
0000
1001
0000
0000
0000
,
0010
0000
0001
0000
1000
0010
0100
0001
2000
0000
0000
0000
3010
0000
0000
0000
,
0010
0000
1000
0000
0001
0010
0100
1000
0002
0000
0000
0000
0013
0000
0000
0000
,
0001
0100
0010
1000
0001
0010
0100
1000
,
0000
1000
0010
0100
0001
1000
0100
0010
,
0001
1000
0100
0010
0002
0000
0000
0000
1003
0001
0010
0100
2000
0000
0000
0000
,
3001
0000
0100
0000
1000
0000
0100
0000
0001
0000
0000
0000
1001
0000
0000
0000
1000
0000
0100
0000
0001
0000
0100
0000
1000
0000
0000
0000
0001
1000
0100
0010
,
0001
0000
0100
0000
0001
0100
0001
0100
0020
0000
0000
0000
0000
0000
0000
0000
1030
0000
0001
0100
0001
1000
0001
0100
0020
0000
0000
0000
0000
0000
0000
0000
,
1030
0000
0001
0100
0001
1000
0100
0010
0001
0000
0000
0000
1001
0000
0000
0000
1000
0100
1000
0100
0010
0001
0010
0001
0100
0000
0000
0000
0110
0000
0000
0000
,
0001
0000
0001
0000
1000
0100
0010
0001
2000
0000
0000
0000
3000
0000
0000
0000
,
0001
0000
1000
0010
1000
0001
0010
0100
0020
0000
0000
0000
0030
0000
0000
0000
,
0001
0000
1000
0010
1000
0001
0010
0100
2000
0000
0000
0000
3001
0000
0000
0000
,
0010
0000
0010
0000
0001
1000
0100
0010
0002
0000
0000
0003
1000
0010
0100
0001
,
1000
0000
1000
0000
0001
0100
0010
1000
0002
0000
0000
0000
0003
0000
0000
0000
,
1000
0000
0001
0010
0001
1000
0010
0100
0020
0000
0000
0000
0030
0000
0000
0000
,
1000
0000
0001
0010
0001
1000
0010
0100
0002
0000
0000
0000
1003
0000
0000
0000
,
0010
1000
0010
0100
0001
0010
0100
1000
0010
0000
0000
0000
1001
0000
0000
0000
,
0002
0023
0230
2300
,
3002
0000
0003
1000
0100
0000
0110
0000
,
2000
3020
0230
0302
,
0023
0000
0000
0130
,
0001
0100
1000
0000
0001
0100
1000
0100
,
0002
0000
0010
0000
0013
0000
0001
0100
,
1000
0100
0001
0000
1000
0100
0001
0100
,
2000
0000
0010
0000
3010
0000
0100
0001
,
0010
0220
0330
1001
,
0200
0000
0300
1000
0010
0000
0110
0000
,
0002
0203
2300
3020
,
0031
0000
0100
0000
0001
0010
0001
0000
0010
0100
0010
0000
0100
1000
0100
0000
,
1000
0010
1000
0000
0100
0000
0010
0000
0001
0100
0001
0000
0100
0000
0010
0000
,
1000
0001
0010
0100
0010
0001
0010
0100
1000
0000
0010
0000
0100
0000
0001
0000
,
0100
0000
1000
0000
0100
0010
0100
0000
0001
0000
1000
0000
0100
0010
0100
0000
,
1000
0100
0010
0100
1000
0100
0010
0100
1000
0000
0000
0000
1001
0000
0000
0000
,
0010
0000
0001
0000
1000
0010
0100
0001
2000
0000
0000
0000
3010
0000
0000
0000
,
0010
0000
1000
0000
0001
0010
0100
1000
0002
0000
0000
0000
0013
0000
0000
0000
,
0001
0100
0010
1000
0001
0010
0100
1000
,
0000
1000
0010
0100
0001
1000
0100
0010
,
0001
0010
0001
0000
0100
0000
0010
0000
1000
0100
1000
0000
0100
0000
0010
0000
,
0001
1000
0010
0100
0010
1000
0010
0100
0001
0000
0010
0000
0100
0000
1000
0000
,
0100
0000
0001
0000
0100
0010
0100
0000
1000
0000
0001
0000
0100
0010
0100
0000
,
0001
0100
0010
0100
0001
0100
0010
0100
0001
0000
0000
0000
1001
0000
0000
0000
,
0010
0000
1000
0000
0001
0010
0100
1000
0002
0000
0000
0000
0013
0000
0000
0000
,
0010
0000
0001
0000
1000
0010
0100
0001
2000
0000
0000
0000
3010
0000
0000
0000
,
1000
0100
0010
0001
1000
0010
0100
0001
,
0000
0001
0010
0100
1000
0001
0100
0010
,
1000
0000
1000
0000
0001
0100
0010
1000
0002
0000
0000
0000
0003
0000
0000
0000
,
1000
0000
0001
0010
0001
1000
0010
0100
0020
0000
0000
0000
0030
0000
0000
0000
,
1000
0000
0001
0010
0001
1000
0010
0100
0002
0000
0000
0000
1003
0000
0000
0000
,
0010
0000
0010
0000
1000
0001
0100
0010
2000
0000
0000
3000
0001
0010
0100
1000
,
0001
0000
0001
0000
1000
0100
0010
0001
2000
0000
0000
0000
3000
0000
0000
0000
,
0001
0000
1000
0010
1000
0001
0010
0100
0020
0000
0000
0000
0030
0000
0000
0000
,
0001
0000
1000
0010
1000
0001
0010
0100
2000
0000
0000
0000
3001
0000
0000
0000
,
1000
0100
0010
0100
1000
0100
0010
0100
1000
0100
0010
0001
0010
0100
0010
0001
,
0010
0100
1000
0010
0100
0001
0010
0100
0010
0000
0000
0000
0110
0000
0000
0000
,
1001
0000
0000
0000
;

//---------------dance-single - NewbStepper-CSP----------------
#NOTEDATA:;
#CHARTNAME:NewbStepper-CSP;
#STEPSTYPE:dance-single;
#DESCRIPTION:NewbStepper-CSP;
#DIFFICULTY:Challenge;
#METER:11;
#CREDIT:NewbStepper;
#NOTES:
0000
0000
0000
0000
,
0000
0000
0000
0000
,
0000
0000
0000
0000
,
0000
0000
0000
0000
,
0000
0000
0000
0000
,
0110
1001
0110
MMMM
,
0101
1010
1001
MMMM
,
1100
0101
1100
0110
,
1010
0011
0110
MMMM
,
1100
1100
0101
0101
,
0110
0000
0000
0001
1000
0000
MMMM
0000
,
0101
0101
1100
1100
,
0110
1001
0110
MMMM
,
1010
0000
0011
0000
0110
0000
0001
0100
,
1000
MMMM
0010
0001
,
1010
0000
0011
0000
0110
0000
1000
0100
,
0001
MMMM
0010
1000
,
1100
0101
1100
0101
,
0011
1010
0011
1010
,
0110
MMMM
1001
MMMM
,
0110
1100
0011
1001
,
0110
MMMM
1001
MMMM
,
0011
1100
1001
MMMM
,
0110
MMMM
1001
MMMM
,
1010
0101
1001
MMMM
,
2100
0001
0100
3010
,
0102
1000
0100
0013
,
0011
1001
1010
0110
,
MMMM
1001
0110
1001
,
0002
0100
2003
0100
,
3002
0010
2003
0010
,
3001
0101
1100
0000
1000
1100
0101
0000
,
0001
0011
1010
0000
1000
1010
0011
MMMM
,
0110
1001
0110
MMMM
,
0101
1010
1001
MMMM
,
1100
0101
1100
0110
,
1010
0011
0110
MMMM
,
0110
1001
0110
MMMM
,
1100
0011
1001
MMMM
,
0101
1100
0101
0110
,
0011
1010
0110
MMMM
,
2000
3200
0320
0032
,
2003
0000
3000
0001
0100
0000
0110
0000
,
0002
0203
0320
2030
,
3200
0300
MMMM
0110
,
1001
0000
0110
0000
1001
0000
0001
0100
,
2000
3000
MMMM
0110
,
1001
0000
0110
0000
1001
0000
1000
0100
,
0002
0000
0003
0000
MMMM
0000
1000
0100
,
0001
MMMM
0010
1000
,
0200
0000
0000
0001
0301
0000
0100
0000
,
1000
0010
0001
0100
,
2000
0000
3000
MMMM
,
0110
MMMM
1001
MMMM
,
0011
1100
1001
MMMM
,
0110
MMMM
1001
MMMM
,
1010
0101
1001
MMMM
,
2100
0001
0100
3010
,
0102
1000
0100
0013
,
0011
1001
1010
0110
,
MMMM
1001
0110
1001
,
0110
MMMM
1001
MMMM
,
1010
0101
1001
MMMM
,
0110
MMMM
1001
MMMM
,
0011
1100
1001
MMMM
,
0102
1000
0100
0013
,
2100
0001
0100
3010
,
1010
1001
0011
0110
,
MMMM
1001
0110
1001
,
0110
1001
0110
MMMM
,
1100
0011
1001
MMMM
,
0101
1100
0101
0110
,
0011
1010
0110
MMMM
,
0110
1001
0110
MMMM
,
0101
1010
1001
MMMM
,
0101
1100
0101
1100
,
0011
1010
1100
0101
,
0011
1010
0110
MMMM
,
1001
0000
0000
0000
;

//---------------dance-double - NewbStepper-BDP----------------
#NOTEDATA:;
#CHARTNAME:NewbStepper-BDP;
#STEPSTYPE:dance-double;
#DESCRIPTION:NewbStepper-BDP;
#DIFFICULTY:Easy;
#METER:7;
#CREDIT:NewbStepper;
#NOTES:
00000000
00000000
00000000
00000000
,
00000000
00000000
00000000
00000000
,
00000000
00000000
00000000
00000000
,
00000000
00000000
00000000
00000000
,
00000000
00000000
00000000
00000000
,
00010000
01000000
00020000
00030000
,
00001000
00000100
00002000
00003000
,
00010000
00100000
00010000
00001000
,
00100000
00100000
00100000
00000000
,
00010000
01000000
00100000
10000000
,
00020000
00000000
00000000
00100000
00130000
00000000
01100000
00000000
,
00001000
00000100
00000010
00000001
,
00002000
00000000
00003000
00000001
,
00001000
00000000
00001000
00000000
00001000
00000000
00000010
00010000
,
00002000
00000000
00003000
00100000
,
00010000
00000000
00010000
00000000
00010000
00000000
01000000
00001000
,
00020000
00000000
00030000
00100000
,
10000000
22000000
33000000
00100000
,
00002000
01000000
00023000
00000100
,
00032000
00000000
00003020
00000000
,
00000200
00000000
00000000
00000330
,
00001001
00000000
00000000
00000000
00001000
00000000
00000000
00000001
,
00000100
00001000
00011000
00010000
,
01000000
10000000
00100000
10000000
,
00020000
00000000
00030000
00100000
,
02010000
00000000
10000000
03100000
,
00120000
00000000
00000010
00031000
,
00022000
00000000
00000000
00033000
,
00000000
00010000
00000100
00001000
00000100
00000000
00000110
00000000
,
00000020
00000030
00000002
00000003
,
00002000
00003100
00020000
00130000
,
00200000
00300000
20000000
30000000
,
00020000
00000000
01030000
00000000
00001000
00010000
00001000
00000000
,
00010000
01000000
00020000
00030000
,
00001000
00000100
00002000
00003000
,
00010000
00100000
00010000
00001000
,
00100000
00100000
00100000
00000000
,
00001000
00000100
00002000
00003000
,
00010000
01000000
00020000
00030000
,
00001000
00000010
00001000
00010000
,
00000010
00000010
00000010
00000000
,
00001000
00000100
00000010
00000001
,
00002000
00000000
00000000
00000010
00003010
00000000
00011000
00000000
,
00010000
01000000
00100000
10000000
,
00020000
00000000
00030000
10000000
,
00010000
00000000
00010000
00000000
00010000
00000000
00100000
00001000
,
00020000
00000000
00030000
00000010
,
00001000
00000000
00001000
00000000
00001000
00000000
00000100
00010000
,
00002000
00000000
00003000
00000010
,
00000001
00000202
00000303
00000010
,
00020000
00000100
00032000
00100000
,
00013000
01000000
10000000
00010000
,
00200000
00000000
00000000
00300000
,
10010000
00000000
00000000
00000000
00010000
00000000
00000000
10000000
,
01000000
00010000
00011000
00001000
,
00000100
00000001
00000010
00000001
,
00002000
00000000
00003000
00000010
,
00000201
00000000
00001000
00000310
,
00002010
00000000
00100000
00013000
,
00022000
00000000
00000000
00033000
,
00000000
00001000
01000000
00010000
01000000
00000000
01100000
00000000
,
10010000
00000000
00000000
00000000
00010000
00000000
00000000
10000000
,
01000000
00010000
00011000
00001000
,
00000100
00000001
00000010
00000001
,
00002000
00000000
00003000
00000010
,
00000201
00000000
00001000
00000310
,
00002010
00000000
00100000
00013000
,
00022000
00000000
00000000
00033000
,
00000000
00001000
01000000
00010000
01000000
00000000
01100000
00000000
,
00001000
00000100
00002000
00003000
,
00010000
01000000
00020000
00030000
,
00001000
00000010
00001000
00010000
,
00000010
00000010
00000010
00000000
,
00010000
01000000
00020000
00030000
,
00001000
00000100
00002000
00003000
,
00010000
00100000
00010000
00001000
,
00100000
00010000
00001000
00000100
,
00000010
00000001
00000100
00000110
,
00001001
00000000
00000000
00000000
;

//---------------dance-double - NewbStepper-DDP----------------
#NOTEDATA:;
#CHARTNAME:NewbStepper-DDP;
#STEPSTYPE:dance-double;
#DESCRIPTION:NewbStepper-DDP;
#DIFFICULTY:Medium;
#METER:12;
#CREDIT:NewbStepper;
#NOTES:
00000000
00000000
00000000
00000000
,
00000000
00000000
00000000
00000000
,
00000000
00000000
00000000
00000000
,
00000000
00000000
00000000
00000000
,
00000000
00000000
00000000
00000000
,
10000000
01000000
00100000
00010000
20000000
00000000
30000000
00000000
,
00010000
01000000
00100000
00010000
00002000
00000000
00003000
00000000
,
00010000
00001000
00000100
00000010
00000001
00000000
00000110
00000000
,
00000010
00001000
00000100
00000010
00000001
00000000
00001001
00000000
,
00000200
00000302
00000023
00002030
,
00023000
00000000
00030000
00100000
10000000
00000000
10010000
00000000
,
02000000
23000000
30200000
00320000
,
00031000
00010000
00001000
00010000
00001000
00000000
00011000
00000000
,
00010000
00001000
00000010
00000000
00000010
00000000
00000100
00001000
,
00000020
00000001
00000130
00000110
,
00001000
00010000
00100000
00000000
00100000
00000000
01000000
00010000
,
00200000
10000000
01300000
01100000
,
00010000
00012000
00000000
00003010
,
00000001
00000100
00001000
00000000
00010000
01000000
10000000
00000000
,
00100000
10000000
01000000
00000000
00100000
00010000
01000000
00000000
,
00100000
10000000
01000000
00010000
00001000
00000100
00000001
00000010
,
00000011
00001001
00001010
00000110
,
00000001
00000100
00001000
00010000
01000000
00000000
01100000
00000000
,
10100000
10010000
00110000
01100000
,
10000000
01000000
00010000
00001000
00000100
00000000
00000110
00000000
,
00000001
00000100
00001000
00000000
00000100
00001000
00010000
00000000
,
00001000
00010000
00100000
00000000
00010000
00100000
10000000
00000000
,
00010000
10000000
01000000
00100000
00001000
00010000
00000100
00000010
,
00000000
00000100
00010000
00001000
01000000
00000000
01100000
00000000
,
00020000
10030000
02000000
03100000
,
00002000
00000000
00000000
00000000
00013000
00000000
00000000
00000000
00000010
00001000
00000010
00000100
00000010
00000000
00000110
00000000
,
00002000
00003001
00000200
00000310
,
00020000
00000000
00000000
00000000
00031000
00000000
00000000
00000000
00100000
00010000
00100000
01000000
00100000
00000000
01100000
00000000
,
10000000
01000000
00100000
00010000
20000000
00000000
30000000
00000000
,
00010000
01000000
00100000
00010000
00002000
00000000
00003000
00000000
,
00010000
00001000
00000100
00000010
00000001
00000000
00000110
00000000
,
00000010
00001000
00000100
00000010
00000002
00000000
00001003
00000000
,
00000001
00000100
00000010
00001000
00000002
00000000
00000003
00000000
,
00001000
00000100
00000010
00001000
00020000
00000000
00030000
00000000
,
00001000
00010000
01000000
00100000
10000000
00000000
01100000
00000000
,
00100000
00010000
01000000
00100000
10000000
00000000
10010000
00000000
,
00020000
00230000
00302000
00023000
,
00030020
00000000
00000030
00000100
00000010
00000000
00001001
00000000
,
00002000
00003020
00020030
00032000
,
00203000
00000000
00000000
00310000
,
00010000
00000000
00010000
00000000
00010000
00000000
00010000
01000000
,
00200000
00000000
00000000
00000000
00300000
00000000
10000000
01000000
,
00010000
00000000
00010000
00000000
00010000
00000000
00010000
00001000
,
00000200
00000000
00000000
00000000
00000300
00000000
00000001
00000100
,
00000010
00000220
00000330
00001001
,
00000200
00000000
00000300
00010000
00001000
00000000
00010000
00000000
,
00100000
10000000
01000000
00010000
,
00001000
00010000
00001000
00010000
00001000
00000100
00000001
00000010
,
00000011
00001001
00001010
00000110
,
00000001
00000100
00001000
00010000
01000000
00000000
01100000
00000000
,
10100000
10010000
00110000
01100000
,
10000000
01000000
00010000
00001000
00000100
00000000
00000110
00000000
,
00000001
00000100
00001000
00000000
00000100
00001000
00010000
00000000
,
00001000
00010000
00100000
00000000
00010000
00100000
10000000
00000000
,
00010000
10000000
01000000
00100000
00001000
00010000
00000100
00000010
,
00000000
00000100
00010000
00001000
01000000
00000000
01100000
00000000
,
10100000
10010000
00110000
01100000
,
10000000
01000000
00010000
00001000
00000100
00000000
00000110
00000000
,
00000011
00001001
00001010
00000110
,
00000001
00000100
00001000
00010000
01000000
00000000
01100000
00000000
,
10000000
01000000
00010000
00000000
01000000
00010000
00001000
00000000
,
00010000
00001000
00000010
00000000
00001000
00000010
00000001
00000000
,
00001000
00000001
00000100
00000010
00010000
00001000
01000000
00100000
,
00000000
01000000
00001000
00010000
00000100
00000000
00000110
00000000
,
00000001
00000100
00000010
00001000
00000002
00000000
00000003
00000000
,
00001000
00000100
00000010
00001000
00020000
00000000
00030000
00000000
,
00001000
00010000
01000000
00100000
10000000
00000000
01100000
00000000
,
00100000
00010000
01000000
00100000
20000000
00000000
30010000
00000000
,
10000000
01000000
00100000
00010000
20000000
00000000
30000000
00000000
,
00010000
01000000
00100000
00010000
00002000
00000000
00003000
00000000
,
00010000
00001000
00000100
00000010
00000001
00000000
00000110
00000000
,
00000001
00000100
00001000
00010000
00100000
10000000
01000000
00010000
,
00001000
00000010
00000001
00000100
00000010
00000000
00000110
00000000
,
00001001
00000000
00000000
00000000
;

//---------------dance-double - NewbStepper-EDP----------------
#NOTEDATA:;
#CHARTNAME:NewbStepper-EDP;
#STEPSTYPE:dance-double;
#DESCRIPTION:NewbStepper-EDP;
#DIFFICULTY:Hard;
#METER:16;
#CREDIT:NewbStepper;
#NOTES:
00000000
00000000
00000000
00000000
,
00000000
00000000
00000000
00000000
,
00000000
00000000
00000000
00000000
,
00000000
00000000
00000000
00000000
,
00000000
00000000
00000000
00000000
,
10000000
00000000
10000000
00000000
00010000
01000000
00100000
10000000
00200000
00000000
00000000
00000000
00300000
00000000
00000000
00000000
,
10000000
00000000
00010000
00100000
00010000
00100000
00001000
00010000
00002000
00000000
00000000
00000000
00003000
00000000
00000000
00000000
,
00100000
00000000
00001000
00010000
00000100
00010000
00001000
00010000
00000020
00000000
00000000
00000000
00000130
00000000
00000000
00000000
,
00000001
00001000
00000100
00000010
00000001
00000100
00000010
00001000
00000001
00000000
00000000
00000000
00001001
00000000
00000000
00000000
,
00000010
00000001
00000100
00001000
00000001
00000010
00001000
00000100
,
00010000
01000000
10000000
00100000
01000000
00000000
01100000
00000000
,
00100000
10000000
01000000
00010000
10000000
00100000
00010000
01000000
,
00010000
00001000
00000010
00000100
00000002
00000000
00001003
00000000
,
00000010
00001000
00000100
00000000
00000010
00000000
00000001
00000100
,
00001000
00010000
01000000
10000000
00010000
00000000
10010000
00000000
,
00100000
00010000
01000000
00000000
00100000
00000000
10000000
01000000
,
00010000
00001000
00000100
00000001
00001000
00000000
00001001
00000000
,
00000010
00000210
00000001
00001300
,
00010000
00001000
00000100
00010000
00001000
00000010
00010000
00100000
,
00010000
00001000
00010000
00000000
01000000
00100000
01000000
00000000
,
10010000
00000000
10000000
00000000
00100000
10000000
00010000
01000000
00001000
00100000
00010000
00100000
00001000
00010000
00000100
00001000
,
00000001
00000100
00000001
00000000
00000100
00000000
00000010
00000000
00001000
00000100
00001000
00000000
00000001
00000000
00000100
00000000
,
00001000
00010000
00001000
01000000
00010000
01000000
00001000
00010000
00001000
00000000
00010000
00000000
01000000
00000000
10000000
00000000
,
00100000
00000000
00010000
00000000
00001000
00010000
00001000
00000000
00000010
00000000
00001000
00000000
00010000
00001000
00010000
00000000
,
00000100
00010000
00001000
00010000
00000100
00010000
00001000
00010000
00000100
00000000
00000000
00000000
00011000
00000000
00000000
00000000
,
00000010
00000000
00000001
00000000
00001000
00000100
00000010
00000001
00002000
00000000
00000000
00000000
00003010
00000000
00000000
00000000
,
00010000
00000000
00001000
00000000
01000000
00001000
00010000
00001000
02000000
00000000
00000000
00000000
03100000
00000000
00000000
00000000
,
10000000
01000000
00100000
00010000
00001000
00000100
00000010
00000001
,
00000000
00000001
00000100
00000010
00001000
00010000
01000000
00100000
,
10000000
01000000
00010000
00001000
00000200
00000000
00000000
00000300
00000001
00000100
00001000
00010000
02000000
00000000
00000000
03000000
,
10000000
00000000
00100000
00000000
00010000
00000000
00001000
00000000
00000010
00000000
00000000
00000000
00000110
00000000
00000000
00000000
00000001
00000000
00000010
00000000
00001000
00000000
00010000
00000000
00100000
00000000
00000000
00000000
10000000
01000000
00100000
00010000
,
00100000
00000000
00001000
00000000
00010000
00000100
00010000
00000100
00002000
00000000
00000000
00000000
00000000
00000000
00003000
00000000
00000010
00000000
00001000
00000001
00001000
00000010
00001000
00000001
00000200
00000000
00000000
00000000
00000000
00000000
00000300
00000000
,
00000010
00000000
00001000
00000100
00010000
00000100
00001000
00000100
00010000
00000000
00000000
00000000
00011000
00000000
00000000
00000000
00001000
00100000
00001000
00100000
00010000
01000000
00010000
01000000
00100000
00000000
00000000
00000000
01100000
00000000
00000000
00000000
,
10000000
00000000
10000000
00000000
00010000
01000000
00100000
10000000
00200000
00000000
00000000
00000000
00300000
00000000
00000000
00000000
,
10000000
00000000
00010000
00100000
00010000
00100000
00001000
00010000
00002000
00000000
00000000
00000000
00003000
00000000
00000000
00000000
,
00100000
00000000
00001000
00010000
00000100
00010000
00001000
00010000
00000020
00000000
00000000
00000000
00000130
00000000
00000000
00000000
,
00000001
00000000
00000001
00000000
00001000
00000100
00000010
00000001
00002000
00000000
00000000
00000000
00003001
00000100
00000010
00001000
,
00000001
00000000
00000001
00000000
00001000
00000100
00000010
00000001
00000020
00000000
00000000
00000000
00000030
00000000
00000000
00000000
,
00000001
00000000
00001000
00000010
00001000
00000010
00010000
00001000
00020000
00000000
00000000
00000000
00030000
00000000
00000000
00000000
,
00000010
00000000
00010000
00001000
01000000
00001000
00010000
00001000
00200000
00000000
00000000
00000000
01300000
00000000
00000000
00000000
,
10000000
00010000
01000000
00100000
10000000
01000000
00100000
00010000
10000000
00000000
00000000
00000000
10010000
00000000
00000000
00000000
,
00200000
20300000
32000000
03020000
,
00032000
00000000
00003000
00000010
00000100
00000000
00000110
00000000
,
00000020
00000032
00000203
00002300
,
00023000
00000000
00000000
01030000
,
10000000
00000000
10000000
00000000
10000000
00000000
10000000
01000000
,
00020000
00000000
00001000
00000000
00130000
00000000
01000000
00010000
,
00001000
00000000
00001000
00000000
00001000
00000000
00001000
00000100
,
00000020
00000000
00000001
00000000
00000130
00000000
00000010
00001000
,
00010000
00022000
00033000
00101000
,
02000000
00000000
03000000
10000000
00100000
00000000
01100000
00000000
,
00020000
00032000
00003020
00000032
,
00001003
00000000
00000001
00000000
00001000
00000100
00001000
00000000
00000100
00000010
00000100
00000000
00000010
00000001
00000010
00000000
,
00000001
00000100
00000001
00000000
00000100
00000000
00000010
00000000
00001000
00000100
00001000
00000000
00000001
00000000
00000100
00000000
,
00001000
00010000
00001000
01000000
00010000
01000000
00001000
00010000
00001000
00000000
00010000
00000000
01000000
00000000
10000000
00000000
,
00100000
00000000
00010000
00000000
00001000
00010000
00001000
00000000
00000010
00000000
00001000
00000000
00010000
00001000
00010000
00000000
,
00000100
00010000
00001000
00010000
00000100
00010000
00001000
00010000
00000100
00000000
00000000
00000000
00011000
00000000
00000000
00000000
,
00000010
00000000
00000001
00000000
00001000
00000100
00000010
00000001
00002000
00000000
00000000
00000000
00003010
00000000
00000000
00000000
,
00010000
00000000
00001000
00000000
01000000
00001000
00010000
00001000
02000000
00000000
00000000
00000000
03100000
00000000
00000000
00000000
,
10000000
01000000
00100000
00010000
00001000
00000100
00000010
00000001
,
00000000
00000001
00000100
00000010
00001000
00010000
01000000
00100000
,
10000000
01000000
10000000
00000000
01000000
00000000
00100000
00000000
00010000
01000000
00010000
00000000
10000000
00000000
01000000
00000000
,
00010000
00001000
00010000
00000100
00001000
00000100
00010000
00001000
00010000
00000000
00001000
00000000
00000100
00000000
00000001
00000000
,
00000010
00000000
00001000
00000000
00010000
00001000
00010000
00000000
00100000
00000000
00010000
00000000
00001000
00010000
00001000
00000000
,
01000000
00001000
00010000
00001000
01000000
00001000
00010000
00001000
01000000
00000000
00000000
00000000
00011000
00000000
00000000
00000000
,
00100000
00000000
10000000
00000000
00010000
01000000
00100000
10000000
00020000
00000000
00000000
00000000
00130000
00000000
00000000
00000000
,
00001000
00000000
00010000
00000000
00000100
00010000
00001000
00010000
00000200
00000000
00000000
00000000
00000310
00000000
00000000
00000000
,
00000001
00000100
00000010
00001000
00010000
01000000
00100000
10000000
,
00000000
10000000
01000000
00100000
00010000
00001000
00000100
00000010
,
00000001
00000000
00000001
00000000
00001000
00000100
00000010
00000001
00000020
00000000
00000000
00000000
00000030
00000000
00000000
00000000
,
00000001
00000000
00001000
00000010
00001000
00000010
00010000
00001000
00020000
00000000
00000000
00000000
00030000
00000000
00000000
00000000
,
00000010
00000000
00010000
00001000
01000000
00001000
00010000
00001000
00200000
00000000
00000000
00000000
01300000
00000000
00000000
00000000
,
10000000
00000000
10000000
00000000
00010000
01000000
00100000
10000000
00020000
00000000
00000000
00000000
10030000
01000000
00100000
00010000
,
10000000
00000000
10000000
00000000
00010000
01000000
00100000
10000000
00200000
00000000
00000000
00000000
00300000
00000000
00000000
00000000
,
10000000
00000000
00010000
00100000
00010000
00100000
00001000
00010000
00002000
00000000
00000000
00000000
00003000
00000000
00000000
00000000
,
00100000
00000000
00001000
00010000
00000100
00010000
00001000
00010000
00000010
00000000
00000000
00000000
00000110
00000000
00000000
00000000
,
00000100
00000001
00000100
00000001
00001000
00000100
00001000
00000100
00010000
00001000
00010000
00001000
01000000
00010000
01000000
00010000
,
10000000
01000000
00100000
00010000
01000000
00100000
10000000
01000000
00100000
00000000
00000000
00000000
01100000
00000000
00000000
00000000
,
10010000
00000000
00000000
00000000
;

//---------------dance-double - NewbStepper-CDP----------------
#NOTEDATA:;
#CHARTNAME:NewbStepper-CDP;
#STEPSTYPE:dance-double;
#DESCRIPTION:NewbStepper-CDP;
#DIFFICULTY:Challenge;
#METER:12;
#CREDIT:NewbStepper;
#NOTES:
00000000
00000000
00000000
00000000
,
00000000
00000000
00000000
00000000
,
00000000
00000000
00000000
00000000
,
00000000
00000000
00000000
00000000
,
00000000
00000000
00000000
00000000
,
01100000
10010000
01100000
MMMMMMMM
,
00011000
00010100
00011000
MMMMMMMM
,
00011000
01001000
00011000
00010100
,
00000011
00001010
00000110
MMMMMMMM
,
00000101
00000101
00001100
00001100
,
00011000
00000000
00000000
00100000
01000000
00000000
MMMMMMMM
00000000
,
11000000
11000000
01010000
01010000
,
00011000
00001100
00011000
MMMMMMMM
,
00001010
00000000
00000011
00000000
00000110
00000000
00000001
00000100
,
00001000
MMMMMMMM
00100000
10000000
,
00110000
00000000
10100000
00000000
01100000
00000000
10000000
01000000
,
00010000
MMMMMMMM
00000010
00000001
,
00000101
00001100
00000101
00001100
,
00011000
01010000
00011000
01010000
,
01100000
MMMMMMMM
00011000
MMMMMMMM
,
00000110
00000101
00001010
00001001
,
00000110
MMMMMMMM
00010100
MMMMMMMM
,
00101000
01010000
10010000
MMMMMMMM
,
01100000
MMMMMMMM
01001000
MMMMMMMM
,
00010010
00001100
00001001
MMMMMMMM
,
00002100
00000001
00000010
00013000
,
01020000
10000000
00100000
00031000
,
00001010
00001001
00001100
00000110
,
MMMMMMMM
00001001
00011000
10010000
,
20000000
01000000
30020000
01000000
,
00032000
00000100
00003002
00000100
,
00001003
00001100
00000101
00000000
00010000
01010000
11000000
00000000
,
00001000
00001010
00000011
00000000
00010000
00110000
10100000
MMMMMMMM
,
01100000
10010000
01100000
MMMMMMMM
,
00011000
00010100
00011000
MMMMMMMM
,
00011000
01001000
00011000
00010100
,
00000011
00001010
00000110
MMMMMMMM
,
00000110
00001001
00000110
MMMMMMMM
,
00011000
01001000
00011000
MMMMMMMM
,
00011000
00010100
00011000
01001000
,
10100000
00110000
01100000
MMMMMMMM
,
00020000
02030000
03002000
00003200
,
00000302
00000000
00000003
00001000
00000100
00000000
00000110
00000000
,
00002000
00003200
00020300
02030000
,
23000000
30000000
MMMMMMMM
01100000
,
11000000
00110000
00001100
00000011
,
00002002
00003003
MMMMMMMM
00000110
,
00000101
00001010
01010000
10100000
,
20020000
00000000
30030000
00000000
MMMMMMMM
00000000
10000000
01000000
,
00010000
MMMMMMMM
00000010
00001000
,
00020000
00000000
00000000
00001000
00031000
00000000
00100000
00000000
,
10000000
00010000
01000000
00001000
,
00000200
00000000
00000300
MMMMMMMM
,
00000110
MMMMMMMM
00010100
MMMMMMMM
,
00101000
01010000
10010000
MMMMMMMM
,
01100000
MMMMMMMM
01001000
MMMMMMMM
,
00010010
00001100
00001001
MMMMMMMM
,
00002100
00000001
00000010
00013000
,
01020000
10000000
00100000
00031000
,
00001010
00001001
00001100
00000110
,
MMMMMMMM
00001001
00011000
10010000
,
01100000
MMMMMMMM
01001000
MMMMMMMM
,
00010010
00000101
00001001
MMMMMMMM
,
00000110
MMMMMMMM
00010100
MMMMMMMM
,
00101000
01010000
10010000
MMMMMMMM
,
01020000
10000000
00100000
00031000
,
00002100
00000001
00000010
00013000
,
00110000
10010000
11000000
01100000
,
MMMMMMMM
10010000
00011000
00001001
,
00000110
00001001
00000110
MMMMMMMM
,
00011000
01001000
00011000
MMMMMMMM
,
00011000
00010100
00011000
01001000
,
10100000
00110000
01100000
MMMMMMMM
,
01100000
10010000
01100000
MMMMMMMM
,
00011000
00010100
00011000
MMMMMMMM
,
00011000
01001000
00011000
00010100
,
00011000
00001001
00011000
10010000
,
00011000
00001001
00011000
MMMMMMMM
,
01100000
00000000
00000000
00000000
;
