#TITLE:Jingle Bell Rock;
#ARTIST:Speedomaster;
#BANNER:Jingle Bell Rock.png;
#BACKGROUND:Jingle Bell Rock-bg.png;
#MUSIC:Jingle Bell Rock.ogg;
#OFFSET:-0.21;
#SAMPLESTART:11.261;
#SAMPLELENGTH:15;
#BPMS:0=173.74;

//---------------dance-single - Nitrospan-bSP----------------
#NOTES:
     dance-single:
     Nitrospan:
     Beginner:
     2:
     :
0000
0000
0000
0000
,
0000
0000
0000
0000
,
0000
0000
0000
0000
,
0000
0000
0000
0000
,
1000
0000
0000
0000
,
0010
0000
0000
0000
,
0100
0000
0000
0000
,
0001
0000
0000
0000
,
0010
0000
0010
0000
,
0010
0000
0000
0000
,
0100
0000
0100
0000
,
0100
0000
0000
0000
,
1000
0000
0000
0000
,
0010
0000
0000
0000
,
0100
0000
0000
0000
,
0001
0000
0000
0000
,
0100
0000
0100
0000
,
0100
0000
0000
0000
,
0010
0000
0010
0000
,
0010
0000
0000
0000
,
1000
0000
0000
0000
,
0001
0000
0000
0000
,
0100
0000
0000
0000
,
0010
0000
0000
0000
,
1000
0000
0000
0000
,
0001
0000
0000
0000
,
1000
0000
1000
0000
,
1000
0000
0000
0000
,
0001
0000
0000
0000
,
1000
0000
0000
0000
,
0220
0000
0000
0000
,
0330
0000
0000
0000
,
0001
0000
0001
0000
,
0001
0000
0000
0000
,
1000
0000
1000
0000
,
1000
0000
0000
0000
,
0001
0000
0000
0000
,
0010
0000
0000
0000
,
0100
0000
0000
0000
,
1000
0000
0000
0000
,
0010
0000
0000
0000
,
1000
0000
0000
0000
,
0001
0000
0000
0000
,
0100
0000
0000
0000
,
0001
0000
0000
0000
,
0010
0000
0000
0000
,
0100
0000
0000
0000
,
1000
0000
0000
0000
,
0001
0000
0001
0000
,
0001
0000
0000
0000
,
1000
0000
1000
0000
,
1000
0000
0000
0000
,
0010
0000
0000
0000
,
0100
0000
0000
0000
,
0001
0000
0000
0000
,
1000
0000
0000
0000
,
0000
1001
0000
0000
,
0000
0100
0000
0000
,
0000
0010
0000
0000
,
0000
0001
0000
0000
,
0000
0100
0000
0000
,
0000
0010
0000
0000
,
0000
2002
0000
0000
,
0000
3003
0000
0000
,
0000
0100
0000
0100
,
0000
0100
0000
0000
,
0000
0010
0000
0010
,
0000
0010
0000
0000
,
0000
1000
0000
0000
,
0000
0001
0000
0000
,
0000
0200
0000
0300
,
0000
0020
0000
0030
,
0000
2000
0000
3000
,
0000
0001
0000
1000
,
0000
0010
0000
0100
,
0000
1001
0000
0000
;

//---------------dance-single - Nitrospan-BSP----------------
#NOTES:
     dance-single:
     Nitrospan:
     Easy:
     7:
     :
0000
0000
0000
0000
,
0000
0000
0000
0000
,
0000
0000
0000
0000
,
0000
0000
0000
0000
,
0010
1000
0100
0000
,
0010
0001
0100
0000
,
0010
1000
0001
0100
,
2002
0000
0000
3003
,
1000
1000
0001
0001
,
1000
0100
0110
0000
,
0001
0001
1000
0100
,
0010
0010
1001
0000
,
0010
0001
0100
0101
,
0010
1000
0100
1100
,
0010
0001
0100
0010
,
1000
0001
0100
0000
,
0001
0001
1000
1000
,
0010
0010
1001
0000
,
0001
0010
0100
0100
,
1000
0001
0110
0000
,
0010
1000
0100
1100
,
0010
0001
0100
0101
,
0010
1000
0001
0100
,
2002
0000
3003
0010
,
0010
0000
0000
1010
0000
0000
1000
0000
,
0001
0000
0000
0011
0000
0000
0000
0000
,
0010
1000
0100
0001
,
0010
0100
1000
0000
,
0010
0000
0000
0110
0000
0000
0100
0000
,
0000
0001
0000
1001
0000
0000
0000
0000
,
0220
0000
0000
0000
,
0000
0000
0330
0000
,
1000
1000
0010
0010
,
0100
0100
0001
0000
,
1000
0010
0001
0100
,
2000
0010
3010
0000
,
0100
0001
0010
0011
,
0100
1000
0010
1010
,
0010
0100
0001
1000
,
2002
0000
0000
3003
,
1000
1000
0010
0010
,
0100
0100
0001
0000
,
0010
0010
0001
0001
,
1000
1000
0100
0000
,
0010
0001
0100
0000
,
0010
1000
0100
0000
,
0010
0001
1000
0100
,
2002
0000
0000
3003
,
0001
0011
1000
1010
,
0001
1000
1001
0000
,
0001
1100
0010
0101
,
1000
0011
0100
0000
,
0010
1000
0100
1100
,
0010
0001
0100
0101
,
0010
1000
0001
0100
,
2002
0000
0000
3003
,
0010
0000
0210
0000
0000
0010
0000
0000
,
0310
0000
2000
0000
0000
0001
0000
0000
,
3000
0001
0010
0200
,
0000
2000
0000
0000
0000
0000
3300
0000
,
0010
0000
0200
0000
0000
0301
0000
0000
,
0010
0000
0000
0200
0000
2000
0000
0000
,
3300
2002
0000
0000
,
0000
0000
0000
3003
,
0000
0001
0001
0100
,
0100
0010
0010
1000
,
0000
0001
0100
1000
,
0010
0002
0100
0103
,
0000
0010
1000
0100
,
1100
0010
0001
0100
,
0101
0000
0000
0100
0000
0000
0010
0000
,
1000
0000
0000
0001
0000
0000
0010
0000
,
0100
0000
0000
1000
0000
0000
0010
0000
,
0100
0001
0010
0100
,
1000
0010
0100
1001
,
1001
0110
0000
0000
;

//---------------dance-single - Nitrospan-DSP----------------
#NOTES:
     dance-single:
     Nitrospan:
     Medium:
     9:
     :
0000
0000
0000
0000
,
0000
0000
0000
0000
,
0000
0000
0000
0000
,
0000
0000
0000
0000
,
1000
0001
1000
0000
0010
0000
0010
0000
,
0100
0001
0100
0000
0010
0000
0010
0000
,
1000
0100
1000
0000
0001
0000
0100
0000
,
0110
0000
1000
0001
0000
1000
0001
0000
,
0100
0001
0100
0000
0001
0100
0001
0000
,
1000
0100
1000
0000
1100
0000
0000
0000
,
0010
0001
0010
0000
0001
0000
0010
0000
,
0100
1000
0100
0000
1001
0000
0000
0000
,
0010
1000
0000
0010
1000
0010
0000
0100
,
0010
0100
0010
0100
0000
0000
0000
0000
,
0000
0001
0000
0100
0001
0100
0001
0000
,
1000
0000
0100
1000
0000
0000
0000
0000
,
0001
0010
0001
0000
0010
0001
0010
0000
,
0100
0010
0100
0000
0110
0000
0000
0000
,
0100
1000
0100
0000
1000
0000
0100
0000
,
1000
0010
1000
0000
1001
0000
0000
0000
,
0100
0001
0000
0100
0001
1000
0000
0100
,
1000
0100
1000
0000
2002
0000
3003
0000
,
0000
0001
0000
0100
0010
0000
1000
0002
,
0000
0000
1000
0000
1000
0000
1003
0100
,
0010
0000
0000
0210
0000
0000
0310
0001
,
1000
0000
0000
2002
0000
0000
3003
0001
,
0002
0000
0023
0000
0230
0000
1300
0002
,
0000
1000
0000
1000
1003
0000
0010
1000
,
0100
0000
0000
0021
0000
0000
0031
0100
,
0000
1010
0000
2020
0000
0000
3030
0000
,
1001
0000
0010
0000
1000
0001
1000
0000
,
0100
0010
0000
0000
0220
0000
0330
0000
,
0010
0001
0010
0000
0100
1000
0100
0000
,
1000
0100
0010
0001
0000
1000
1000
0000
,
0001
1000
0001
0000
0010
0000
1000
0000
,
0200
0001
0020
0330
,
1000
1010
0001
0011
,
1000
0010
0100
0001
0000
0100
0100
0000
,
0000
0110
0000
0010
0100
0010
0100
0000
,
2002
0000
0000
3003
,
1000
1100
0001
0101
,
1000
0001
1001
1001
,
0010
0100
1100
0101
,
1000
0001
0110
1001
,
1000
0001
1000
0000
0100
0000
0100
0000
,
0010
0001
0010
0000
0100
0000
0100
0000
,
1000
0010
1000
0000
0001
0000
0010
0000
,
0110
0000
1000
0001
0000
1000
0001
0000
,
0010
0001
0010
0000
0100
1000
0100
0000
,
0010
0001
0010
0000
0110
0000
0000
0000
,
1000
0001
0100
0000
1100
0000
0101
0000
,
1000
0001
0010
0000
1010
0000
0011
0000
,
1000
0100
1000
0000
0100
1000
0000
0000
,
0001
0010
0001
0000
0010
0000
0001
0000
,
0000
0000
0100
0001
1000
0000
0100
0000
,
0220
0000
0000
0330
,
0100
0000
2001
0000
0000
3020
0000
0000
,
0230
0000
0302
0000
0000
2000
0000
0000
,
3003
0001
0010
1000
,
0100
0002
0000
1000
0000
1000
0000
1003
,
0100
0000
0210
0000
0000
0302
0000
0000
,
2003
0000
0000
0010
0000
0020
0000
0000
,
3030
0000
1001
0000
0010
0000
0100
0010
,
0100
0000
0001
1000
0000
0000
2002
0000
,
3003
0000
0100
1000
0100
0000
0010
0001
,
0010
0000
0001
0010
0100
1000
0000
0001
,
0001
0000
1000
0001
1000
0000
0100
0000
,
0001
0020
1000
0200
,
0330
0001
0101
1000
,
1100
0000
0001
0100
0010
1000
0000
0010
,
0010
0000
0000
0110
0000
1000
0010
1000
,
0010
0000
0000
1001
0000
0001
0100
0001
,
0100
0000
0000
1001
0000
0001
0010
0100
,
1000
1100
1001
0011
,
0110
0000
1000
0100
0001
0000
1100
0000
,
0011
1001
0000
0000
;

//---------------dance-single - Nitrospan-ESP----------------
#NOTES:
     dance-single:
     Nitrospan:
     Hard:
     11:
     :
0000
0000
0000
0000
,
0000
0000
0000
0000
,
0000
0000
0000
0000
,
0000
0000
0000
0000
,
0001
0100
0001
0100
0001
1000
0000
0100
,
1000
0010
1000
0010
0100
0000
0100
0000
,
0001
0010
0001
0010
0100
1000
0000
1000
,
0001
0000
0100
0010
0000
0010
0100
0000
,
0001
0100
1000
0000
1000
0100
0001
0000
,
0001
0100
0010
0000
1001
0000
0000
0000
,
1000
0100
0001
0000
1100
0000
0101
0000
,
1000
0010
0001
0000
1010
0000
0000
0000
,
0100
0001
0000
0001
1000
0100
0000
1000
,
0001
0010
0100
1000
0000
0000
0000
0000
,
0000
0001
0000
0100
0001
1000
0100
0000
,
0010
0000
0001
0100
0000
0000
0000
0000
,
1000
0100
0001
0000
0001
0100
1000
0000
,
1000
0100
0010
0000
1001
0000
0000
0000
,
0001
0100
1000
0000
0101
0000
1100
0000
,
0001
0010
1000
0000
0011
0000
0000
0000
,
0100
1000
0000
0100
1000
0001
0000
0100
,
0001
1000
0100
0000
0110
0000
0000
0000
,
0000
1001
0000
0100
0010
0000
1000
0002
,
0100
0000
0100
0000
0100
0000
0103
0010
,
1000
0000
0000
1020
0000
1030
0100
0010
,
0001
0000
0000
0021
0000
0000
0000
0130
,
2000
0000
3020
0000
0032
0000
0103
2000
,
0000
0001
0000
3001
0100
0010
1000
0001
,
0010
0000
0000
1100
0000
0100
1000
0010
,
0000
0101
0000
0202
0000
0000
0303
0000
,
1001
0000
0010
0000
0100
0001
1000
0100
,
0010
0001
0000
0000
1001
0000
0000
0000
,
0001
0001
0100
0000
0010
0010
1000
0000
,
0001
0001
1000
1000
0000
0001
0001
0000
,
1000
0010
0001
0000
0100
0000
1000
0000
,
0020
0001
0100
1030
,
0101
1001
1100
1001
,
0001
0010
0100
1000
0000
0010
0010
0000
,
0000
0110
0000
1000
0100
0010
0001
0000
,
2002
0000
0000
3003
,
0001
1000
0100
0000
1000
0001
0100
0000
,
0001
1000
0100
0000
0110
0000
0110
0000
,
0100
1000
0001
0000
0011
0000
1100
0000
,
0001
1000
0010
0000
0101
0000
1010
0000
,
1000
0010
1000
0010
1000
0001
0000
0010
,
0001
0100
0001
0100
0010
0000
0010
0000
,
1000
0100
1000
0100
0010
0001
0000
0001
,
1000
0000
0010
0100
0000
0100
0010
0000
,
1000
0200
0001
0000
1300
0020
0001
0000
,
1030
0200
0001
0000
0310
0000
0000
0000
,
0001
0020
0100
0000
0001
0000
1030
0000
,
0010
0002
0100
0000
1000
0000
0010
0000
,
0103
0001
1000
0100
0000
0100
0000
1000
,
0010
0100
0001
1000
0100
0000
0110
0000
,
1000
0001
0010
0100
1000
0010
0100
0001
,
1000
0000
0001
0100
0000
0010
1000
0000
,
0100
0000
2001
0000
0000
0001
0000
0000
,
3010
0000
0200
0000
0000
0010
0000
0000
,
0300
0010
1000
0000
0100
0000
0010
0000
,
0001
1000
0000
0100
0000
0010
0000
0001
,
0010
0100
2000
0000
0000
0001
0000
0000
,
3001
0100
0000
0020
0000
0200
0000
0000
,
0330
0000
0110
0000
1000
0000
0001
0010
,
0100
1000
0000
0010
0010
0000
1001
0000
,
0110
0000
1000
1000
0010
0000
0100
0100
,
0001
0000
1000
1000
0001
0001
0000
1000
,
1000
0000
0001
0100
1000
0000
0010
0000
,
0001
0200
1000
0010
,
0301
1010
1001
0011
,
1001
0000
1000
0100
0010
0001
0000
0100
,
0100
0000
0000
0110
0000
1000
0001
0100
,
0010
0000
0000
1010
0000
0100
0001
1000
,
0100
0000
0000
0011
0000
0100
1000
0001
,
0100
0000
0010
0100
0010
0100
0001
1000
,
0001
1000
0100
0010
0001
0000
1100
0000
,
0101
1001
0000
0000
;

//---------------dance-double - NewbStepper-BDP----------------
#NOTES:
     dance-double:
     NewbStepper:
     Easy:
     7:
     :
00000000
00000000
00000000
00000000
,
00000000
00000000
00000000
00000000
,
00000000
00000000
00000000
00000000
,
00000000
00000000
00000000
00000000
,
00100000
10000000
01000000
00000000
,
00100000
00010000
01000000
00000000
,
00100000
10000000
01000000
00010000
,
00002000
00000000
00000000
00003000
,
00010000
00000100
00001000
00000010
,
00000100
00000001
00000010
00000000
,
00000001
00000100
00000010
00010000
,
00001000
00100000
01000000
00000000
,
10000000
00000000
00100000
00000000
,
00010000
00001000
00010000
00000000
,
00000010
00000000
00010000
00000000
,
00001000
00100000
00001000
00000000
,
00001000
01000000
00010000
00100000
,
01000000
10000000
00100000
00000000
,
10000000
01000000
00100000
00001000
,
00010000
00000010
00000100
00000000
,
00000001
00000000
00000010
00000000
,
00001000
00010000
00001000
00000000
,
01000000
00100000
00010000
00001000
,
00022000
00000000
00000000
00033000
,
00010000
00000000
00000000
01010000
00000000
00000000
00010000
00000000
,
00001000
00000000
00000000
00001100
00000000
00000000
00000000
00000000
,
00000100
00000001
00000010
00001000
,
00000010
00000001
00000100
00000000
,
00001000
00000000
00000000
00001100
00000000
00000000
00001000
00000000
,
00000000
00010000
00000000
01010000
00000000
00000000
00000000
00000000
,
01100000
00000000
00000000
00000000
,
10000000
01000000
00100000
00001000
,
00010000
00000010
00001000
00000100
,
00000010
00000001
00000100
00000000
,
00000001
00000010
00000100
00010000
,
00001000
01000000
00100000
00000000
,
10000000
00000000
01000000
00000000
,
00010000
00001000
00010000
00000000
,
00000100
00010000
00001000
00000010
,
00000001
00001001
00000110
00001001
,
00000001
00000001
00000100
00000100
,
00000010
00001000
00000010
00000000
,
00010000
00010000
00001000
00001000
,
00100000
00010000
00100000
00000000
,
01000000
00000000
10000000
00000000
,
00100000
00000000
00010000
00000000
,
00001000
00010000
00100000
00010000
,
00022000
00000000
00000000
00033000
,
00001000
00100000
00010000
01000000
,
00100000
10000000
01000000
00000000
,
10000000
00100000
01000000
00001000
,
00010000
00000100
00000010
00000000
,
00000001
00000000
00000100
00000000
,
00001000
00010000
00001000
00000000
,
00100000
01000000
00010000
00001000
,
00022000
00000000
00000000
00033000
,
00010000
00002000
00000000
00000000
,
00000000
00003200
00000000
00000000
,
00000000
00000302
00000000
00000000
,
00000000
00000023
00000000
00000000
,
00000000
00002030
00000000
00000000
,
00000000
00023000
00000000
00000000
,
00000000
00130000
00000000
00000000
,
00000000
00000000
10000000
01000000
,
00100000
00001000
00100000
00010000
,
01000000
00100000
10000000
01000000
,
00000000
10000000
00100000
01000000
,
00001000
00010000
00000100
00000010
,
00000000
00000001
00000000
00000100
,
00000000
00001000
00010000
00001000
,
00000000
01000000
00001000
00010000
,
00010000
00000100
00010000
00001000
,
00001000
01000000
00001000
00010000
,
00100000
10000000
11000000
00010000
,
01010000
00100000
00001000
00101000
,
00010010
00011000
00000000
00000000
;

//---------------dance-double - NewbStepper-DDP----------------
#NOTES:
     dance-double:
     NewbStepper:
     Medium:
     9:
     :
00000000
00000000
00000000
00000000
,
00000000
00000000
00000000
00000000
,
00000000
00000000
00000000
00000000
,
00000000
00000000
00000000
00000000
,
00100000
00001000
00100000
00000000
00001000
00000000
00010000
00000000
,
00000010
00010000
00000010
00000000
00001000
00000000
00001000
00000000
,
00000001
00000100
00000001
00000000
00000100
00000000
00001000
00000000
,
00011000
00000000
00100000
00001000
00000000
00010000
00001000
00000000
,
00010000
00100000
00010000
00000000
00100000
10000000
00100000
00000000
,
10000000
00010000
10000000
00000000
10010000
00000000
00000000
00000000
,
00100000
10000000
00100000
00000000
10000000
00000000
01000000
00000000
,
00010000
00001000
00010000
00000000
00011000
00000000
00000000
00000000
,
00001000
00010000
00000000
00000100
00001000
00000100
00000000
00000010
,
00000001
00000010
00000001
00001000
00000000
00000000
00000000
00000000
,
00000000
00000100
00000000
00010000
00001000
00100000
00010000
00000000
,
10000000
00000000
01000000
00010000
00000000
00000000
00000000
00000000
,
00001000
00000010
00001000
00000000
00000010
00000001
00000010
00000000
,
00000001
00001000
00000001
00000000
00001001
00000000
00000000
00000000
,
00000010
00000001
00000010
00000000
00000001
00000000
00000100
00000000
,
00001000
00010000
00001000
00000000
00011000
00000000
00000000
00000000
,
00010000
00001000
00000000
01000000
00010000
01000000
00000000
00100000
,
10000000
00100000
10000000
00000000
00010000
00000000
00000000
00000000
,
10000000
01000000
00010000
00001000
,
00000200
00000010
00000010
00000310
,
00001000
00000000
00001000
00000002
00000000
00000003
00000100
00000001
,
00001000
00000000
00000000
00002200
00000000
00003300
00000000
00000100
,
00000100
00000000
00010000
00000000
00001000
00000000
00100000
00020000
,
00000000
00000000
10030000
10010000
,
00010000
00000000
00010000
20000000
00000000
30000000
01000000
10000000
,
00000000
11000000
00000000
02020000
00000000
00000000
03030000
00000000
,
00011000
00000000
00000000
00000000
,
00010000
00001000
00010000
00001000
00010000
00000000
00011000
00000000
,
00001000
00000100
00001000
00000000
00000100
00000001
00000100
00000000
,
00000001
00001000
00000001
00000100
00000010
00000000
00000010
00000000
,
00010000
00001000
00010000
00000000
00100000
00000000
10000000
00000000
,
02000000
00010000
10000000
03010000
,
00001000
00000010
00000001
00000100
,
00001000
00010000
00001000
00100000
00000000
00001000
00000000
00010000
,
00100000
01000000
00000000
00100000
10000000
00010000
01000000
00000000
,
02200000
00000000
00000000
03300000
,
10000000
11000000
00010000
01010000
,
00100000
00001000
00011000
00011000
,
00000010
00010000
00011000
00001000
,
00100000
00001000
00011000
00011000
,
00000010
00010000
00000010
00000000
00010000
00000000
00001000
00000000
,
00100000
00001000
00100000
00000000
00010000
00000000
00010000
00000000
,
10000000
01000000
10000000
00000000
01000000
00000000
00010000
00000000
,
00011000
00000000
00000010
00010000
00000000
00001000
00010000
00000000
,
00001000
00000100
00001000
00000000
00000100
00000001
00000100
00000000
,
00000001
00001000
00000001
00000000
00001001
00000000
00000000
00000000
,
00000100
00000001
00000100
00000000
00000001
00000000
00000010
00000000
,
00001000
00010000
00001000
00000000
00011000
00000000
00000000
00000000
,
00010000
00001000
00000000
00100000
00010000
00100000
00000000
01000000
,
10000000
01000000
10000000
00010000
00000000
00000000
00000000
00000000
,
10000000
00100000
00010000
00001000
,
00000020
00000000
00000000
00000030
,
00000110
00001002
00000000
00000000
,
00000000
00002003
00000000
00000000
,
00000000
00023000
00000000
00000000
,
00000000
00000000
10030000
00000000
00000000
00000000
00000000
00010000
,
00100000
00010000
10000000
00000000
00000000
00000000
00000000
00000000
,
00000000
11000000
00000000
00000000
,
00000000
01010000
00000000
00000000
,
00000000
00000000
00000000
00010000
00001000
00000000
00100000
00000000
,
00001000
00000000
00010000
01000000
00010000
00000000
01000000
10000000
,
01000000
00000000
10000000
00010000
10000000
01000000
00100000
00000000
,
00100000
00000000
00001000
00010000
00001000
00000000
00000010
00000000
,
00000001
00000200
00001000
00000001
,
00001300
00010000
00100000
10000000
,
01000000
00000000
00010000
00001000
00010000
00000010
00000000
00010000
,
00000000
00001000
00000010
00000100
00000000
00000010
00000001
00001000
,
00000100
00000000
00000000
00010000
00000000
00001000
00100000
00010000
,
01000000
00000000
00000000
00100000
00000000
10000000
01000000
00100000
,
00010000
01010000
10010000
00101000
,
00011000
00000000
00010000
00000100
00001000
00000000
00001100
00000000
,
00000101
00000110
00000000
00000000
;

//---------------dance-double - NewbStepper-EDP----------------
#NOTES:
     dance-double:
     NewbStepper:
     Hard:
     12:
     :
00000000
00000000
00000000
00000000
,
00000000
00000000
00000000
00000000
,
00000000
00000000
00000000
00000000
,
00000000
00000000
00000000
00000000
,
00010000
00001000
00010000
00001000
00100000
00010000
00000000
01000000
,
00001000
00010000
00001000
00010000
00000100
00000000
00000100
00000000
,
00000010
00000001
00000010
00000001
00000100
00001000
00000000
00010000
,
00100000
00000000
00100000
10000000
00000000
10000000
00010000
00000000
,
10000000
01000000
00010000
00000000
00001000
00000100
00000001
00000000
,
00000010
00000001
00000100
00000000
00000110
00000000
00000000
00000000
,
00000001
00000100
00001000
00000000
00011000
00000000
00110000
00000000
,
10000000
01000000
00010000
00000000
00011000
00000000
00000000
00000000
,
00001000
00000010
00000000
00001000
00010000
00001000
00000000
00010000
,
00100000
00010000
00001000
00000010
00000100
00000000
00000110
00000000
,
00000010
00001000
00000000
00010000
00100000
10000000
00010000
00000000
,
01001000
00010100
00011000
00000000
,
00000001
00000100
00001000
00000000
00010000
01000000
10000000
00000000
,
00100000
10000000
01000000
00000000
01100000
00000000
00000000
00000000
,
10000000
01000000
00010000
00000000
00011000
00000000
00001010
00000000
,
00000001
00000100
00001000
00000000
00011000
00000000
00000000
00000000
,
00010000
00100000
00000000
00010000
00001000
00010000
00000000
00001000
,
00000010
00001000
00010000
00100000
01000000
00000000
01100000
00000000
,
00100000
00010000
00000000
00001000
00000010
00000001
00001000
00000000
,
00010010
00011000
00101000
00011000
,
00010000
00100000
00000000
20000000
00000000
00000000
31000000
00010000
,
00001000
00000010
00000000
00000002
00000000
00000000
00000000
00000013
,
00001000
00000000
00000010
00000000
00000001
00000000
00000100
00002000
,
00010000
00000000
01000000
00000000
00103000
00000000
00001000
00010000
,
01000000
10000000
00000000
10010000
00000000
00100000
00001000
00010000
,
00000000
00010010
00000000
00000220
00000000
00000000
00000330
00000000
,
00001001
00000000
00011000
00000000
,
10000000
01000000
00100000
00010000
00001000
00000100
00000010
00000000
,
00000001
00000100
00001000
00000000
00010000
01000000
10000000
00000000
,
00100000
10000000
01000000
00010000
00001000
00000000
00011000
00000000
,
00010000
00001000
00000010
00000000
00000001
00000000
00000100
00000000
,
00002000
00100000
00010000
01003000
,
00001000
00010000
00001000
00010000
00100000
10000000
00100000
10000000
,
01000000
00010000
01000000
00010000
00001000
00010000
00001000
00000010
,
00000001
00000101
00000000
00000100
00001000
00010000
01000000
00000000
,
01100000
10010000
01100000
10010000
,
00100000
10000000
00100000
00000000
01000000
00001000
01000000
00000000
,
00001000
00010000
00001000
00000000
00011000
00000000
00011000
00000000
,
00010000
00001000
00010000
00000000
00000100
00000000
00000010
00000000
,
00001000
00010000
00001000
00000000
01000000
00000000
01000000
00000000
,
00001000
00010000
00001000
00010000
00000010
00001000
00000000
00000100
,
00010000
00001000
00010000
00001000
01000000
00000000
01000000
00000000
,
00100000
10000000
00100000
10000000
01000000
00010000
00000000
00001000
,
00000010
00000000
00000010
00000001
00000000
00000001
00001000
00000000
,
00000001
00000010
00001000
00000000
00010000
00100000
10000000
00000000
,
01000000
10000000
00100000
00000000
01100000
00000000
00000000
00000000
,
10000000
00100000
00010000
00000000
00011000
00000000
00001100
00000000
,
00000001
00000010
00001000
00000000
00011000
00000000
00000000
00000000
,
00010000
01000000
00000000
00010000
00001000
00010000
00000000
00001000
,
00000100
00001000
00010000
01000000
00100000
00000000
01100000
00000000
,
10000000
01000000
00010000
00001000
00000100
00000001
00000010
00000000
,
00000110
00000000
00000001
00001001
00000000
00001000
00001100
00000000
,
00010100
00000000
00012000
00000000
00010000
00000000
00013000
00001000
,
02000000
00010000
00000000
00010000
00000000
03010000
00100000
00010000
,
10000000
00200000
01000000
00000000
01000000
00000000
01000000
00000000
,
01300000
00001000
00000000
00001000
00000000
00001000
00010000
00000100
,
00000010
00000001
00000100
00000000
00000000
00000000
00000000
00000000
,
00000000
00010010
00000000
00000000
,
00000000
00011000
00000000
00000000
,
00000000
00000000
00000000
00001000
00010000
00000000
00100000
00000000
,
10000000
00000000
10000000
01000000
00010000
00000000
00001000
00000100
,
00000001
00000000
00000010
00000001
00000100
00001000
00010000
00000000
,
00011000
00000000
00001000
00010000
00100000
00000000
10000000
00000000
,
01000000
00020000
00000010
00001000
,
00030100
00000000
00010000
00001000
00010000
00001000
00000010
00000001
,
00000010
00000001
00000100
00001000
00000100
00001000
00010000
00100000
,
00010000
00100000
10000000
11000000
00000000
01000000
00010000
00001000
,
00000100
00000000
00000001
00000101
00000000
00000100
00001000
00010000
,
01000000
00000000
10000000
10100000
00000000
00100000
00010000
00001000
,
00000010
00000000
00000001
00000100
00001000
00010000
01000000
10000000
,
00100000
00010000
00001000
00100000
00001000
00000000
00010100
00000000
,
00101000
00011000
00000000
00000000
;
