#VERSION:0.83;
#TITLE:Iridescence;
#ARTIST:Fergu$on & Drisello;;
#BANNER:Iridescence.png;
#BACKGROUND:Iridescence-bg.png;
#JACKET:Iridescence-jacket.png;
#MUSIC:Iridescence.ogg;
#SAMPLESTART:57.92;
#SAMPLELENGTH:15;
#BPMS:0=174;

//---------------dance-single - RGTM-bSP----------------
#NOTEDATA:;
#CHARTNAME:RGTM-bSP;
#STEPSTYPE:dance-single;
#DESCRIPTION:RGTM-bSP;
#DIFFICULTY:Beginner;
#METER:3;
#CREDIT:RGTM;
#NOTES:
0000
0000
0000
0000
,
0000
0000
0000
0000
,
0000
0000
0000
0000
,
0000
0000
0000
0000
,
1000
0000
0000
0000
,
0001
0000
0000
0000
,
0010
0000
0000
0000
,
0200
0000
0000
0000
,
0300
0000
0000
0000
,
1000
0000
0000
0110
,
0000
0000
0000
0001
,
0000
0000
1000
1000
,
0000
0010
0000
0100
,
0000
0000
0010
0010
,
0000
1000
0000
1000
,
0000
0000
0001
0001
,
0000
0010
0000
0100
,
0000
0010
0000
0000
,
0000
0001
0000
0001
,
0000
1000
0000
1000
,
0000
0001
0000
1000
,
0000
0001
0000
1000
,
0000
0010
0000
0010
,
0000
0100
0000
0100
,
0000
0010
0000
0100
,
0200
0000
0000
0000
,
0300
0000
0000
0001
0000
0000
0000
0000
,
0000
0000
0000
1000
0000
0000
0000
0000
,
0000
0000
0000
0001
0000
0000
0000
0000
,
0000
0000
0000
1000
0000
0000
0000
0000
,
0000
0000
0000
0100
0000
0000
0000
0000
,
0000
0000
0000
0010
0000
0000
0000
0000
,
0000
0000
0000
0100
0000
0000
0000
0000
,
0000
0000
0000
0000
0000
0000
0000
0010
0000
0000
0000
0000
0000
0000
0000
0000
,
0000
0001
0000
0001
,
0000
0100
0000
0100
,
0000
0010
0000
0010
,
0000
1000
0000
1000
,
0000
0001
0000
0001
,
0000
0010
0000
0010
,
0000
0100
0000
1000
,
2000
0000
0000
0000
,
3000
0000
0000
1000
,
0000
0001
0000
1000
,
0000
0010
0000
0100
,
0000
0010
0000
0100
,
0000
0001
0000
1000
,
0000
0001
0000
1000
,
0000
0100
0000
0010
,
0000
0100
0000
0010
,
0000
0001
0000
1000
,
0000
0010
0000
0100
,
0000
0001
0000
1000
,
0000
0100
0000
0010
,
0000
0001
0000
0100
,
0000
0010
0000
1000
,
1000
0000
0000
0000
,
0001
0000
0000
0110
,
0000
0000
0000
0001
,
0000
0000
1000
1000
,
0000
0100
0000
0010
,
0000
0000
0100
0100
,
0000
1000
0000
1000
,
0000
0000
0001
0001
,
0000
0100
0000
0010
,
0000
0100
0000
0000
,
0000
0001
0000
0001
,
0000
1000
0000
1000
,
0000
0001
0000
1000
,
0000
0001
0000
1000
,
0000
0100
0000
0100
,
0000
0010
0000
0010
,
0000
0100
0000
1000
,
1000
0000
0000
0110
;

//---------------dance-single - RGTM-BSP----------------
#NOTEDATA:;
#CHARTNAME:RGTM-BSP;
#STEPSTYPE:dance-single;
#DESCRIPTION:RGTM-BSP;
#DIFFICULTY:Easy;
#METER:7;
#CREDIT:RGTM;
#NOTES:
0000
0000
0000
0000
,
0000
0000
0000
0000
,
0000
0000
0000
0000
,
0000
0000
0000
0000
,
0000
1000
0000
1000
,
0000
0001
0000
0001
,
0000
0100
0000
0100
,
0020
0000
0000
0030
,
0100
0000
0001
0001
,
1000
0100
0010
0110
,
1001
1000
0001
1000
,
0010
0010
0100
0001
,
1000
0100
1000
0001
,
0100
0010
0100
0001
,
1000
0001
1000
1000
,
0100
0100
0010
0001
,
1000
0010
1000
0001
,
0010
0100
0000
1000
,
0001
0010
0001
0010
,
0100
1000
0001
0100
,
0010
0010
1000
0001
,
0020
0100
0000
0130
,
1000
0010
1000
0010
,
0100
0001
1000
0100
,
0010
0010
0001
1000
,
0020
0000
0000
0030
,
1001
0000
0000
1000
0000
0010
0000
0000
,
1001
0000
0000
0001
0000
0100
0000
0000
,
0110
0000
0000
1000
0000
0001
0000
0000
,
0110
0000
0000
0001
0000
1000
0000
0000
,
1001
0000
0000
0000
0000
0000
0010
0000
0000
0010
0000
0000
0000
0000
0000
0000
,
1001
0000
0000
0000
0000
0000
0100
0000
0000
0100
0000
0000
0000
0000
0000
0000
,
0110
0000
0000
0000
0000
0000
0001
0000
0000
0001
0000
0000
0000
0000
0000
0000
,
0110
0000
0000
0000
0000
0000
0000
1000
0000
0000
1000
0000
0000
0000
0000
0000
,
0001
0000
1000
0000
0001
1000
0001
0000
,
0200
0000
0310
0010
,
1000
0000
1000
1000
0000
0000
0000
0000
,
0001
0000
0001
0001
0000
0000
0000
0000
,
1000
0000
0001
0000
1000
0001
1000
0000
,
0200
0000
0310
0000
,
0001
0000
0001
0001
0000
0000
0000
0000
,
2000
0000
0000
0000
,
3001
0010
0100
1000
,
0001
0100
0010
1000
,
0100
0010
0001
1000
,
0010
0100
0001
1000
,
0001
0100
0010
1000
,
0001
0010
0100
1000
,
0010
0100
0001
1000
,
0100
0010
0001
1000
,
0000
0000
0001
0000
0000
1000
0000
0001
,
0000
0000
0100
0000
0000
0010
0000
0100
,
0000
0000
0001
0000
0000
1000
0000
0001
,
0000
0000
0010
0000
0000
0100
0000
0010
,
0000
0001
0001
0000
1000
1000
0000
0001
,
0000
0100
0100
0000
0010
0010
0000
0100
,
0100
0000
0001
0001
,
1000
0100
0010
0110
,
1001
1000
0001
1000
,
0100
0100
0010
0001
,
1000
0010
1000
0001
,
0010
0100
0010
0001
,
1000
0001
1000
1000
,
0010
0010
0100
0001
,
1000
0100
1000
0001
,
0100
0010
0000
1000
,
0001
0010
0000
0010
,
0000
0100
1000
0001
,
0100
0000
0000
0000
0010
0100
0010
0000
,
0100
0000
0000
0000
0001
1000
0001
0000
,
1000
0100
0000
0100
,
0010
0100
0010
0001
,
1000
0000
0001
0000
0100
0010
0100
0000
,
0001
0010
0100
1001
;

//---------------dance-single - RGTM-DSP----------------
#NOTEDATA:;
#CHARTNAME:RGTM-DSP;
#STEPSTYPE:dance-single;
#DESCRIPTION:RGTM-DSP;
#DIFFICULTY:Medium;
#METER:10;
#CREDIT:RGTM;
#NOTES:
0000
0000
0000
0000
,
0000
0000
0000
0000
,
0000
0000
0000
0000
,
0000
0000
0000
0000
,
0000
0000
1000
0001
0000
1000
0001
0000
,
0000
0000
0100
0010
0100
0010
0000
2000
,
0000
0000
0000
0000
3100
0010
0000
0002
,
0000
0000
0000
0103
,
0110
0000
2000
3002
,
1003
0000
0100
0000
0010
0000
0000
0001
0000
1000
0000
0000
1001
0000
0000
0000
,
0001
0000
0100
0000
0010
0100
0010
0000
,
1000
0100
1000
0100
0000
1000
0001
0001
,
0100
0000
0010
0000
1000
0001
1000
0000
,
0001
0000
0010
0000
0100
1000
0001
1000
,
1000
0000
0010
0000
0100
0010
0100
0000
,
0001
0010
0001
0010
0000
0001
1000
1000
,
0010
0000
0100
0000
0001
1000
0001
0000
,
0100
0000
0000
0000
0010
0000
0000
0100
0000
0000
0010
0000
0100
0000
0010
0000
,
1000
0000
0001
0010
0000
0001
0010
0000
,
0100
0000
1000
0100
1000
0001
0000
0200
,
0000
0000
0310
0000
1000
0010
0000
2000
,
0000
0000
0000
0001
0000
0001
0000
0000
,
3100
0000
1000
0010
0000
1000
0010
0000
,
0100
0000
0001
0100
0001
1000
0000
0020
,
0000
0000
1030
0010
1000
0001
0000
0020
,
0000
0000
0000
0130
,
1001
0000
0000
1010
0000
0011
0000
0000
,
0000
0000
0000
1100
0000
0101
0000
0000
,
0000
0000
0000
0011
0000
1010
0000
0000
,
0000
0000
0000
0101
0000
1100
0000
0000
,
0000
0000
0000
0000
0000
0000
1010
0000
0000
0011
0000
0000
0000
0000
0000
0000
,
0000
0000
0000
0000
0000
0000
1100
0000
0000
0101
0000
0000
0000
0000
0000
0000
,
0000
0000
0000
0000
0000
0000
0011
0000
0000
1010
0000
0000
0000
0000
0000
0000
,
0000
0000
0000
0000
0000
0000
0000
0101
0000
0000
1100
0000
0000
0000
0000
0000
,
0001
0000
0000
0100
0000
0000
0001
0000
0000
0010
0000
0000
0001
0000
1000
0000
,
0000
0000
0000
0010
0100
0010
0100
0000
,
0001
0000
0000
1000
0000
0000
0010
0000
0000
0000
0000
0000
0000
0000
0000
0000
,
1000
0000
0000
0001
0000
0000
0010
0000
0000
0000
0000
0000
0000
0000
0000
0000
,
0100
0000
0000
0010
0000
0000
0001
0000
0000
1000
0000
0000
0010
0000
0100
0000
,
0000
0000
0000
0001
1000
0001
1000
0000
,
0100
0000
0000
1000
0000
0000
0010
0000
0000
0000
1000
0000
0001
0000
1000
0000
,
0100
0020
0000
0032
0000
2003
0000
3001
,
1000
0001
0010
0000
0100
1000
0000
0001
,
0000
0100
0010
0000
1000
0100
0000
0010
,
0000
0001
1000
0000
0010
0100
0000
0001
,
0000
0010
0100
0000
1000
0001
0000
1000
,
0000
0001
0100
0000
0010
1000
0000
0001
,
0000
0010
0100
0000
1000
0010
0000
0100
,
0000
0001
1000
0000
0100
0010
0000
0001
,
0000
0100
0010
0000
1000
0001
0000
1000
,
0000
0001
0010
0100
1000
0001
0000
0100
,
0000
0010
1000
0100
0010
0001
0000
1000
,
0000
0001
0100
0010
1000
0001
0000
0010
,
0000
0100
1000
0001
0100
0010
0000
1000
,
0000
0001
0010
0100
1000
0010
0100
0001
,
0000
1000
0100
0010
0001
0100
0010
1000
,
0001
0000
0002
2003
,
3001
0000
0010
0000
0100
0000
0000
1000
0000
0001
0000
0000
1001
0000
0000
0000
,
1000
0000
0001
0010
0000
0001
0010
0000
,
0100
0000
1000
0100
1000
0001
0000
0200
,
0000
0000
0000
0300
0010
1000
0000
0000
,
1000
0000
0001
0000
0010
0100
0010
0001
,
0001
0000
1000
0010
0000
1000
0010
0000
,
0100
0000
0001
0100
0001
1000
0000
0200
,
0000
0000
0310
0000
0001
1000
0001
0000
,
0100
0000
0000
0000
0010
0000
0000
0100
0000
0000
0010
0000
0100
0000
0010
0000
,
1000
0000
0001
0010
0000
0001
0010
0000
,
0100
0000
1000
0100
1000
0001
0000
0100
,
0100
0000
0010
0000
1000
0001
1000
0000
,
0100
0000
0010
0000
0100
0000
1000
1000
,
0001
0000
1000
0010
0000
1000
0010
0000
,
0100
0010
0100
0010
0000
1000
0001
1000
,
1000
0000
0100
0000
0010
0100
0010
0000
,
0001
0000
0100
0000
0010
0000
0000
1000
0000
0001
0000
0000
1001
0000
0000
0000
;

//---------------dance-single - RGTM-ESP----------------
#NOTEDATA:;
#CHARTNAME:RGTM-ESP;
#STEPSTYPE:dance-single;
#DESCRIPTION:RGTM-ESP;
#DIFFICULTY:Hard;
#METER:14;
#CREDIT:RGTM;
#NOTES:
0000
0000
0000
0000
,
0000
0000
0000
0000
,
0000
0000
0000
0000
,
0000
0000
0000
0000
,
1100
0000
0001
0010
0000
0001
1000
0000
,
0001
0000
0000
0000
0100
0000
0010
0000
1000
0000
0001
0000
0000
0000
0010
0002
,
0000
0000
0000
0000
0000
0000
0000
0000
0103
0000
0001
0000
0000
0000
1000
0020
,
0000
0000
0000
0130
,
0110
0000
0000
0000
0000
0000
0000
0000
1000
0001
1000
0001
1000
0001
1000
0001
,
1000
0000
0100
0000
0010
0000
0000
0001
0000
1000
0000
0000
0110
0000
0000
0000
,
1000
0000
0001
0010
0100
1000
0001
0000
,
0100
0010
0100
0010
0000
1000
0001
1000
,
1000
0000
0100
0010
0001
1000
0010
0000
,
0100
0010
1000
0100
0010
0001
1000
0001
,
0001
0000
1000
0010
0100
0001
1000
0000
,
0100
0010
0100
0010
0000
0001
1000
0001
,
0001
0000
0100
0010
1000
0100
0010
0000
,
0001
0000
0000
0000
0010
0000
0000
0100
0000
0000
0010
0000
0001
0000
1000
0000
,
0001
0000
1000
0010
0000
0100
0010
0000
,
1000
0000
0000
0000
0100
0000
0010
0100
0010
0000
0001
0000
0000
0000
1000
0002
,
0000
0000
0003
0000
0001
0000
0001
0000
0100
0000
0001
0000
0000
0000
1000
0200
,
0000
0000
0000
0000
0000
0300
0010
0200
0000
0300
0001
0200
0000
0000
1300
0001
,
0100
0000
0001
0010
0000
0100
0010
0000
,
0001
0000
0000
0000
0100
0000
0010
0100
0010
0000
1000
0000
0000
0000
0001
2000
,
0000
0000
0000
0000
3100
0000
1000
0100
1000
0000
0001
0000
0000
0000
0100
0020
,
0000
0000
0000
0130
,
0001
0000
0100
0011
0000
1010
0001
0000
,
1000
0000
0100
0011
0000
1010
0001
1000
,
1000
0000
0010
0101
0000
0110
1000
0000
,
0001
0000
0010
1100
0000
0110
0001
1000
,
1000
0000
0010
0000
0100
0000
0110
0000
0000
1010
0000
0000
0001
0000
0000
0000
,
1000
0000
0000
0000
0100
0000
0110
0000
0000
0011
0000
0000
1000
0000
0001
0000
,
0001
0000
0000
0000
0100
0000
0110
0000
0000
0101
0000
0000
1000
0000
0000
0000
,
0001
0000
0000
0000
0010
0000
0000
0110
0000
0000
1100
0000
0001
0000
1000
0000
,
0001
0100
0000
0010
0100
0000
0010
1000
0000
0001
0010
0000
0001
0000
1000
0000
,
0100
0000
0010
0001
1000
0001
1000
1000
,
0001
0100
0000
0010
0100
0000
0001
0000
0000
0000
1000
0000
0001
0000
0000
0000
,
1000
0100
0000
0010
0100
0000
0001
0000
0000
0000
0100
0000
1000
0000
0001
0000
,
1000
0100
0000
0010
0100
0000
0010
0001
0000
1000
0010
0000
1000
0000
0001
0000
,
0100
0000
0010
1000
0001
1000
0001
0001
,
1000
0100
0000
0010
0001
0000
1000
0000
0000
0000
0010
0000
0100
0000
1000
0000
,
0200
0302
0000
0023
0000
0230
0000
0302
,
0103
1000
0010
0100
0001
0010
0100
0001
,
0100
1000
0010
0100
0001
0010
0100
0110
,
0010
0100
1000
0010
0100
0001
1000
0100
,
0010
0100
1000
0010
0100
0001
0010
0110
,
0100
1000
0010
0100
1000
0001
1000
0100
,
0010
1000
0100
0010
1000
0001
1000
0010
,
0001
0100
0010
0001
1000
0100
0010
1000
,
0001
0000
0010
0000
0100
0000
0000
0001
0000
0000
1000
0000
0010
0000
0001
0000
,
1000
0000
0100
1000
0010
0000
0100
0000
0001
0000
0010
0000
0100
0000
1000
0000
,
0001
0000
0100
0001
0010
0000
0100
0000
1000
0000
0010
0000
0100
0000
0001
0000
,
1000
0000
0100
0010
0001
0000
0100
0000
0010
0000
1000
0000
0100
0000
0010
0000
,
0001
0000
0100
0010
1000
0000
0100
0000
0010
0000
0001
0000
1000
0000
0010
0000
,
1000
0000
0100
0010
0001
0000
1000
0000
0010
0100
0001
0000
1000
0000
0100
0000
,
0010
0000
0001
0100
0010
0000
1000
0000
0001
0010
0100
0000
1000
0000
0010
0000
,
0110
0000
0000
0000
0000
0000
0000
0000
0001
1000
0001
1000
0001
1000
0001
1000
,
0001
0000
0100
0000
0010
0000
0000
1000
0000
0001
0000
0000
0110
0000
0000
0000
,
1001
0000
0001
0010
0000
0100
0010
0000
,
0001
0000
0000
0000
0100
0000
0010
0000
1000
0000
0001
0000
0000
0000
1000
0200
,
0000
0000
0000
0000
1300
0001
0000
0000
,
0100
0000
0010
0000
1000
0100
0010
0001
,
0001
0000
1000
0010
0000
0100
0010
0000
,
1000
0000
0000
0000
0100
0000
0010
0000
0001
0000
1000
0000
0000
0000
0001
0200
,
0000
0000
0000
0000
0310
0100
0010
0000
,
1000
0000
0000
0000
0001
0000
0000
1000
0000
0000
0010
0000
0100
0000
0010
0000
,
1000
0000
0001
0010
0000
0100
0010
0000
,
0001
0000
0100
0010
1000
0001
0000
1000
,
1000
0000
0100
0010
0001
0100
0010
0000
,
1000
0000
0010
0000
0100
0001
0010
0001
,
0001
0000
1000
0010
0000
0100
0010
0000
,
1000
0001
1000
0001
0000
0010
0100
1000
,
1000
0000
0001
0100
0010
0100
0001
1000
,
0001
0000
0010
0000
0100
0000
0000
1000
0000
0001
0000
0000
0110
0000
0000
0000
;

//---------------dance-double - RGTM-BDP----------------
#NOTEDATA:;
#CHARTNAME:RGTM-BDP;
#STEPSTYPE:dance-double;
#DESCRIPTION:RGTM-BDP;
#DIFFICULTY:Easy;
#METER:8;
#CREDIT:RGTM;
#NOTES:
00000000
00000000
00000000
00000000
,
00000000
00000000
00000000
00000000
,
00000000
00000000
00000000
00000000
,
00000000
00000000
00000000
00000000
,
00000000
10000000
00000000
10000000
,
00000000
00010000
00000000
00010000
,
00000000
00100000
00000000
00100000
,
02000000
00000000
00000000
03000000
,
00100000
00000000
00001000
00001000
,
00010000
00000100
00000010
00000110
,
00001001
00000001
00000100
00000010
,
00010000
00001000
00100000
00100000
,
01000000
10000000
00100000
01000000
,
00001000
00010000
00000100
00000100
,
00001000
00000001
00000100
00000010
,
00010000
00001000
00100000
00100000
,
01000000
10000000
00100000
01000000
,
00001000
00000000
00010000
00010000
,
00011000
00001000
00100000
10000000
,
00100000
00001000
00010000
00001000
,
00000100
00000010
00001000
00000001
,
00000020
00000000
00000001
00001030
,
00001000
00010000
00000010
00000001
,
00000010
00010000
00001000
00010000
,
01000000
00100000
00010000
10000000
,
00200000
00000000
00000000
01300000
,
10000000
00000000
00000000
01100000
00000000
00000000
00000000
00000000
,
00001000
00000000
00000000
00000110
00000000
00000000
00000000
00000000
,
00000001
00000000
00000000
00000110
00000000
00000000
00000000
00000000
,
00010000
00000000
00000000
01100000
00000000
00000000
00000000
00000000
,
10000000
00000000
00000000
00011000
00000000
00000000
00000000
00000000
,
00000001
00000000
00000000
00011000
00000000
00000000
00000000
00000000
,
10000000
00000000
00000000
00011000
00000000
00000000
00000000
00000000
,
00000001
00000000
00000000
00000000
00000000
00000000
00000000
00011000
00000000
00000000
00000000
00000000
00000000
00000000
00000000
00000000
,
10000000
00000000
00010000
00000000
10000000
00010000
10000000
00000000
,
02000000
00000000
03100000
00100000
,
00001000
00000000
00010000
00010000
00000000
00000000
00000000
00000000
,
00000010
00000000
00000010
00000010
00000000
00000000
00000100
00000000
,
00000001
00000000
00001000
00000000
00000001
00001000
00000001
00000000
,
00000020
00000000
00000130
00000100
,
00010000
00000000
00001000
00001000
00000000
00000000
01000000
00000000
,
00200000
00000000
00000000
00000000
,
10300000
00100000
00001000
00000010
,
00010000
01000000
00001000
00000100
,
00010000
00000010
00001000
00100000
,
01000000
00001000
00010000
00010000
,
00000100
00000001
00001000
01000000
,
00100000
00001000
00000010
00010000
,
00100000
01000000
00001000
00010000
,
00000100
00000010
00000001
00001000
,
00000001
00000000
00000100
00000000
00000000
00010000
00000000
10000000
,
00000000
00000000
01000000
00000000
00000000
00001000
00000000
00000001
,
00000000
00000000
00000010
00000000
00000000
00010000
00000000
10000000
,
00000000
00000000
00100000
00000000
00000000
00001000
00000000
00000001
,
00000000
00000010
00000010
00000000
00001000
00001000
00000000
00010000
,
00000000
00100000
00100000
00000000
10000000
10000000
00000000
01000000
,
01000000
00000000
00010000
00010000
,
00001000
00000100
00000010
00000110
,
00001001
00000001
00000010
00010000
,
00000010
00000001
00000100
00001000
,
00020000
00000000
01030000
01000000
,
00100000
00000000
00010000
00000000
10000000
00000000
00010000
10000000
,
00010000
10000000
00100000
00001000
,
00100000
10000000
01000000
00010000
,
00002000
00000000
00003100
00000010
,
00001000
00000000
00000100
00000000
00000010
00000100
00000010
00000000
,
00000001
00000100
00010000
00000100
,
00000010
00010000
00001000
01000000
,
00100000
00000000
01000000
00000000
00100000
01000000
00100000
00000000
,
10000000
00000000
00000000
00000000
00010000
10000000
00010000
00000000
,
10000000
01000000
00001000
01000000
,
00100000
00001000
00010000
00000010
,
00000100
00000000
00000010
00000000
00001000
00000001
00001000
00000000
,
00000001
00000010
00000100
00001001
;

//---------------dance-double - RGTM-DDP----------------
#NOTEDATA:;
#CHARTNAME:RGTM-DDP;
#STEPSTYPE:dance-double;
#DESCRIPTION:RGTM-DDP;
#DIFFICULTY:Medium;
#METER:11;
#CREDIT:RGTM;
#NOTES:
00000000
00000000
00000000
00000000
,
00000000
00000000
00000000
00000000
,
00000000
00000000
00000000
00000000
,
00000000
00000000
00000000
00000000
,
00000000
00000000
10000000
00010000
00000000
10000000
00010000
00000000
,
00000000
00000000
01000000
00100000
01000000
00100000
00000000
20000000
,
00000000
00000000
00000000
00000000
31000000
00100000
00000000
00002000
,
00000000
00000000
00000000
00013000
,
00011000
00000000
00020000
00030020
,
00001030
00000000
00000100
00000000
00000010
00000000
00000000
00000001
00000000
00001000
00000000
00000000
00001001
00000000
00000000
00000000
,
00000001
00000000
00000100
00000000
00000010
00000100
00000010
00000000
,
00010000
00000010
00010000
00000010
00000000
00010000
00001000
00010000
,
00010000
00000000
00001000
00000000
00100000
01000000
00100000
00000000
,
01000000
00000000
10000000
00000000
00010000
01000000
00100000
00100000
,
10000000
00000000
01000000
00000000
00100000
01000000
00100000
00000000
,
00001000
00100000
00001000
00100000
00000000
00001000
00010000
00001000
,
00001000
00000000
00010000
00000000
00000010
00000100
00000010
00000000
,
00001000
00000000
00000000
00000000
00000010
00000000
00000000
00000100
00000000
00000000
00000010
00000000
00001000
00000000
00000001
00000000
,
00001000
00000000
00000001
00000010
00000000
00001000
00000010
00000000
,
00000100
00000000
00010000
00001000
01000000
00100000
00000000
20000000
,
00000000
00000000
30010000
10000000
00010000
00100000
00000000
02000000
,
00000000
00000000
00000000
00010000
00000000
00001000
03000000
01000000
,
01000000
00000000
10000000
00100000
00000000
00010000
00100000
00000000
,
01000000
00000000
00001000
00010000
00000100
00000010
00000000
00000002
,
00000000
00000000
00001003
00000001
00000100
00000010
00000000
00020000
,
00000000
00000000
00000000
00031000
,
00010000
00000000
00000000
01100000
00000000
10010000
00000000
00000000
,
00001000
00000000
00000000
00000110
00000000
00001001
00000000
00000000
,
00010000
00000000
00000000
01100000
00000000
00011000
00000000
00000000
,
00001000
00000000
00000000
00000110
00000000
00011000
00000000
00000000
,
00010000
00000000
00000000
00000000
00000000
00000000
01100000
00000000
00000000
10010000
00000000
00000000
00000000
00000000
00000000
00000000
,
00001000
00000000
00000000
00000000
00000000
00000000
00000110
00000000
00000000
00001001
00000000
00000000
00000000
00000000
00000000
00000000
,
00010000
00000000
00000000
00000000
00000000
00000000
01100000
00000000
00000000
00011000
00000000
00000000
00000000
00000000
00000000
00000000
,
00001000
00000000
00000000
00000000
00000000
00000000
00000000
00000110
00000000
00000000
00011000
00000000
00000000
00000000
00000000
00000000
,
00010000
00000000
00000000
00001000
00000000
00000000
01000000
00000000
00000000
00100000
00000000
00000000
10000000
00000000
00010000
00000000
,
00100000
00000000
01000000
00010000
00001000
00010000
00001000
00000000
,
00000010
00000000
00000000
00000001
00000000
00000000
00000100
00000000
00000000
00000000
00001000
00000000
00010000
00000000
00000000
00000000
,
01000000
00000000
00000000
10000000
00000000
00000000
00100000
00000000
00000000
00000000
00100000
00000000
00010000
00000000
00010000
00000000
,
00001000
00000000
00000000
00010000
00000000
00000000
00000100
00000000
00000000
00000010
00000000
00000000
00000001
00000000
00001000
00000000
,
00000010
00000000
00000100
00001000
00010000
00001000
00010000
00010000
,
01000000
00000000
00000000
10000000
00000000
00000000
00100000
00000000
00000000
00000000
10000000
00000000
00010000
00000000
00100000
00000000
,
01000000
00200000
00000000
00302000
00000000
00023000
00000000
00030010
,
00010000
00000100
00000010
00000000
00000001
00000100
00001000
00010000
,
00001000
01000000
00100000
00000000
10000000
01000000
00010000
00001000
,
00010000
00000010
00000100
00000000
00000001
00000010
00001000
00010000
,
00001000
00100000
01000000
00000000
10000000
00100000
00010000
00001000
,
00010000
00001000
00000010
00000000
00001000
00000010
00000001
00000100
,
00001000
00010000
00100000
00000000
00010000
00100000
10000000
01000000
,
00010000
00001000
00000100
00000000
00000001
00000010
00000100
00010000
,
00001000
00000000
00100000
00000000
01000000
00000000
00000000
10000000
00000000
00000000
00100000
00000000
10000000
00000000
00010000
00000000
,
10000000
01000000
00100000
00001000
00010000
00000100
00000000
00000010
,
00000001
00000100
00000010
00010000
00001000
00100000
00000000
01000000
,
10000000
00100000
01000000
00001000
00010000
00000010
00000000
00000100
,
00000001
00000010
00000100
00010000
00001000
01000000
00000000
00100000
,
10000000
01000000
00100000
00001000
00010000
00000010
00000100
00000001
,
00001000
00000001
00000010
00000100
00010000
00001000
01000000
00100000
,
10000000
00000000
20000000
30020000
,
10030000
00000000
01000000
00000000
00100000
00000000
00000000
00010000
00000000
10000000
00000000
00000000
10010000
00000000
00000000
00000000
,
00010000
00000000
10000000
00100000
00000000
00010000
00100000
00000000
,
01000000
00000000
00001000
00010000
00000100
00000010
00000000
00000002
,
00000000
00000000
00000000
00000000
00001003
00000010
00000000
00000000
,
00000100
00000000
00001000
00000000
00001000
00010000
00000010
00001000
,
00001000
00000000
00000001
00000010
00000000
00001000
00000010
00000000
,
00000100
00000000
00010000
00001000
01000000
00100000
00000000
20000000
,
00000000
00000000
00000000
00000000
30100000
01000000
00100000
00000000
,
10000000
00000000
00000000
00000000
01000000
00000000
00000000
00100000
00000000
00000000
00010000
00000000
01000000
00000000
00100000
00000000
,
10000000
00000000
00010000
00100000
00000000
10000000
00100000
00000000
,
01000000
00000000
10000000
00010000
01000000
00100000
00000000
00010000
,
00010000
00000000
00001000
00000000
00000010
00000100
00000010
00000000
,
00000001
00000000
00000100
00000000
00001000
00010000
00000100
00000100
,
00001000
00000000
00000001
00000010
00000000
00001000
00000010
00000000
,
00000100
00001000
00000100
00001000
00000000
00000010
00010000
00001000
,
00001000
00000000
01000000
00001000
00010000
00000100
00000010
00000000
,
00000001
00000000
00000100
00000000
00000010
00000000
00000000
00001000
00000000
00000001
00000000
00000000
00001001
00000000
00000000
00000000
;

//---------------dance-double - RGTM-EDP----------------
#NOTEDATA:;
#CHARTNAME:RGTM-EDP;
#STEPSTYPE:dance-double;
#DESCRIPTION:RGTM-EDP;
#DIFFICULTY:Hard;
#METER:15;
#CREDIT:RGTM;
#NOTES:
00000000
00000000
00000000
00000000
,
00000000
00000000
00000000
00000000
,
00000000
00000000
00000000
00000000
,
00000000
00000000
00000000
00000000
,
11000000
00000000
00010000
00100000
00000000
00001000
00010000
00000000
,
00000010
00000000
00000000
00000000
00000100
00000000
00000010
00000000
00001000
00000000
00000001
00000000
00000000
00000000
00000010
00000002
,
00000000
00000000
00000000
00000000
00000000
00000000
00000000
00000000
00000103
00000000
00000010
00000000
00000000
00000000
00010000
00002000
,
00000000
00000000
00000000
00103000
,
01100000
00000000
00000000
00000000
00000000
00000000
00000000
00000000
10000000
00010000
10000000
00010000
10000000
00010000
10000000
00010000
,
10000000
00000000
01000000
00000000
00010000
00000000
00000000
00001000
00000000
00000010
00000000
00000000
00001001
00000000
00000000
00000000
,
00000001
00000100
00001000
00010000
00000100
00000010
00001000
00000000
,
00010000
00100000
00010000
00100000
00000000
01000000
00001000
00001000
,
00010000
00100000
10000000
00010000
00100000
01000000
10000000
00000000
,
00100000
00010000
00001000
00000100
00001000
00010000
01000000
01000000
,
10000000
00100000
00010000
00001000
00100000
01000000
00010000
00000000
,
00001000
00000100
00001000
00000100
00000000
00000010
00010000
00010000
,
00001000
00000100
00000001
00001000
00000100
00000010
00000001
00000000
,
00000100
00000000
00000000
00000000
00001000
00000000
00000000
00100000
00000000
00000000
00010000
00000000
00000010
00000000
00000100
00000000
,
00001000
00000000
00000001
00000010
00000000
00001000
00000010
00000000
,
00000100
00000000
00000000
00000000
00010000
00000000
00001000
01000000
00100000
00000000
00010000
00000000
00000000
00000000
00100000
20000000
,
00000000
00000000
00000000
00000000
30010000
00000000
00010000
00000000
00100000
00000000
01000000
00000000
00000000
00000000
00010000
00002000
,
00000000
00000000
00000000
00000000
00000000
00003000
00100000
00002000
00000000
00003000
00000010
00002000
00000000
00000000
00013000
00001000
,
01000000
00010000
10000000
00100000
00000000
00010000
00100000
00000000
,
01000000
00000000
00000000
00000000
00001000
00000000
00010000
00000100
00000010
00000000
00001000
00000000
00000000
00000000
00000010
00000002
,
00000000
00000000
00000000
00000000
00001003
00000000
00000010
00001000
00000100
00000000
00000010
00000000
00000000
00000000
00001000
00020000
,
00000000
00000000
00000000
00130000
,
10000000
00000000
00000000
00110000
00000000
00001010
00000000
00000000
,
00000001
00000000
00000000
00001100
00000000
01010000
00000000
10000000
,
10000000
00000000
00000000
01001000
00000000
00010100
00000000
00000000
,
00000001
00000000
00000000
00010010
00000000
00101000
00000000
10000000
,
10000000
00000000
00000000
00000000
00010000
00000000
00110000
00000000
00000000
00001100
00000000
00000000
00000000
00000000
00000000
00000000
,
00000001
00000000
00000000
00000000
00001000
00000000
00001010
00000000
00000000
01010000
00000000
00000000
00000000
00000000
10000000
00000000
,
10000000
00000000
00000000
00000000
00010000
00000000
00101000
00000000
00000000
00010100
00000000
00000000
00000000
00000000
00000000
00000000
,
00000001
00000000
00000000
00000000
00001000
00000000
00000000
00010010
00000000
00000000
01001000
00000000
10000000
00000000
00010000
00000000
,
10000000
01000000
00000000
00010000
00001000
00000000
01000000
00100000
00000000
00001000
00000010
00000000
00010000
00000000
00000100
00000000
,
00000010
00000000
00000010
00000001
00001000
00000001
00001000
00001000
,
00000001
00000100
00000000
00001000
00010000
00000000
01000000
00000000
00000000
00000000
10000000
00000000
00100000
00000000
00000000
00000000
,
10000000
01000000
00000000
00010000
00001000
00000000
00000010
00000000
00000000
00000000
00000100
00000000
00001000
00000000
00001000
00000000
,
00000001
00000100
00000000
00001000
00010000
00000000
00000100
00000010
00000000
00010000
00100000
00000000
00001000
00000000
01000000
00000000
,
00100000
00000000
00100000
10000000
00010000
10000000
00010000
00010000
,
10000000
01000000
00000000
00010000
00001000
00000000
00000100
00000000
00000000
00000000
00000010
00000000
00000100
00000000
00000001
00000000
,
00000020
00002030
00000000
00023000
00000000
00230000
00000000
20300000
,
31000000
00010000
00001000
01000000
00100000
00010000
00001000
00000010
,
00000001
00000100
00001000
00010000
01000000
10000000
00010000
01000000
,
00100000
00010000
00001000
00100000
01000000
00010000
00001000
00000100
,
00000001
00000010
00001000
00010000
00100000
10000000
00010000
00100000
,
01000000
00010000
00000100
00000010
00001000
00100000
01000000
10000000
,
00100000
00010000
00000010
00000100
00001000
01000000
00100000
00010000
,
00000010
00001000
00000100
00100000
00010000
01000000
00100000
00010000
,
00001000
00000000
00100000
00000000
01000000
00000000
00000000
00010000
00000000
00000000
00000100
00000000
00001000
00000000
00001000
00000000
,
00000001
00000000
00000010
00000100
00010000
00000000
00000010
00000000
00001000
00000000
00100000
00000000
01000000
00000000
00010000
00000000
,
10000000
00000000
01000000
00100000
00001000
00000000
01000000
00000000
00010000
00000000
00000100
00000000
00000010
00000000
00001000
00000000
,
00000001
00000000
00000010
00000100
00010000
00000000
00001000
00000000
01000000
00000000
10000000
00000000
01000000
00000000
00100000
00000000
,
10000000
00000000
01000000
00100000
00001000
00000000
00010000
00000000
00000100
00000000
00000001
00000000
00000100
00000000
00000010
00000000
,
00000001
00000000
00000100
00000010
00010000
00000000
00000100
00000000
00000010
00001000
00010000
00000000
00100000
00000000
10000000
00000000
,
00010000
00000000
10000000
01000000
00100000
00000000
00001000
00000000
01000000
00100000
00010000
00000000
00001000
00000000
00000010
00000000
,
00000110
00000000
00000000
00000000
00000000
00000000
00000000
00000000
00000001
00001000
00000001
00001000
00000001
00001000
00000001
00001000
,
00000001
00000000
00000100
00000000
00001000
00000000
00000000
00010000
00000000
00100000
00000000
00000000
10010000
00000000
00000000
00000000
,
00010000
00000000
10000000
00100000
00000000
00010000
00100000
00000000
,
01000000
00000000
00000000
00000000
00001000
00000000
00010000
00000000
00000100
00000000
00000010
00000000
00000000
00000000
00000001
00002000
,
00000000
00000000
00003010
00000000
00000100
00001000
00000000
00010000
,
00100000
01000000
00010000
00100000
00001000
00000010
00000001
00000001
,
00001000
00000000
00000001
00000010
00000000
00001000
00000010
00000000
,
00000100
00000000
00000000
00000000
00010000
00000000
00001000
00000000
01000000
00000000
00100000
00000000
00000000
00000000
10000000
00020000
,
00000000
00000000
00130000
00000000
01000000
10000000
00100000
00000000
,
00010000
00000000
00000000
00000000
00100000
00000000
00000000
00001000
00000000
00000000
00000010
00000000
00010000
00000000
00100000
00000000
,
10000000
00000000
01000000
00010000
00000000
01000000
10000000
00000000
,
00010000
00000000
01000000
00100000
00010000
00001000
00000000
00000010
,
00000010
00000000
00000001
00000100
00010000
00001000
00000010
00000000
,
00010000
00000000
00001000
00100000
10000000
00010000
01000000
01000000
,
10000000
00000000
00100000
00010000
00000000
00100000
10000000
00000000
,
01000000
00100000
01000000
00100000
00000000
00001000
00010000
00001000
,
00000010
00000000
00000001
00000100
00010000
01000000
00100000
00000000
,
10000000
00000000
01000000
00000000
00010000
00000000
00000000
00001000
00000000
00000010
00000000
00000000
00001001
00000000
00000000
00000000
;
