#TITLE:生きてこそ~特別版~;
#ARTIST:あさき;
#TITLETRANSLIT:Ikitekoso ~tokubetsuban~;
#ARTISTTRANSLIT:Asaki;
#BANNER:Ikitekoso ~tokubetsuban~.png;
#BACKGROUND:Ikitekoso ~tokubetsuban~-bg.png;
#MUSIC:Ikitekoso ~tokubetsuban~.ogg;
#OFFSET:1.58;
#SAMPLESTART:92.672;
#SAMPLELENGTH:15;
#BPMS:0=127;

//---------------dance-single - Marten-ESP----------------
#NOTES:
     dance-single:
     Marten:
     Hard:
     13:
     0.485211,0.611590,0.209474,0.254362,0.295508,454,426,28,34,0,0,0.485211,0.611590,0.209474,0.254362,0.295508,454,426,28,34,0,0:
// measure 0
0000
0000
0000
0000
,  // measure 1
0000
0000
0000
0000
,  // measure 2
0000
0000
0000
0000
,  // measure 3
0000
0000
0000
0000
,  // measure 4
0000
0000
0000
0000
,  // measure 5
1000
0000
0000
0000
0010
0000
1000
0000
0001
0010
0000
0001
0100
0000
0010
0000
,  // measure 6
0100
0000
0000
0000
0001
0000
0010
0000
0100
1000
0000
0001
1000
0000
0010
0000
,  // measure 7
0100
0000
0000
0000
0010
0000
1000
0000
0100
1000
0000
0001
0100
0000
0010
0000
,  // measure 8
1000
0000
0000
0000
0100
0000
0010
0000
0001
1000
0000
0100
1000
0000
0001
0000
,  // measure 9
0100
0000
0000
0001
0010
0000
1000
0000
0010
0000
0000
0001
0100
0000
1000
0000
,  // measure 10
0100
0000
0000
0001
0010
0000
0100
0000
0001
0000
0000
1000
0010
0000
0100
0000
,  // measure 11
1000
0000
0000
1000
0010
0000
0001
0000
0010
0000
0000
1000
0100
0000
0001
0000
,  // measure 12
0100
0000
0000
1000
0010
0000
0100
0000
1000
0000
0000
0001
0010
0000
0100
0000
,  // measure 13
0002
0000
0000
0000
,  // measure 14
0000
0000
0000
0000
1003
1000
1000
1000
,  // measure 15
0100
0000
0000
1000
0000
0000
0020
0000
0100
0000
0000
0000
1030
0000
0000
0000
,  // measure 16
0100
0000
0000
0001
0000
0000
0020
0000
0100
0000
0000
0000
0031
0000
0000
0000
,  // measure 17
0020
0000
0000
0032
0000
0000
2003
0000
3020
0000
0000
0230
0000
0000
0302
0000
,  // measure 18
2003
0000
0000
3200
0000
0000
0302
0000
0203
0000
0000
0320
0000
0000
0000
0000
,  // measure 19
0031
0000
0000
1000
0010
0000
0100
0000
0101
0000
0000
0000
1001
0000
0000
0000
,  // measure 20
0100
0000
0000
1000
0001
0000
0010
0000
0110
0000
0000
0000
1001
0000
0000
0000
,  // measure 21
0100
0000
0000
1000
0010
0000
0100
0000
0110
0000
0000
0010
0100
0000
0001
0000
,  // measure 22
1001
0000
0000
1000
0100
0000
0010
0000
0021
0000
0000
0000
0230
0000
0000
0000
,  // measure 23
1300
0000
0100
0000
1000
0000
0010
0000
0100
0000
0010
0000
1000
0000
0001
0010
,  // measure 24
0001
0000
0100
0000
0010
0000
0100
0000
0001
0000
1000
0100
1000
0000
0001
0100
,  // measure 25
0001
0000
0100
0000
0010
0000
0001
0010
0001
0000
1000
0000
0100
0010
0100
0000
,  // measure 26
0110
1010
1001
0011
,  // measure 27
2000
0000
0000
0000
0000
0000
3010
1000
0001
0000
0010
0000
0100
0000
1000
0000
,  // measure 28
0001
1000
0001
0010
0001
0000
0000
0000
1000
0000
0100
0000
0001
0000
0100
0000
,  // measure 29
1000
0001
0100
0000
0000
0000
0010
0000
0100
0000
0001
0000
0010
0000
1000
0000
,  // measure 30
0010
0001
1000
0100
0001
0100
1000
0010
,  // measure 31
0100
1000
0100
0010
1000
0001
0010
0100
,  // measure 32
0001
0000
0100
0000
0010
0000
0001
0000
0100
0000
0010
0000
0001
0000
0010
1000
,  // measure 33
0001
1000
0100
0000
0010
0001
1000
0000
0010
1000
0100
0000
0010
0000
0001
0000
,  // measure 34
0010
1000
0010
0100
1000
0010
0001
0010
,  // measure 35
0100
0000
0010
0000
1000
0000
0001
0000
1000
0100
1000
0000
0001
0000
2000
0000
,  // measure 36
0010
0000
3002
0000
0100
0000
2003
0000
0100
0000
3001
0000
0010
0100
1000
0000
,  // measure 37
0001
0000
1000
0010
0100
0010
1000
0000
0001
0000
0010
0000
0010
0000
0010
0000
,  // measure 38
0000
1002
0000
0000
0103
0001
1000
0100
,  // measure 39
0010
1000
0010
0000
0001
0000
1000
0000
0010
0000
0200
0000
0000
0310
1000
0000
,  // measure 40
0001
1000
1001
0001
0100
1000
0100
0010
,  // measure 41
0100
1000
0100
0000
0001
0000
1000
0100
0000
0010
0001
0000
0100
0010
0000
1000
,  // measure 42
0001
0000
0010
0000
0000
0001
0000
0000
1001
0000
0100
0000
0000
1000
0000
0000
,  // measure 43
1010
0000
0100
0000
0000
0001
0000
0000
0011
0000
0100
0000
0000
1000
0000
0010
,  // measure 44
0000
0010
0100
0000
0000
0001
1000
0000
0000
0100
1000
0010
0000
0100
0001
1000
,  // measure 45
0001
0000
0010
0000
0001
1000
0010
0000
0100
0000
0010
1000
0010
1000
0001
1000
,  // measure 46
0001
1000
0200
0000
0000
0000
0000
0000
0000
0000
0310
0000
0000
0000
0001
0000
,  // measure 47
0000
1001
0000
1010
0000
0011
0000
1100
,  // measure 48
0000
0102
0000
0000
0000
2003
0000
0000
,  // measure 49
0000
3020
0000
0000
0000
0230
0000
0301
,  // measure 50
1000
0000
0001
0000
0000
0010
0000
0000
0100
0000
1000
0000
0010
0000
0001
0000
,  // measure 51
0010
0000
0100
0000
0000
0001
0000
0000
1000
0000
0100
0000
0000
0000
0010
0000
,  // measure 52
0001
0000
1000
0000
0000
0100
0000
0000
1000
0000
0010
0000
0001
0000
0010
0000
,  // measure 53
0100
0000
0001
0000
0000
0010
0000
0000
1000
0000
0000
0000
0010
0000
0001
0000
,  // measure 54
1000
0000
0100
0000
0000
0001
0000
0000
0100
0000
1000
0000
0010
0000
0100
0000
,  // measure 55
0010
1000
0000
0001
0010
0000
0001
0100
,  // measure 56
0010
0000
0100
0000
0000
0001
0000
0000
1000
0000
0000
0000
0100
0000
0010
0000
,  // measure 57
0001
1001
0000
0011
0000
1100
0000
1000
,  // measure 58
0010
0000
1000
0000
0000
0001
0000
0000
0100
0000
0000
0000
0010
0000
0001
0000
,  // measure 59
0010
1000
0001
0010
0100
0000
0001
0100
,  // measure 60
1000
0000
0001
0000
0000
0100
0000
0000
0010
0000
0000
0000
0001
0000
0010
0000
,  // measure 61
2000
0000
0001
0000
0000
0000
0000
0000
3100
0001
0100
0000
0000
0000
1000
0000
,  // measure 62
0010
0000
0100
0000
0000
0001
0000
0000
0020
0000
1000
0000
0000
0000
0001
0000
,  // measure 63
0000
0130
0000
2000
0000
3020
0000
0230
,  // measure 64
0000
0302
0000
1003
0000
1100
0000
0101
,  // measure 65
0000
0000
1001
0000
0000
0000
0001
0000
0010
0000
0100
1000
0001
1000
0010
0000
,  // measure 66
0100
0102
0000
0000
0000
0000
0000
0000
,  // measure 67
0000
0000
0000
0000
,  // measure 68
0000
0003
0000
0000
0000
0000
0000
0000
;

//---------------dance-single - Marten-DSP----------------
#NOTES:
     dance-single:
     Marten:
     Medium:
     9:
     0.363374,0.407727,0.164587,0.246880,0.142143,340,318,22,33,0,0,0.363374,0.407727,0.164587,0.246880,0.142143,340,318,22,33,0,0:
0000
0000
0000
0000
,
0000
0000
0000
0000
,
0000
0000
0000
0000
,
0000
0000
0000
0000
,
0000
0000
0000
0000
,
0001
0000
0000
0000
0100
0000
0010
0000
0100
0000
0000
0001
0000
0000
1000
0000
,
0100
0000
0000
0000
0010
0000
0001
0000
0010
0000
0000
0100
0000
0000
1000
0000
,
0001
0000
0000
0000
1000
0000
0100
0000
1000
0000
0000
0010
0000
0000
0100
0000
,
0001
0000
1000
0100
0010
0000
1001
0000
,
0001
0000
0000
0001
0000
0000
1000
0000
0100
0000
0000
0100
0000
0000
0010
0000
,
0001
0000
0000
0001
0000
0000
1000
0000
0010
0000
0000
0100
0000
0000
0010
0000
,
1000
0000
0000
1000
0000
0000
0001
0000
0100
0000
0000
0100
0000
0000
0010
0000
,
1000
0000
0000
1000
0000
0000
0001
0000
0010
0000
0000
0100
0000
0000
0010
0000
,
0002
0000
0000
0000
,
0000
0000
0000
0000
1003
0001
1000
0001
,
1000
0000
0000
0100
0000
0000
0020
0000
0001
0000
0000
0000
0031
0000
0000
0000
,
0001
0000
0000
0100
0000
0000
0020
0000
1000
0000
0000
0000
1030
0000
0000
0000
,
0100
0000
0000
1000
0000
0000
0001
0000
0100
0000
0000
0001
0000
0000
0010
0000
,
0100
0000
0000
0010
0000
0000
0100
0000
1000
0000
0000
0001
0000
0000
0000
0000
,
1001
0000
0000
0001
0000
0000
0020
0000
0100
0000
0000
0000
0130
0000
0000
0000
,
1001
0000
0000
1000
0000
0000
0020
0000
0100
0000
0000
0000
0130
0000
0000
0000
,
0001
0000
0000
0010
0000
0000
0001
0000
1000
0000
0000
0010
0000
0000
1000
0000
,
0001
0000
0000
0010
0000
0000
0100
0000
2000
0000
0000
0000
3002
0000
0000
0000
,
2003
0100
3020
0230
,
0301
1000
0001
0100
0002
0000
0023
0000
,
0230
1000
0010
1300
,
1100
0101
1010
0011
,
0002
0000
0000
0000
1003
0100
0010
0100
,
1000
0010
0010
0000
0100
0001
1000
0000
,
0001
0001
0000
1010
0000
0100
0010
1000
,
0000
0001
0010
0100
0000
1000
0001
0100
,
0000
0010
0100
0002
0000
2003
0000
3200
,
0000
0310
0001
1000
0001
1000
1000
0010
,
0000
1001
0000
0110
0000
1001
0000
0001
,
0100
0010
0000
1000
0001
0010
0000
0001
,
0100
0010
0000
1000
0001
1000
0000
0200
,
0000
2300
0000
3002
0000
0103
0010
0100
,
0001
1000
0000
0001
0000
0010
0010
0010
,
0000
0210
0000
0000
0000
1000
0000
0310
,
0001
0001
0000
0100
0000
0010
0000
1000
,
0001
1000
1000
0010
0000
0100
0010
0100
,
0000
0000
0001
0000
1000
0000
0000
1000
0000
0000
0001
0000
0000
0001
0000
0000
,
0100
0000
0110
0000
0000
0010
0000
0000
1000
0000
0001
0000
0000
0001
0000
0000
,
0010
0000
0100
0000
0000
0100
0000
0000
1000
0000
0001
0000
0000
0100
0000
0100
,
0000
0001
0000
1000
0100
1000
0000
0010
,
1000
0001
0000
0010
1000
0000
0010
0001
,
0000
2001
0000
0000
0000
0010
0000
0000
,
0000
3001
0000
0101
0000
1001
0000
1010
,
0000
0210
0000
0010
0000
0302
0000
0010
,
0000
2003
0000
0100
0000
3020
0000
1030
,
0100
0000
0010
0000
0000
0001
0000
0000
1000
0000
0000
0000
0010
0000
1000
0000
,
0010
0000
0100
0000
0000
0001
0000
0000
1000
0000
0000
0000
0000
0000
0100
0000
,
1000
0000
0100
0000
0000
0010
0000
0000
0001
0000
0000
0000
0100
0000
0001
0000
,
0000
0000
1000
0000
0000
0010
0000
0000
0110
0000
0000
0000
0100
0000
0010
0000
,
0000
0000
1000
0000
0000
1000
0000
0000
0000
0000
0001
0000
0010
0000
0001
0000
,
0000
0010
0000
0001
1000
0000
0010
0100
,
0010
0000
1000
0000
0000
1000
0000
0000
0001
0000
0000
0000
0010
0000
0001
0000
,
0000
0100
0000
0100
0010
0000
1000
0010
,
0000
0000
0210
0000
0000
0001
0000
0000
0301
0000
0000
0000
0001
0000
0000
0000
,
0020
0100
0000
0001
0031
0000
1000
0010
,
0010
0000
1000
0000
0000
0001
0000
0000
0010
0000
0000
0000
0100
0000
0000
0000
,
2000
0001
0000
3001
0010
0100
0000
1000
,
0010
0000
1000
0000
0000
0001
0000
0000
0020
0000
0001
0000
0000
0000
1000
0000
,
0000
0130
0000
1000
0000
0010
0000
0100
,
0000
0102
0000
1003
0100
2000
0000
3001
,
0010
0001
0000
0100
0000
0010
1000
0001
,
0000
2001
0000
0000
0000
0000
0000
0000
,
0000
0000
0000
0000
,
0000
3000
0000
0000
0000
0000
0000
0000
;

//---------------dance-single - Marten-BSP----------------
#NOTES:
     dance-single:
     Marten:
     Easy:
     6:
     0.243674,0.305795,0.127181,0.261843,0,228,211,17,35,0,0,0.243674,0.305795,0.127181,0.261843,0,228,211,17,35,0,0:
0000
0000
0000
0000
,
0000
0000
0000
0000
,
0000
0000
0000
0000
,
0000
0000
0000
0000
,
0000
0000
0000
0000
,
1000
0000
0001
0010
,
0001
0000
1000
0100
,
1000
0000
0010
0100
,
0010
0000
1000
0001
,
1001
0001
0100
0100
,
0010
0010
1000
0100
,
1000
1000
0100
0100
,
0010
0010
0001
1000
,
0002
0000
0000
0000
,
0000
0003
1001
1001
,
2000
0010
0100
3100
,
0002
0010
1000
1003
,
0200
0010
0001
0001
,
0010
0010
0301
0000
,
0002
0010
1000
1003
,
2000
0100
0001
3001
,
0100
0010
1000
1000
,
0001
0010
0200
0320
,
0032
0000
2003
3002
,
0103
0010
1001
0110
,
1000
1000
0001
0001
,
0011
0010
0001
1000
,
2001
0000
3010
0100
,
0001
0001
1000
0001
,
0010
0010
0000
0001
0000
1000
0000
1000
,
0000
0010
0000
0100
0000
0010
0000
0010
,
0000
0000
0000
2000
0000
3020
0000
0230
,
0000
0301
0000
1000
0000
0100
0000
0100
,
0000
0110
0000
1001
0000
0001
0000
0100
,
0000
0010
0000
0010
0000
1000
0000
0001
,
0000
0010
0000
0010
0000
0100
0000
0020
,
0000
0032
0000
2003
0000
3010
0000
0010
,
0000
0100
0000
0100
0000
1001
0000
1001
,
0000
0002
0000
0000
0000
0000
0000
0000
,
1000
1003
0000
0100
0000
1000
0000
0001
,
0000
1000
1000
0000
0000
0010
0000
0100
,
0000
0010
0020
0000
0000
0200
0000
0330
,
0000
0001
0000
0000
0000
1000
0000
0000
,
0000
0100
0000
0000
0000
0010
0000
0010
,
0000
0100
0000
0000
0000
1000
0000
0000
,
0000
0010
0000
0100
0000
0100
0000
0001
,
0000
2000
0000
0000
0000
0100
0000
3000
,
0000
0001
0000
1001
0000
0011
0000
0110
,
0000
2100
0000
0000
0000
3020
0000
0000
,
0000
0230
0000
0000
0000
0302
0000
1003
,
0000
0001
0000
0010
0000
0010
0000
0001
,
0000
1000
0000
0100
0000
0000
0000
1000
,
0000
0100
0000
1000
0000
0010
0000
0100
,
0000
0010
0000
0010
0000
1000
0000
0001
,
0000
2000
0000
0000
0000
3001
0000
0010
,
0000
0100
0000
0000
0000
0010
0000
0000
,
0000
0001
0000
1000
0000
0010
0000
0010
,
0000
0100
0000
0010
0000
0110
0000
0000
,
0000
1000
0000
0010
0000
0100
0000
0100
,
0000
0001
0000
1000
0000
0001
0000
0000
,
0000
0001
0000
0010
0000
0100
0000
0010
,
0000
0002
0000
0000
0000
2003
0000
0000
,
0000
3010
0000
0100
0000
0002
0000
0000
,
0000
1003
0000
0200
0000
0320
0000
0032
,
0000
2003
0000
0010
0000
0010
0000
3010
,
0000
0100
0000
0010
0000
1000
0000
0001
,
0000
1002
0000
0000
0000
0000
0000
0000
,
0000
0000
0000
0000
,
0000
0003
0000
0000
0000
0000
0000
0000
;

//---------------dance-single - Marten-bSP----------------
#NOTES:
     dance-single:
     Marten:
     Beginner:
     3:
     0.138937,0.178380,0.037406,0.104737,0,130,125,5,14,0,0,0.138937,0.178380,0.037406,0.104737,0,130,125,5,14,0,0:
0000
0000
0000
0000
,
0000
0000
0000
0000
,
0000
0000
0000
0000
,
0000
0000
0000
0000
,
0000
0000
0000
0000
,
0001
0000
0000
0000
,
1000
0000
0001
0000
,
0100
0000
0000
0000
,
0010
0000
1000
0000
,
0001
0000
0001
0000
,
1000
0000
1000
0000
,
0100
0000
0010
0000
,
0001
0000
1000
0000
,
2002
0000
0000
0000
,
0000
0000
3003
0000
,
0001
0000
0001
0000
,
1000
0000
1000
0000
,
0010
0000
0100
0000
,
0001
0000
1000
0000
,
0001
0001
0001
0000
,
1000
1000
1000
0000
,
0100
0000
0010
0000
,
0001
0000
1000
1000
,
2000
3000
0010
0000
,
0100
0000
0001
0001
,
0001
0000
0010
0000
,
0100
0000
0020
0030
,
0001
0000
1000
0000
,
0010
0000
0010
0000
,
0000
0100
0000
0000
0000
0001
0000
0000
,
0000
1000
0000
0000
0000
0001
0000
0000
,
0000
0000
0000
0010
0000
0010
0000
0010
,
0000
0000
0000
0100
0000
0000
0000
0010
,
0000
0010
0000
0000
0000
1001
0000
0000
,
0000
0001
0000
0000
0000
1000
0000
0000
,
0000
0010
0000
0000
0000
0000
0000
0100
,
0000
0100
0000
0100
0000
0000
0000
0010
,
0000
0000
0000
1000
0000
1000
0000
0000
,
0000
2002
0000
0000
0000
0000
0000
3003
,
0000
0100
0000
0000
0000
0010
0000
0000
,
0000
0100
0000
0000
0000
1000
0000
0000
,
0000
0002
0000
0000
0000
0000
0000
0003
,
0000
0100
0000
0000
0000
0100
0000
0000
,
0000
0100
0000
0000
0000
0010
0000
0010
,
0000
0100
0000
0000
0000
0001
0000
0000
,
0000
1000
0000
0000
0000
0100
0000
0000
,
0000
0020
0000
0000
0000
0000
0000
0030
,
0000
0000
0000
0001
0000
0001
0000
0001
,
0000
2000
0000
3000
0000
0020
0000
0030
,
0000
0200
0000
0300
0000
0002
0000
0003
,
0000
1000
0000
0000
0000
0001
0000
0000
,
0000
0010
0000
0010
0000
0000
0000
0000
,
0000
0100
0000
0000
0000
1000
0000
0000
,
0000
0010
0000
0010
0000
0010
0000
0000
,
0000
0100
0000
0000
0000
0001
0000
0000
,
0000
1000
0000
0000
0000
0100
0000
0000
,
0000
0010
0000
0000
0000
0001
0000
0000
,
0000
1001
0000
0000
0000
0000
0000
0000
,
0000
0010
0000
0000
0000
1000
0000
0000
,
0000
0001
0000
0000
0000
0100
0000
0000
,
0000
0001
0000
0000
0000
0010
0000
0000
,
0000
0100
0000
0100
0000
0100
0000
0000
,
0000
1000
0000
0000
0000
0020
0000
0000
,
0000
0030
0000
0100
0000
0100
0000
0100
,
0000
0100
0000
0000
0000
0001
0000
0000
,
0000
1000
0000
0000
0000
0001
0000
0000
,
0000
2001
0000
0000
0000
0000
0000
0000
,
0000
0000
0000
0000
,
0000
3000
0000
0000
0000
0000
0000
0000
;

//---------------dance-double - NewbStepper-EDP----------------
#NOTES:
     dance-double:
     NewbStepper:
     Hard:
     13:
     0.487348,0.611590,0.164587,0.239399,0.370320,456,434,22,32,0,0,0.487348,0.611590,0.164587,0.239399,0.370320,456,434,22,32,0,0:
00000000
00000000
00000000
00000000
,
00000000
00000000
00000000
00000000
,
00000000
00000000
00000000
00000000
,
00000000
00000000
00000000
00000000
,
00000000
00000000
00000000
00000000
,
10000000
00000000
00000000
00000000
00100000
00000000
10000000
00000000
00010000
00000000
00000000
00100000
00000000
00000000
01000000
00000000
,
00010000
00000000
00001000
00000000
00100000
00010000
00001000
00000000
,
00000001
00000000
00000000
00000000
00000010
00000000
00000001
00000000
00001000
00000000
00000000
00000010
00000000
00000000
00000100
00000000
,
00001000
00000000
00000000
00000000
00010000
00000000
01000000
00000000
10000000
00010000
00000000
10000000
00010000
00000000
00000000
00000000
,
00100000
00000000
00000000
00001000
00010000
00000000
01000000
00000000
00100000
00000000
00000000
00101000
00000000
00000000
00011000
00000000
,
00000010
00000000
00000000
00010000
00001000
00000000
00000100
00000000
00000010
00001000
00000000
00000010
00001000
00000000
00000001
00000000
,
00000010
00000000
00000000
00000010
00000001
00000000
00000100
00000000
00001000
00000000
00000000
00001000
00010000
00000000
01000000
00000000
,
10000000
00000000
00000000
10000000
00100000
00000000
01000000
00000000
00010000
00000000
00001000
00000000
00000010
00000000
00000000
00000000
,
00002001
00000000
00000000
00000000
,
00000000
00000000
00000000
00000000
00003001
00000001
00000001
00000001
,
00000100
00000000
00000000
00001000
00000000
00000000
00020000
00000000
00000010
00000000
00000000
00000000
00031000
00000000
00000000
00000000
,
00200000
00000000
00000000
00320000
00000000
00000000
10030000
00000000
00100000
00000000
00010000
00000000
00001000
00000000
00100000
00000000
,
02000000
00000000
00000000
03020000
00000000
00000000
00032000
00000000
00003200
00000000
00000000
00002300
00000000
00000000
00013000
00000000
,
00100000
00010000
00001000
00000010
00000001
00000100
00001000
00100000
,
01000000
00000000
00000000
00010000
00000000
00000000
00002000
00000000
00100000
00000000
00000000
00000000
00013000
00000000
00000000
00000000
,
00000020
00000000
00000000
00002030
00000000
00000000
00003001
00000000
00000010
00000000
00001000
00000000
00010000
00000000
00000010
00000000
,
00000200
00000000
00000000
00002300
00000000
00000000
00023000
00000000
02030000
00000000
03000000
00020000
00000000
00000000
00031000
00000000
,
00000010
00000000
00001000
00000000
00010000
00000000
00100000
00000000
10000000
00000000
00010000
01000000
00010000
00000000
00000000
00000000
,
10000000
00000000
01000000
00000000
10000000
00000000
00010000
00000000
01000000
00000000
00100000
00000000
01000000
00000000
00001000
00010000
,
00001000
00000000
00100000
00000000
01000000
00000000
00100000
00000000
00001000
00000000
00010000
00001000
00010000
00000000
00000010
00000100
,
00000010
00000000
00001000
00000000
00000001
00000000
00000100
00000000
00001000
00000000
00010000
00000000
01000000
00100000
01000000
00000000
,
01100000
00000000
00000000
00000000
10010000
00000000
00000000
00000000
10100000
00000000
00100000
01000000
00100000
01000000
00010000
00000000
,
00200000
00000000
00302000
00000000
,
00003010
00000000
00000001
00000100
00000001
00000000
00000000
00000000
00001000
00000000
00000100
00000000
00000001
00000000
00000100
00000000
,
00001000
00000001
00000100
00000000
00000000
00000000
00001000
00000000
00010000
00000000
00100000
00000000
10000000
00000000
00100000
00000000
,
00010000
00001000
01000000
10000000
01000000
00010000
00001000
00000010
,
00000100
00001000
00010000
01000000
00100000
00010000
00001000
00000100
,
00000001
00000000
00000100
00000000
00001000
00000010
00001000
00000000
00000001
00000000
00000100
00000000
00001000
00000000
00010000
00001000
,
00100000
00001000
00010000
00000000
00001000
00100000
00010000
00000000
01000000
00100000
10000000
00000000
00010000
00000000
01000000
00000000
,
10000000
00000000
01000000
00000000
00010000
00100000
00010000
00000000
00001000
00000000
00000010
00000000
00000100
00000000
00001000
00000000
,
00010000
01000000
00100000
00001000
00000000
00011000
00010000
00100000
,
00010000
00000000
00001000
00000000
00000010
00000000
00001000
00010000
00001000
00000000
00100000
00000000
00010000
01000000
00100000
00000000
,
10000000
00000000
00010000
00100000
01000000
00100000
00010000
00000000
00001000
00000000
00000100
00000000
00000010
00000001
00001000
00000000
,
00000000
00002010
00000000
00000000
00000000
00000001
00000000
00000100
,
00000000
00023000
00000000
00100000
00000000
10000000
00000000
01030000
,
00000000
00010000
10010000
10000000
01000000
00010000
00001000
00000100
,
00000001
00000010
00000001
00000000
00000101
00000000
00000000
00001100
00000000
00000000
00001010
00000000
00000000
00000011
00000000
00000000
,
00000001
00000100
00001000
00000000
00000000
00011000
00000000
00000000
01000000
00100000
10000000
00000000
00000000
00100000
10000000
00000000
,
01000000
00000000
11000000
00000000
00000000
10100000
00000000
00000000
00100000
01000000
00100000
01000000
00000000
00001000
00000000
00001000
,
00000000
00010000
00001000
00000000
00000000
00010000
00100000
00000000
00000000
01000000
00010000
00100000
00000000
00001000
00010000
00000010
,
00010000
00000000
00001000
00000000
00000010
00000100
00001000
00000000
00000010
00000000
00010000
00001000
00010000
00001000
00010000
00000100
,
00010000
00000100
00002000
00000000
00000000
00000000
00000000
00000000
00000000
00000000
00000001
00000000
00000000
00000000
00000100
00000000
,
00000000
00023000
00000000
01000000
00000000
10000000
00000000
00100000
,
00000000
00032000
00000000
00000000
00000000
00003002
00000000
00000000
,
00000000
00000023
00000000
00000000
00000000
00002030
00000000
00013000
,
00001000
00000000
00010000
00000000
00000000
00010000
00001000
00000000
00000000
00001000
00000010
00000000
00000000
00000010
00000001
00000000
,
00000000
00000001
00000100
00000000
00000000
00000100
00001000
00000000
00000000
00001000
00010000
00000000
00000000
00010000
01000000
00000000
,
00000000
01000000
10000000
00000000
00000000
10000000
00010000
00000000
00000000
00010000
00100000
00000000
00000000
00100000
00001000
00000000
,
00000000
00001000
00010000
00000000
00000000
00010000
00100000
00000000
00000000
00100000
00010000
00000000
00000000
00010000
00001000
00000000
,
00000010
00000000
00000100
00000000
00010000
00001000
00010000
00000000
01000000
00000000
00100000
00000000
00001000
00010000
00001000
00000000
,
00000100
00000010
00001000
00000001
00000010
00001000
00010000
00100000
,
10000000
00000000
01000000
00000000
00000000
00010000
00000000
00000000
00001000
00000000
00000000
00000000
00100000
00000000
00010000
00000000
,
00001000
00000100
00000010
00000001
00000100
00001000
00000000
00011000
,
00000000
00000000
00001000
00000000
00000000
00001000
00010000
00000000
00000000
00010000
00100000
00000000
00000000
00100000
10000000
00000000
,
00000000
10000000
01000000
00000000
00000000
01000000
00010000
00000000
00000000
00010000
00001000
00000000
00000000
00001000
00000100
00000000
,
00000000
00000100
00000001
00000000
00000000
00000001
00001000
00000000
00000000
00001000
00000010
00000000
00000000
00000010
00010000
00000000
,
00000000
00010000
00002000
00000000
00000000
00000000
00003000
00000000
00100000
01000000
10000000
00000000
00100000
01000000
00010000
00000000
,
10000000
01000000
00020000
00000000
00000000
00000000
00000100
00000000
00000000
00000000
01000000
00000000
00000000
00000000
00000100
00000000
,
00000000
00032000
00000000
00000100
00000000
01000000
00000000
00003100
,
00000000
00000110
00000000
00001001
00000000
00011000
00000000
10010000
,
00000000
00000000
00001000
00000000
00010000
00000100
00010000
00000000
00001000
00000000
00100000
00010000
00100000
00010000
10000000
00000000
,
00000000
20020000
00000000
00000000
00000000
00000000
00000000
00000000
,
00000000
00000000
00000000
00000000
,
00000000
30030000
00000000
00000000
00000000
00000000
00000000
00000000
;

//---------------dance-double - NewbStepper-DDP----------------
#NOTES:
     dance-double:
     NewbStepper:
     Medium:
     9:
     0.355892,0.407727,0.187031,0.164587,0.097256,333,308,25,22,0,0,0.355892,0.407727,0.187031,0.164587,0.097256,333,308,25,22,0,0:
00000000
00000000
00000000
00000000
,
00000000
00000000
00000000
00000000
,
00000000
00000000
00000000
00000000
,
00000000
00000000
00000000
00000000
,
00000000
00000000
00000000
00000000
,
00100000
00000000
00001000
00010000
00001000
00000000
00000100
00000000
,
00000010
00000000
00010000
00001000
00010000
00000000
01000000
00000000
,
00100000
00000000
00001000
00010000
00001000
00000000
00000100
00000000
,
00000010
00000000
00010000
00001000
00010000
00000000
01000000
00000000
,
00100000
00000000
10000000
01000000
00010000
00000000
00001000
00100000
,
00010000
00000000
00000000
00010000
00000000
00000000
00001000
00000000
00000100
00000000
00000000
00000000
00000110
00000000
00000000
00000000
,
00000010
00000000
00000001
00000100
00001000
00000000
00010000
00000010
,
00001000
00000000
00000000
00001000
00000000
00000000
00010000
00000000
01000000
00000000
00000000
00000000
01100000
00000000
00000000
00000000
,
10020000
00000000
00000000
00000000
,
00000000
00000000
00000000
00000000
10030000
00010000
10000000
00010000
,
10000000
00000000
00000000
01000000
00000000
00000000
00010000
00000000
00001000
00000000
00000000
00000000
00000010
00000000
00000000
00000000
,
00000001
00000000
00000000
00000100
00000000
00000000
00001000
00000000
00010000
00000000
00000000
00000000
00100000
00000000
00000000
00000000
,
10000000
00000000
00000000
00010000
00000000
00000000
00100000
00000000
00001000
00000000
00000000
00010000
00000000
00000000
00000100
00000000
,
00000010
00000110
00001001
00000110
,
00000001
00000000
00000000
00000100
00000000
00000000
00001000
00000000
00010000
00000000
00000000
00000000
00100000
00000000
00000000
00000000
,
10000000
00000000
00000000
01000000
00000000
00000000
00010000
00000000
00001000
00000000
00000000
00000000
00000010
00000000
00000000
00000000
,
00000001
00000000
00000000
00001000
00000000
00000000
00000010
00000000
00010000
00000000
00000000
00001000
00000000
00000000
01000000
00000000
,
00100000
01100000
10010000
01100000
,
00020000
01000000
10000000
00100000
,
00032000
00000100
00000001
00000010
,
00023000
01000000
10000000
00100000
,
00032000
00000100
00000001
00000010
,
00023000
00000000
20030000
00000000
,
30010000
00100000
01000000
00000000
00010000
00001000
00000010
00000000
,
00000001
00000001
00000000
00001010
00000000
00000100
00000001
00001000
,
00000000
00000001
00000010
00001000
00000000
00010000
00000100
00001000
,
00000000
00000010
00000100
00001000
00000000
00010000
00001000
01000000
,
00000000
00010000
00100000
10000000
00100000
00010000
01000000
00010000
,
00000000
01100000
00000000
10010000
00000000
01100000
00000000
10010000
,
00000000
10000000
00100000
00010000
00000000
00001000
01000000
00010000
,
00000000
00100000
01000000
00010000
00000000
00001000
00010000
00000200
,
00000000
00002300
00000000
00003002
00000000
00001003
00000010
00000001
,
00000000
00000001
00000010
00001000
00000000
00000001
00000100
00001000
,
00000000
00012000
00000000
00000000
00000000
00000100
00000000
01003000
,
00010000
00010000
00000000
10000000
00000000
00100000
00000000
01000000
,
00001000
00010000
00010000
00001000
00000000
00000010
00000100
00000010
,
00000000
00000000
00001000
00000000
00010000
00000000
00000000
00010000
00000000
00000000
00001000
00000000
00000000
00001000
00000000
00000000
,
01000000
00000000
01100000
00000000
00000000
00100000
00000000
00000000
10000000
00000000
00010000
00000000
00000000
00010000
00000000
00000000
,
00100000
00000000
01000000
00000000
00000000
01000000
00000000
00000000
00010000
00000000
00001000
00000000
00000000
00000010
00000000
00000010
,
00000000
00000100
00000000
00000001
00000100
00000001
00000000
00000010
,
00000001
00001000
00000000
00000010
00000100
00000000
00001000
00010000
,
00000000
00012000
00000000
00000000
00000000
00100000
00000000
00000000
,
00000000
00013000
00000000
00011000
00000000
01010000
00000000
11000000
,
00000000
02100000
00000000
10000000
00000000
03200000
00000000
00010000
,
00000000
00001000
00000000
00320000
00000000
00130000
00001000
00010000
,
00000000
00000000
00100000
00000000
00000000
10000000
00000000
00000000
00010000
00000000
00000000
00000000
00100000
00000000
01000000
00000000
,
00010000
00000000
00001000
00000000
00000000
00000100
00000000
00000000
00000010
00000000
00000000
00000000
00000000
00000000
00000100
00000000
,
00000001
00000000
00000100
00000000
00000000
00000010
00000000
00000000
00001000
00000000
00000000
00000000
00010000
00000000
01000000
00000000
,
00010000
00000000
10000000
00000000
00000000
00100000
00000000
00000000
01100000
00000000
00000000
00000000
10000000
00000000
00010000
00000000
,
00000000
00000000
01000000
00000000
00000000
01000000
00000000
00000000
00000000
00000000
00001000
00000000
00010000
00000000
00001000
00000000
,
00000000
00000010
00000000
00000001
00001000
00000000
00000010
00001000
,
00000010
00000000
00010000
00000000
00000000
00010000
00000000
00000000
00001000
00000000
00000000
00000000
00100000
00000000
00010000
00000000
,
00000000
01000000
00000000
01000000
00100000
00000000
10000000
00100000
,
00000000
00000000
02100000
00000000
00000000
00001000
00000000
00000000
03001000
00000000
00000000
00000000
00010000
00000000
00000000
00000000
,
00000020
00000100
00000000
00001000
00001030
00000000
00000001
00000010
,
00000010
00000000
00001000
00000000
00000000
00010000
00000000
00000000
00100000
00000000
00000000
00000000
10000000
00000000
00000000
00000000
,
00020000
10000000
00000000
10030000
00100000
00010000
00000000
00001000
,
00100000
00000000
00001000
00000000
00000000
00010000
00000000
00000000
00000020
00000000
00001000
00000000
00000000
00000000
00000001
00000000
,
00000000
00000130
00000000
00001000
00000000
00010000
00000000
01000000
,
00000000
21000000
00000000
30010000
01000000
00020000
00000000
00130000
,
00001000
00100000
00000000
00010000
00000000
01000000
00001000
00010000
,
00000000
00012000
00000000
00000000
00000000
00000000
00000000
00000000
,
00000000
00000000
00000000
00000000
,
00000000
00003000
00000000
00000000
00000000
00000000
00000000
00000000
;

//---------------dance-double - NewbStepper-BDP----------------
#NOTES:
     dance-double:
     NewbStepper:
     Easy:
     6:
     0.243674,0.305795,0.127181,0.314211,0,228,211,17,42,0,0,0.243674,0.305795,0.127181,0.314211,0,228,211,17,42,0,0:
00000000
00000000
00000000
00000000
,
00000000
00000000
00000000
00000000
,
00000000
00000000
00000000
00000000
,
00000000
00000000
00000000
00000000
,
00000000
00000000
00000000
00000000
,
00001000
00000000
00000001
00000010
,
00000001
00000000
00001000
00000100
,
00001000
00000000
00000010
00010000
,
00000010
00000000
00010000
00001000
,
00011000
00010000
01000000
01000000
,
10000000
10000000
00010000
01000000
,
00001000
00001000
00010000
00010000
,
00000010
00000010
00001000
00000001
,
00002000
00000000
00000000
00000000
,
00000000
00003000
00000001
00000100
,
00002000
00100000
01000000
01003000
,
00020000
00000010
00000100
00030100
,
00002000
00010000
00100000
00100000
,
00010000
00010000
01003000
00000000
,
20000000
32000000
03200000
00320000
,
00032000
00003200
00000320
00000032
,
00001003
00000100
00010000
00010000
,
00001000
00100000
00020000
00032000
,
00003200
00000000
00000302
00000203
,
00001300
00000010
00000110
00001001
,
00001000
00001000
00000001
00000001
,
00000011
00000010
00001000
00010000
,
00012000
00000000
00103000
01000000
,
10000000
10000000
00010000
10000000
,
00100000
00100000
00000000
10000000
00000000
00010000
00000000
00010000
,
00000000
00100000
00000000
00001000
00000000
00000010
00000000
00000010
,
00000000
00000000
00000000
00000002
00000000
00000203
00000000
00000320
,
00000000
00001030
00000000
00000001
00000000
00000100
00000000
00001000
,
00000000
00011000
00000000
00011000
00000000
00010000
00000000
01000000
,
00000000
00100000
00000000
00100000
00000000
00010000
00000000
10000000
,
00000000
00100000
00000000
00100000
00000000
01000000
00000000
00200000
,
00000000
00320000
00000000
00032000
00000000
00103000
00000000
01000000
,
00000000
00010000
00000000
00001000
00000000
00011000
00000000
00011000
,
00000000
00020000
00000000
00000000
00000000
00000000
00000000
00000000
,
00000010
00030010
00000000
00000100
00000000
00001000
00000000
00010000
,
00000000
00100000
00100000
00000000
00000000
10000000
00000000
01000000
,
00000000
00010000
00020000
00000000
00000000
00002000
00000000
00033000
,
00000000
00011000
00000000
00000000
00000000
00001000
00000000
00000000
,
00000000
00000100
00000000
00000000
00000000
00000010
00000000
00000010
,
00000000
00001000
00000000
00000000
00000000
00000100
00000000
00000000
,
00000000
00010000
00000000
00100000
00000000
00100000
00000000
01000000
,
00000000
00020000
00000000
00000000
00000000
10000000
00000000
00030000
,
00000000
00100000
00000000
01100000
00000000
10010000
00000000
11000000
,
00000000
01020000
00000000
00000000
00000000
00032000
00000000
00000000
,
00000000
00003200
00000000
00000000
00000000
00000302
00000000
00001003
,
00000000
00000001
00000000
00000010
00000000
00000010
00000000
00001000
,
00000000
00010000
00000000
00000100
00000000
00000000
00000000
00001000
,
00000000
00000100
00000000
00010000
00000000
01000000
00000000
10000000
,
00000000
00100000
00000000
00100000
00000000
00010000
00000000
00001000
,
00000000
00200000
00000000
00000000
00000000
00301000
00000000
00010000
,
00000000
00000100
00000000
00000000
00000000
00001000
00000000
00000000
,
00000000
00000001
00000000
00000100
00000000
00001000
00000000
00010000
,
00000000
01000000
00000000
00100000
00000000
01100000
00000000
00000000
,
00000000
10000000
00000000
01000000
00000000
00010000
00000000
00001000
,
00000000
00000100
00000000
00000010
00000000
00000110
00000000
00000000
,
00000000
00000001
00000000
00000100
00000000
00000010
00000000
00000100
,
00000000
00002000
00000000
00000000
00000000
00023000
00000000
00000000
,
00000000
01030000
00000000
10000000
00000000
00020000
00000000
00000000
,
00000000
20030000
00000000
32000000
00000000
03200000
00000000
00320000
,
00000000
00032000
00000000
00000010
00000000
00000010
00000000
00003010
,
00000000
00000100
00000000
00000001
00000000
00000010
00000000
00001000
,
00000000
00021000
00000000
00000000
00000000
00000000
00000000
00000000
,
00000000
00000000
00000000
00000000
,
00000000
00030000
00000000
00000000
00000000
00000000
00000000
00000000
;
