#TITLE:INSECTICIDE;
#ARTIST:Camellia;
#BANNER:INSECTICIDE.png;
#BACKGROUND:INSECTICIDE-bg.png;
#MUSIC:INSECTICIDE.ogg;
#SAMPLESTART:9.64;
#SAMPLELENGTH:15;
#BPMS:0=199,60=398,110=199,262=298.5,268=398,283=199,377=398,443=99.5,459=149.25,461=199,463=298.5,466=398;
#STOPS:60=0.905,110=0.905,282=0.151,377=0.302;

//---------------dance-single - Nitrospan-bSP----------------
#NOTES:
     dance-single:
     Nitrospan:
     Beginner:
     8:
     :
0000
0000
0000
0000
,
0000
0000
0000
0000
,
0000
0000
0000
0000
,
0000
0000
0000
0000
,
0000
0000
0000
0000
,
0000
0000
0000
0000
,
0000
0000
0000
0000
,
0000
0000
0000
0000
,
1001
0000
1000
0000
,
1001
0000
0001
0000
,
1001
0000
0010
0000
,
1001
0000
0100
0000
,
0110
0000
1000
0000
,
0110
0000
0001
0000
,
0110
0000
0100
0000
,
1001
0000
1000
0000
,
1000
0000
1000
0000
,
0000
0000
0001
0000
,
0001
0000
0001
0000
,
0000
0000
0100
0000
,
0100
0000
0100
0000
,
0000
0000
0010
0000
,
0010
0000
0220
0000
,
0330
0000
1000
0000
,
1000
0000
0001
0000
,
0001
0000
0100
0000
,
0100
0000
0010
0000
,
0010
0000
1001
0020
,
0000
0030
0000
0100
,
0000
0010
0000
0000
0100
0000
0000
0000
,
0001
0010
0001
1000
,
0000
0001
0000
0000
1000
0000
0000
0000
,
0100
0010
0100
1000
,
0000
0010
0000
0000
1000
0000
0000
0000
,
0010
0100
0010
0000
,
0110
0000
0000
0100
0000
0000
2002
0000
,
0000
0000
3003
0001
,
0010
0001
0010
0000
,
0100
0100
0100
0000
,
1000
0000
0000
0100
0000
0000
0010
0000
,
0010
0010
0000
1001
,
0000
0001
0000
0000
0001
0000
1001
0000
,
0000
1000
0000
0000
1000
0000
1001
0000
,
0000
0100
0000
0220
,
0000
0330
0000
0010
,
0100
0000
0100
0010
,
1000
0001
0100
0010
,
0100
0000
0100
0001
,
1000
0010
0100
0001
,
1000
0000
1000
0001
,
1000
0100
0010
0001
,
1000
0000
0001
2002
,
0000
3003
0000
0001
,
0100
0001
0000
0100
,
0000
0010
0000
1000
,
0100
1000
0010
0100
,
0000
0020
0000
0030
,
0000
1000
0010
1000
,
0000
0010
0000
0100
,
0000
0001
0010
0001
,
0100
0010
0000
0010
,
1000
0010
0000
0100
,
0100
0000
0001
1000
,
0001
0010
0010
0000
,
0100
0100
2002
0000
,
0000
0000
0000
0000
,
0000
0000
0000
0000
,
0000
0000
0000
0000
,
0000
0000
0000
0000
,
0000
0000
0000
0000
,
0000
0000
3003
0001
,
0000
0000
0000
0100
,
0010
0100
0000
0010
,
0010
0000
0000
1000
,
0100
1000
0000
0001
,
0010
1000
0000
0001
,
0100
1000
0000
0010
,
1000
0001
0100
2002
,
0000
0000
3003
0010
,
0000
0100
0000
0001
,
0010
0100
1000
0010
,
0000
0100
0000
0010
,
1000
0001
0000
1001
,
0000
0100
0000
0010
,
0001
0100
0010
1000
,
0000
0100
0000
0010
,
0100
1000
0000
1001
,
0000
0010
1000
0001
,
0100
0010
0000
0100
,
0000
0001
1000
0010
,
0100
0001
0000
1001
,
0000
0100
0000
0010
,
0001
0100
0010
0110
,
0000
1001
0000
0100
,
0010
0100
0000
1000
,
0000
0100
0000
1000
,
0100
1000
0000
0100
,
0000
0010
0000
2002
,
0000
3003
0000
0001
,
0000
0010
0000
0001
,
0010
0001
0000
1000
,
0000
0001
0000
0220
,
0000
0330
0000
1000
,
0000
0010
0000
0100
,
0001
0100
0000
0010
,
0000
1000
0000
2002
,
0000
3003
0000
0001
,
0000
0010
0000
0100
,
1000
0100
1000
0001
,
0000
1000
0000
0220
,
0000
0330
0000
2001
,
0000
0000
0000
3010
0000
0000
0000
0000
0000
0000
0000
0000
0200
0000
0000
0000
,
0000
0000
0000
0301
0000
0000
0000
0000
0000
0000
0000
0000
0020
0000
0000
0000
,
0000
0000
0000
0130
0000
0000
0000
0000
0000
0000
0000
0000
2000
0000
0000
0000
,
0000
0000
0000
3001
0000
0000
0000
0000
0000
0000
0000
0000
0000
0000
0000
0000
;

//---------------dance-single - Nitrospan-BSP----------------
#NOTES:
     dance-single:
     Nitrospan:
     Easy:
     12:
     :
0000
0000
0000
0000
,
0000
0000
0000
0000
,
0000
0000
0000
0000
,
0000
0000
0000
0000
,
0000
0000
0000
0000
,
0000
0000
0000
0000
,
0000
0000
0000
0000
,
0000
0000
0000
0000
,
1010
0100
0001
0010
,
0011
0100
1000
0010
,
1100
0001
0100
0001
,
0101
1000
0100
1000
,
1010
0100
0001
1000
,
0011
0100
1000
0001
,
0101
1000
0100
0010
,
1001
0000
0001
0000
,
0010
0000
0001
0010
,
0200
0000
1300
0000
,
0010
0000
1000
0010
,
0200
0000
0301
0000
,
0100
0000
0010
1000
,
0200
0000
0310
0000
,
0001
0000
0202
0000
,
0303
0000
0010
1000
,
0200
0300
0010
0001
,
0200
0300
0010
1000
,
0100
0100
0100
0100
,
0100
0000
0000
0000
0100
0000
0000
0000
0200
0300
0000
0000
0110
0000
0000
0000
,
0001
1000
0001
0000
2000
0000
3010
0000
,
0000
1000
0000
0000
1010
0000
0100
0000
,
0001
0000
1000
0100
0010
0000
0001
0000
,
0000
0100
0000
0000
0101
0000
0010
0000
,
1000
0000
0100
1000
0010
0000
0100
0000
,
0000
0010
0000
0000
0110
0000
0010
0000
,
1000
0000
0001
0010
0100
0000
1000
0100
,
1000
0000
0000
1001
0000
0000
0001
0100
,
0001
0010
0100
1000
,
0100
0000
0010
0100
0010
0000
0001
0000
,
0100
0010
1000
0100
,
1100
0000
0000
0000
0000
0000
0000
0000
0000
0011
0000
0000
0000
0000
0000
0000
0000
0000
1000
0000
0000
0000
0001
0000
,
0000
0000
1000
0000
0000
0000
0002
0000
0000
0000
0000
0000
0003
0000
0000
0000
0000
0000
1000
0000
0000
0100
0000
0000
,
1000
0000
0100
0000
1100
0000
0010
0001
,
0010
0000
0001
0000
0011
0000
0100
0010
,
0100
0110
0001
0200
,
0000
0000
0300
0010
,
1001
0000
0000
0100
1000
0000
0010
0000
,
0100
0000
0001
1000
0100
0000
0010
0000
,
1001
0000
0000
0100
0001
0000
0010
0000
,
0001
0000
1000
0100
0010
0000
0001
0000
,
0110
0000
0000
1000
0001
0000
0100
0000
,
0010
0000
1000
0001
0100
0000
0001
0000
,
0110
0000
0000
0001
1000
0000
1002
0000
,
0000
0000
0103
0000
0000
0000
0010
1000
,
0010
0100
0100
0001
,
0010
0000
0100
0000
1000
0000
0001
0010
,
0001
0000
1000
0010
1000
0000
0100
0000
,
0010
0000
0001
1000
0001
0000
2002
0000
,
3003
0000
0001
0100
0001
0000
0010
0000
,
0010
0100
1000
0001
,
0100
0000
0010
1000
0010
0000
0100
0001
,
0100
0000
0010
0000
1000
0000
0100
1000
,
0100
0000
0010
0000
0001
0010
0001
0000
,
0100
0010
1000
0100
,
1000
0010
0100
0000
0001
0000
0010
0000
,
0100
0000
1000
0001
0200
0000
0000
0000
,
0000
0000
0000
0000
,
0000
0000
0000
0000
,
0000
0000
0000
0000
,
0000
0000
0000
0000
,
0000
0000
0000
0000
,
0000
0000
0300
0110
,
1000
0001
0100
0010
,
1000
0000
0100
0000
0010
0000
0001
1000
,
0001
0010
0100
1000
,
0010
0000
0100
0000
0000
0000
0001
0100
,
0001
0000
1000
0000
0200
0000
1300
0010
,
1000
0000
0001
0000
0020
0000
0031
0100
,
0100
0100
0100
0100
0100
0000
2002
0000
,
0000
0000
0000
0000
3003
0000
1000
0100
,
1000
0010
0100
0001
,
0010
0000
0200
0000
1300
0001
0100
0001
,
1000
0100
0010
0001
,
0100
0000
0010
1000
0001
0000
0010
0001
,
1000
0010
0100
0001
,
0010
0000
0100
0010
0001
0000
0100
0010
,
1000
0100
0010
0001
,
1000
0010
0000
1002
,
0103
0000
0010
1000
0100
0000
0010
0000
,
0001
0100
0010
2010
,
3001
0000
0010
0001
0100
0000
0010
0000
,
1000
0001
0010
0000
,
0110
0000
1000
0001
0100
0000
0010
0000
,
1000
0000
0000
0000
0100
0000
0000
0000
0010
0000
0000
0000
0001
0000
0000
1000
,
0000
0000
0001
0000
1000
0000
0000
0001
0000
0000
1000
0000
0020
0000
0000
0000
,
0000
0030
0000
0010
,
1000
0001
0010
0001
,
1000
0200
0000
0310
,
0001
1000
0010
0100
,
0010
2000
0000
3001
,
0010
0100
1000
0010
,
0010
0100
0100
0001
,
0010
0100
1000
0001
,
1000
0020
0000
0030
,
1000
0010
0100
0001
,
0010
0200
0000
0300
,
1000
0010
0100
0001
,
0010
0200
0000
0300
,
0010
0001
0100
0010
,
1000
0100
0100
1000
,
0010
0100
0001
0010
,
0010
0000
0000
0000
0002
0000
0000
0000
0000
0000
0000
0000
1003
0000
0000
0100
,
0000
0100
0000
0010
0000
0010
0000
0001
0000
0001
0000
0000
0100
0000
0000
0010
,
0000
0010
0000
1000
0000
1000
0000
0000
0001
0000
0000
0000
1000
0000
0000
0001
,
0000
0001
0000
0010
0000
0010
0000
0100
0000
0100
0000
0000
0010
0000
0000
0001
,
0000
0001
0000
1000
0000
1000
0000
0000
0010
0000
0200
0000
0000
0000
0000
0000
,
0000
0000
0000
0000
,
0000
0000
0000
0000
,
0000
0300
0000
0000
0000
0000
0000
0000
;

//---------------dance-single - Nitrospan-DSP----------------
#NOTES:
     dance-single:
     Nitrospan:
     Medium:
     14:
     :
0000
0000
0000
0000
,
0000
0000
0000
0000
,
0000
0000
0000
0000
,
0000
0000
0000
0000
,
0000
0000
0000
0000
,
0000
0000
0000
0000
,
0000
0000
0000
0000
,
0000
0000
0000
0000
,
0011
0000
0100
1000
0000
0000
0001
0000
,
1010
0000
0100
0001
0000
0000
1000
0000
,
0101
0000
1000
0100
0000
0000
0010
0000
,
1100
0000
0001
0100
0000
0000
0010
0000
,
1010
0000
0100
0001
1000
0000
1100
0000
,
0011
0000
0100
1000
0001
0000
0101
0000
,
0110
0000
1000
0100
0010
0001
1000
0000
,
1001
0000
0001
1000
,
0001
1000
0010
1000
,
0200
0000
1300
0001
,
1000
0001
0100
0001
,
0020
0000
0130
1000
,
0100
1000
0010
1000
,
0002
0000
0103
0001
,
0100
0000
0001
0000
0010
0000
0000
0001
,
0000
1000
0001
0010
,
0001
0010
0100
1000
,
0100
1000
0001
1000
,
0001
1000
0001
0001
,
1000
0000
0000
0000
1000
0000
0000
0000
1002
0003
0000
0000
0110
0000
0000
0000
,
0100
0010
0100
0000
1001
0000
0010
0001
,
0010
0001
0000
1000
0100
0000
0010
0001
,
0100
0000
0010
1000
0100
0000
1000
0010
,
1000
0010
0000
0100
0001
0000
1000
0100
,
0010
0001
0100
0010
1000
0000
0010
0100
,
0010
0100
0000
0001
1000
0000
0001
0010
,
0100
0000
1000
0100
0010
0000
0001
0001
,
0100
1000
1000
0100
0001
0001
0010
0100
,
1000
0010
0100
0001
1000
0000
1001
1000
,
0100
0000
0010
0000
0001
0000
0001
0000
1000
0000
1000
0000
0010
0000
0000
0010
,
1000
0000
0000
1000
0001
0000
0000
0001
0100
0000
0000
0000
0010
0000
0100
0000
,
0010
0000
0000
0000
0000
0000
0000
0000
0000
1000
0000
0000
0000
0000
0000
0000
0000
0000
0010
0000
0000
0000
0000
0000
0000
0000
0000
0100
0000
0000
0000
0000
0000
0000
0000
0000
0001
0000
0000
0000
0000
0000
0000
0000
1000
0000
0000
0000
,
0000
0000
0001
0000
0000
0000
0010
0000
0100
0000
0010
0000
0100
0000
0000
0000
0000
0000
1000
0000
0000
0010
0000
0000
,
0100
0001
0100
0010
1000
0000
0001
0100
,
0010
1000
0010
0100
0001
0000
1000
0100
,
0010
0000
0001
0000
0010
0100
0010
0000
0001
0000
0000
0000
2002
0000
0000
0000
,
0000
0000
3003
0010
,
1001
0000
0000
0100
1001
0000
1000
0100
,
0010
0001
0100
0010
1000
0001
0100
0000
,
1001
0000
0000
0100
1001
0000
0010
1000
,
0100
0010
0001
1000
0100
0000
0010
0000
,
0110
0000
0000
1000
0110
0000
0001
0010
,
0100
1000
0010
0100
0001
0100
0010
0000
,
0110
0000
0000
0001
0110
0000
1002
0000
,
0000
0000
0013
0000
0000
0000
0001
0010
,
0010
0000
1000
0000
0100
1000
0000
0000
0010
1000
0000
0000
0001
0000
0100
0000
,
0010
1000
0100
0010
0001
0000
1000
0010
,
0010
0000
0001
0000
0010
0000
0010
0000
1000
0001
0000
0000
0100
0010
0000
0000
,
0200
0000
0000
0000
0310
0000
1000
0000
0001
0000
0100
0000
0010
0000
0000
0100
,
0000
0000
0010
0000
1000
0000
0100
0000
0100
0000
0001
0000
0010
0001
0000
0000
,
0100
0001
0000
0000
1000
0000
0010
0000
0100
0000
0001
0000
0100
0000
0010
0000
,
1000
0001
1000
0100
0100
0001
0100
0100
,
1000
0001
0000
0000
0100
0010
0000
0000
1000
0000
0001
0000
1000
0000
0010
0000
,
0010
0000
0001
0000
1000
0010
0000
0000
0100
0001
0000
0000
1000
0000
0100
1000
,
0100
0010
0001
0100
0010
1000
0100
0010
,
0001
0010
0001
0000
0100
0000
0010
0000
1000
0000
0100
0000
0010
0100
0010
0000
,
0100
0000
1000
0000
0001
0100
0010
0000
2000
0000
0000
0000
0000
0000
0000
0000
,
0000
0000
0000
0000
,
0000
0000
0000
0000
,
0000
0000
0000
0000
,
0000
0000
0000
0000
,
0000
0000
0000
0000
,
0000
0000
0000
0000
3000
0000
0010
1000
,
0001
0000
0010
0001
1000
0000
0100
1000
,
0010
0001
0010
1000
0100
0000
0100
1000
,
0001
0000
0100
0001
1000
0000
0100
1000
,
0010
0001
0010
1000
0100
0000
0010
0010
,
0001
0001
1000
0100
0010
0000
0001
0001
,
0100
0100
0010
1000
0001
0000
1000
1000
,
0001
0000
0001
0000
0100
0000
0100
0000
0010
0100
0010
0000
2000
0000
0000
0000
,
0000
0000
0000
0000
3001
0000
1000
0100
,
0010
0000
0100
0000
1000
0000
0001
0000
0010
0000
0000
0001
1000
0000
0100
0000
,
0010
0001
0100
0010
1000
0001
1000
0010
,
0100
0000
0001
0000
0010
0000
0001
0000
0100
0000
0000
0010
1000
0000
0100
0000
,
1000
0000
0001
0000
0100
0010
0000
0000
1000
0000
0100
0000
1000
0000
0001
0000
,
0010
0000
0001
0000
1000
0000
0100
0000
0010
0000
0000
0100
1000
0000
0010
0000
,
0100
0001
1000
0010
0100
0000
0001
0100
,
0010
0000
0100
0000
0001
0000
1000
0000
0010
0000
0000
1000
0001
0000
0010
0000
,
0100
1000
0010
0100
0001
0000
1000
0010
,
0100
0010
1000
0100
0010
0100
1000
0010
,
0001
0010
1000
0100
0010
0000
0001
0010
,
0100
0010
0001
0100
0010
0100
0001
0010
,
1000
0010
0001
0100
0010
1000
0000
0000
,
1001
0100
0010
0100
1000
0010
0100
0010
,
1000
0000
0100
0000
0001
0000
0100
0000
1000
0000
0010
0000
0100
0000
0000
1010
,
0000
0000
0000
0000
0000
0000
0001
0000
0000
0000
0000
0000
1000
0000
0000
0000
0000
0000
0000
0000
0000
0011
0000
0000
0000
0000
0000
0000
0000
0000
0100
0000
0000
0000
0000
0000
1000
0000
0000
0000
0001
0000
0000
0000
1000
0000
0000
0000
,
0001
1000
0001
1000
0000
0000
0000
0000
0000
1000
0000
0000
,
0010
1000
0001
0010
,
0001
1000
0001
1000
,
0100
1000
0001
0100
,
0000
1001
0000
1000
,
0100
1000
0001
0010
,
0001
0100
0010
1000
,
0010
0000
1000
0001
1000
0001
1000
0000
,
0010
0100
0000
0001
,
0100
0010
1000
0100
,
0010
0001
1000
0001
,
0010
0100
1000
0010
,
0000
1001
0000
1000
,
0010
0100
0001
0010
,
0100
1000
0010
0100
,
0001
0000
0010
0100
0010
0100
0010
0000
,
0100
0000
0000
0000
0110
0000
0000
0000
0000
0000
0000
0000
1000
0000
0100
0010
,
0000
0001
0000
1000
0000
0100
0000
0010
0000
0001
0000
0000
0010
0000
0100
1000
,
0000
0001
0000
0010
0000
0100
0000
1000
0001
0000
0100
0000
0010
0000
0100
0001
,
0000
1000
0000
0010
0000
0100
0000
0001
0000
1000
0000
0000
0100
0000
0010
0001
,
0000
1000
0000
0100
0000
0010
0000
0001
0100
0000
0020
0000
0000
0000
0000
0000
,
0000
0000
0000
0000
,
0000
0000
0000
0000
,
0000
0030
0000
0000
0000
0000
0000
0000
;

//---------------dance-single - Nitrospan-ESP----------------
#NOTES:
     dance-single:
     Nitrospan:
     Hard:
     17:
     :
0000
0000
0000
0000
,
0000
0000
0000
0000
,
0000
0000
0000
0000
,
0000
0000
0000
0000
,
0000
0000
0000
0000
,
0000
0000
0000
0000
,
0000
0000
0000
0000
,
0000
0000
0000
0000
,
0010
1000
0100
0010
0100
1000
0010
0000
,
0100
0001
0010
0100
0010
0001
0100
0000
,
0010
1000
0001
0100
0010
1000
0100
0100
,
0010
0001
1000
0100
0010
0001
1000
0000
,
0010
1000
0001
0100
0010
1000
0100
0000
,
0010
0001
1000
0010
0100
0001
0010
0000
,
0100
1000
0001
0100
0010
1000
0001
0000
,
1001
0000
1000
0100
,
0010
0001
0100
0010
,
2020
3030
0100
0001
,
0010
0100
1000
0010
,
0202
0303
0010
1000
,
0100
0010
0001
0010
,
2200
3300
0010
0001
,
0100
0000
0010
0000
1010
0000
0000
0110
,
0000
0000
0001
0000
1000
0100
1000
0000
,
0001
0010
0001
0000
1000
0010
1000
0000
,
0001
0100
0001
0000
1000
0100
0010
0000
,
0001
0100
0010
0000
1000
0010
1000
0010
,
0100
0000
0001
0000
0100
0000
0001
0000
2000
3000
0000
0000
1002
0000
0000
0000
,
0013
0000
1000
0000
0100
0000
0000
0000
0001
0000
0000
0000
1001
0000
1000
0100
,
0010
0100
1000
0000
0001
0000
0010
0000
0100
0000
1000
0000
0010
0000
0100
0001
,
0000
0100
0001
0000
2000
0000
0000
0000
3100
0000
1000
0000
0010
0000
0100
0010
,
0100
0001
0100
0000
0010
0000
2000
0000
0000
3001
0010
0100
1000
0000
0100
0000
,
0100
0000
0001
0100
0001
0000
1000
0000
0010
0000
0000
0000
0110
0000
0001
0100
,
0010
0100
0001
0000
1000
0000
0100
0000
0010
0000
0002
0000
0000
0013
0100
1000
,
0001
0000
0100
0000
0010
0000
1000
0000
0001
0000
0000
0000
0010
0100
1000
0100
,
0010
0000
0001
1000
0000
0000
0010
0000
0100
0001
0000
0000
1000
0000
0010
0000
,
0001
0000
0010
0000
1000
0000
0100
0000
0010
0000
0000
0000
1001
0000
1000
0001
,
0010
0001
1000
0000
0010
0000
0010
0000
0100
0000
0100
0000
0001
0000
1000
0010
,
0100
0000
0001
0010
0100
0000
1000
0001
0100
0000
0000
0000
0010
0000
0000
0000
,
1010
0000
0000
0000
0000
0000
1000
0000
0000
0010
0000
0000
0000
0000
0000
0100
0000
0000
0001
0000
0000
0000
0000
0000
1000
0000
0000
0100
0000
0000
0000
0000
0000
0000
0000
0000
0011
0000
0000
0000
0000
0000
0000
0000
1100
0000
0000
0000
,
0000
0000
0000
0000
0101
0000
0000
0000
0000
0000
0000
0000
1000
0000
0000
0000
0010
0000
0000
0000
0100
0000
0000
0000
0001
0000
0000
0000
0000
0000
0000
0000
0000
0000
0000
0000
1001
0000
0000
0000
0000
0000
0001
0000
0000
0100
0000
0000
,
0010
0100
0001
0000
1000
0000
0010
0000
0100
0000
0000
0000
1001
0000
1000
0100
,
0010
0100
1000
0000
0001
0000
0100
0000
0010
0000
0000
0000
0110
0000
1000
0100
,
0010
0001
0100
0000
0010
0100
0010
0100
0010
0000
0000
0000
2002
0000
0000
0000
,
0000
0000
3003
0010
,
1001
0000
0100
0000
0000
0000
0010
0000
0110
0000
0001
0000
1000
0000
0010
1000
,
0010
0100
0001
1000
0100
0000
0010
0000
,
1100
0001
0000
0010
0110
1000
0001
0010
,
0100
0000
0000
0000
1000
0000
0000
0000
0001
0000
0000
0000
0100
0000
0000
0010
0000
0000
1000
0000
0000
0001
0000
0000
0010
0000
0000
0000
0000
0000
0000
0000
0000
0000
0000
0000
0100
0000
0000
0000
0000
0000
0000
0000
0000
0000
0000
0000
,
0011
0000
1000
0000
0000
0000
0100
0000
1100
0000
1000
0000
0010
0000
0100
0001
,
0000
1000
0100
0000
0010
0001
1000
0000
0010
0000
0100
0000
0001
0000
0000
0000
,
1010
0001
0000
0100
0110
1000
1002
0000
,
0000
0000
0000
0000
1003
0000
0000
0000
0001
0010
0100
1000
0010
0000
1000
0010
,
1000
0000
0010
0000
0100
0001
0100
0000
0010
0000
1000
0001
1000
0000
0100
0000
,
0010
0100
0010
0000
0001
0010
0001
0000
1000
0000
0001
0000
0100
0000
0010
1000
,
0010
0000
0100
0001
0100
0000
0010
0000
1000
0001
0010
0000
0001
0100
0010
0000
,
2000
0000
0000
0000
3001
0000
0010
0001
1000
0000
0010
1000
0100
0000
0000
0011
,
0000
0000
1010
0000
1000
0000
0001
0100
0001
0000
1000
0000
0010
1000
0010
0000
,
0100
0010
0100
0000
0010
0000
1000
0000
0001
0010
0001
0000
0010
0100
0010
0000
,
0100
1000
0100
0000
1000
0000
0001
0100
0001
1000
0010
0000
0100
0000
0010
0100
,
0001
1000
0100
0000
0010
0001
0010
0000
0100
0010
0001
1000
0010
0000
0100
0001
,
0100
0000
0010
0000
1000
0010
1000
0000
0001
1000
0001
0000
1000
0000
0100
0010
,
0001
1000
0010
1000
0100
0010
0001
0100
,
0010
1000
0001
0010
0100
0000
1000
0000
0010
0000
0100
0000
0001
0100
0001
0000
,
1000
0000
0001
0000
1000
0100
0010
0001
0200
0000
0000
0000
0000
0000
0000
0000
,
0000
0000
0000
0000
,
0000
0000
0000
0000
,
0000
0000
0000
0000
,
0000
0000
0000
0000
,
0000
0000
0000
0000
,
0000
0000
0000
0000
0300
0000
0010
1000
,
0100
0010
0001
0100
0010
1000
0001
0100
,
1000
0100
0001
0010
0100
0000
1000
1000
,
1000
0100
0010
0001
1000
0100
0001
0100
,
1000
0010
0100
0001
0010
0000
0001
0100
,
0010
1000
0100
0010
0011
0000
1000
0100
,
0010
0000
0001
0000
0100
0000
0010
0000
1010
0000
0000
0000
0001
0000
0010
0001
,
0010
0000
0100
0010
0100
0000
1000
0001
0100
0010
0100
0010
2000
0000
0000
0000
,
3010
0001
0100
0000
1000
0000
0110
0001
,
1000
0010
1000
0000
0001
0000
1000
0000
0010
0000
0100
0001
0100
0000
0010
0100
,
0010
1000
0002
0000
1003
0010
1000
0001
,
0010
0000
0100
0010
0100
0000
1000
0000
0001
0000
0010
0001
0010
0000
0100
0010
,
0100
0000
1000
0100
1000
0001
1000
0000
0010
0000
0100
0000
0001
0000
1000
0100
,
0010
0100
0010
0000
0001
0000
0100
0000
0010
0000
1000
0010
1000
0000
0001
0000
,
1000
0000
0100
0010
0100
0000
1000
0000
0010
0000
0100
0000
0010
0000
1000
0010
,
1000
0000
0001
1000
0001
0000
0010
0000
0100
0000
1000
0100
1000
0000
0001
0000
,
1000
0010
0100
0001
0010
0000
1001
1000
,
0010
0000
1000
0001
0100
0000
0010
0000
1000
0000
0010
0100
0001
0000
1000
0000
,
0001
0000
0010
0100
1000
0000
0010
0000
1000
0000
0100
0000
0010
0000
0001
0000
,
0100
0000
0001
0010
0100
0000
1000
0000
0001
0000
1000
0010
0100
0000
0010
1000
,
0001
0000
0010
0001
0100
0010
1000
0100
0010
0000
0001
0000
1000
0000
0010
0000
,
0110
0000
0100
0001
1000
0000
0100
0000
0010
0000
0001
0010
0100
0000
1000
0000
,
0001
0000
0100
0010
1000
0000
0100
0000
0010
0000
0001
0000
1001
0000
1000
0010
,
0000
0000
0000
0100
0000
0000
0001
0000
0000
0000
0000
0000
0110
0000
0000
0000
0000
0000
1000
0000
0000
0001
0000
0000
0000
0000
0000
0100
0000
0000
0010
0000
0000
0000
0000
0000
1000
0000
0000
0000
0100
0000
0000
0000
0010
0000
0000
0000
,
0001
0000
0100
0000
0010
0000
1000
0000
0000
0000
0000
0000
0000
0000
0000
0000
0000
0000
0001
0000
0000
0010
0000
0000
,
0001
0010
0001
0010
0001
0000
1000
0001
,
1000
0001
1000
0001
1000
0000
0010
1000
,
0010
1000
0010
1000
0010
1000
0010
0000
,
0000
0000
2002
0000
3003
0000
1000
0100
,
1000
0100
1000
0100
1000
0000
0001
1000
,
0001
1000
0001
1000
0001
0000
0100
0001
,
0100
0001
0100
0001
0100
0001
0100
0000
,
0000
0000
2002
0000
3003
0000
1000
0100
,
0010
0001
0010
0100
1000
0010
0100
0001
,
0100
0010
1000
0100
0010
0001
0100
0010
,
1000
0010
0100
0001
0010
0100
1000
0000
,
0000
0000
0220
0000
0330
0000
0001
0010
,
0100
1000
0100
0010
0001
0100
0010
1000
,
0010
0100
0001
0010
0100
1000
0010
0100
,
0001
0100
0010
1000
0100
0010
0001
0000
,
0000
0000
0000
0000
0220
0000
0000
0000
0330
0000
0000
0000
1000
0100
0010
0001
,
0000
1000
0000
0001
0000
0100
0000
0010
0000
1000
0000
0000
0001
0100
0010
1000
,
0000
0001
0000
1000
0000
0100
0000
0010
0001
0010
0100
1000
0001
0100
0010
1000
,
0000
0001
0000
0010
0000
0100
0000
1000
0000
0001
0000
0000
0100
0001
1000
0010
,
0000
1000
0000
0001
0000
0010
0000
0100
1000
0001
0200
0000
0000
0000
0000
0000
,
0000
0000
0000
0000
,
0000
0000
0000
0000
,
0000
0310
0000
0000
0000
0000
0000
0000
;

//---------------dance-double - forcednature-BDP----------------
#NOTES:
     dance-double:
     forcednature:
     Easy:
     12:
     :
00000000
00000000
00000000
00000000
,
00000000
00000000
00000000
00000000
,
00000000
00000000
00000000
00000000
,
00000000
00000000
00000000
00000000
,
00000000
00000000
00000000
00000000
,
00000000
00000000
00000000
00000000
,
00000000
00000000
00000000
00000000
,
00000000
00000000
00000000
00000000
,
00001000
00000000
00000000
01001000
00000000
00000000
00000000
00000000
,
00010000
00000000
00000000
00010100
00000000
00000000
00000000
00000000
,
00001000
00000000
00000000
00101000
00000000
00000000
00000000
00000000
,
00010000
00000000
00000000
00010010
00000000
00000000
00000000
00000000
,
00010100
00000000
00000000
00010100
00000000
00000000
00000000
00000000
,
01001000
00000000
00000000
01001000
00000000
00000000
00000000
00000000
,
00011000
00000000
00000000
00011000
00000000
00000000
00000000
00000000
,
00011000
00000000
00010000
00000000
,
00000100
00000000
00001000
00000010
,
00001000
00000000
00000100
00000000
,
00010000
00000000
00001000
01000000
,
00001000
00000000
00100000
00000000
,
00010000
00000000
01000000
00100000
,
01000000
00000000
00010000
00000000
,
10000000
00000000
02000000
00000000
,
00000000
00000000
03100000
00010000
,
00100000
00000000
00001000
00010000
,
00001000
00000000
01000000
00010000
,
01000000
00001000
00010000
00000100
,
00001000
00000000
00000000
00000000
00000100
00000000
00000000
00000000
00000020
00000030
00000000
00000000
00002002
00000000
00000000
00000000
,
00000000
00000000
00003003
00000001
,
00000100
00001000
00000000
00000100
00000001
00000000
00000010
00000000
,
00000100
00000000
00010000
00001000
00010000
00000000
00100000
00000000
,
01000000
00010000
00000000
01000000
10000000
00000000
01000000
00000000
,
00100000
00000000
10000000
00010000
10000000
00000000
01000000
00000000
,
00100000
00010000
00000000
00100000
00001000
00000000
00010000
00000000
,
00100000
00000000
00010000
00001000
00010000
00000000
00000100
00001000
,
00000100
00000000
00000010
00000001
00000000
00000001
00000200
00000000
,
00002300
00023000
00230000
01300000
,
01000000
00010000
10000000
00000000
01000000
00000000
00100000
00000000
,
00010000
00000000
01000000
00001000
01000000
00000000
00000000
00000000
,
00010000
00000000
00000000
00000000
00000000
00000000
00000000
00000000
00000000
00100000
00000000
00000000
00000000
00000000
00000000
00000000
00000000
00000000
00001000
00000000
00000000
00000000
00000000
00000000
00000000
00000000
00000000
00010000
00000000
00000000
00000000
00000000
00000000
00000000
00000000
00000000
00000010
00000000
00000000
00000000
00000000
00000000
00000000
00000000
00000010
00000000
00000000
00000000
,
00000000
00000010
00000000
00001000
00000001
00001000
00000001
00000000
00000000
00000010
00000000
00000000
,
00000100
00010000
00001000
00000000
02000000
00000000
03100000
00000000
,
01000000
00001000
00010000
00000000
00000200
00000000
00000310
00000000
,
00000100
00010000
00001000
00010000
00001000
00000000
00200000
00000000
,
00000000
02000000
03300000
10010000
,
10000000
00000000
00100000
00000000
01000000
00000000
00010000
00100000
,
00010000
01000000
00001000
00010000
,
00000100
00000000
00001000
00000000
00000010
00000000
00000100
00000001
,
00000100
00000000
00001000
00010000
00001000
00000000
00011000
00000000
,
00010000
00000000
00001000
00000000
01000000
00000000
00010000
00100000
,
00010000
10000000
00100000
00010000
,
00001000
00000010
00000100
00002002
,
00003003
00000000
00000001
00000000
00000001
00000000
00000010
00000100
,
00000010
00000000
00000001
00001000
00000001
00001000
00000000
00000010
,
00000000
00001000
00000100
00000000
00010000
00000000
00001000
01000000
,
00001000
00000000
00100000
00010000
00100000
00010000
00000000
01000000
,
00000000
00000000
00100000
00000000
10000000
00000000
00000000
00000000
01000000
00000000
00000000
00000000
00100000
00000000
00000000
00100000
,
00000000
00100000
00010000
00100000
00010000
00000000
01000000
00000000
,
00001000
00010000
00000000
00000100
00001000
00000000
00000010
00000000
,
00000100
00000000
00000001
00001000
00000001
00001000
00000001
00000000
,
00000010
00000000
00000100
00001000
00000000
00000100
00010000
00000100
,
00010000
00000000
00001000
00000000
01000000
00010000
00000000
00100000
,
01000000
10000000
00010000
01000000
,
00001000
00010000
00000100
00001000
00000100
00000000
00000010
00000000
,
00000001
00000000
00001000
00000010
00002000
00000000
00000000
00000000
,
00000000
00000000
00000000
00000000
,
00000000
00000000
00000000
00000000
,
00000000
00000000
00000000
00000000
,
00000000
00000000
00000000
00000000
,
00000000
00000000
00000000
00000000
,
00000000
00000000
00003000
00020200
,
00000000
00000000
00000000
00000000
,
00000000
00000000
00030300
00000000
00000000
00000000
00001000
01000000
,
00002000
00000000
00000000
00000000
,
00000000
00000000
00000000
00000000
00003000
00000000
00100000
00010000
,
00100000
00000000
00001000
00000000
00011000
00000000
00000010
00001000
,
00000010
00000000
00010000
00000000
00011000
00000000
01000000
00010000
,
01000000
00000000
00001000
00010000
00001000
00000000
00000200
00000000
,
00000000
00000000
00000300
00000010
,
00001000
00000001
00000010
00000000
00000100
00000000
00001000
00000001
,
00000100
00000000
00000010
00010000
00001000
00000000
00100000
00000000
,
00010000
01000000
00001000
00000000
00010000
00000000
01000000
00000000
,
10000000
00000000
00010000
01000000
00100000
00000000
10000000
00000000
,
00010000
00100000
01000000
00000000
00100000
00000000
00001000
00000000
,
00010000
00000000
00000010
00001000
00000001
00000000
00000010
00000000
,
00000100
00001000
00000010
00000000
00000100
00000000
00001000
00000000
,
00010000
00100000
01000000
01100000
,
00100000
10000000
00010000
00000000
00100000
00000000
01000000
00000000
,
00010000
00000000
00001000
00010000
00001000
00000000
00100000
00000000
,
00010000
01000000
00001000
00000000
00010000
00000000
00000100
00000000
,
00001000
00000000
00000010
00000100
00000001
00000000
00000010
00000000
,
00000110
00000000
00000100
00001000
00000010
00000000
00010000
00000000
,
00001000
00000000
00100000
00000000
00000000
00100000
00000000
00000000
00100000
00000000
00000000
00000000
00010000
00000000
00000000
01000000
,
00000000
00000000
00000000
00000000
00000000
00000000
00001000
00000000
00000000
00000000
00000000
00000000
00010000
00000000
00000000
00000000
00000000
00000000
00000000
00000000
00000000
00000100
00000000
00000000
00000000
00000000
00000000
00000000
00000000
00000000
00001000
00000000
00000000
00000000
00000000
00000000
00000001
00000000
00000000
00000000
00000100
00000000
00000000
00000000
00000001
00000000
00000000
00000000
,
00000100
00000001
00000100
00000010
00000000
00000000
00000000
00000000
00000000
00001000
00000000
00000000
,
00000100
00000010
00000001
00000010
,
00000100
00001000
00000010
00010000
,
00001000
00100000
00010000
01000000
,
00000000
01100000
00000000
00100000
,
10000000
01000000
00100000
00010000
,
01000000
00001000
00010000
00000100
,
00001000
00000010
00001000
00000100
,
00000000
00000110
00000000
00000010
,
00000001
00001000
00000001
00000100
,
00000010
00001000
00000100
00010000
,
00001000
01000000
00010000
00100000
,
00000000
01100000
00000000
01000000
,
10000000
00010000
01000000
00001000
,
00010000
00000100
00001000
00000001
,
00000100
00000010
00001000
00000100
,
00000000
00000000
00000000
00000000
00000110
00000000
00000000
00000000
00000000
00000000
00000000
00000000
00001001
00000000
00000000
00000001
,
00000000
00000100
00000000
00000001
00000000
00001000
00000000
00000010
00000000
00001000
00000000
00000000
00000100
00000000
00000000
00010000
,
00000000
00001000
00000000
01000000
00000000
00010000
00000000
00100000
01000000
00000000
10000000
00000000
00010000
00000000
00000000
01000000
,
00000000
00001000
00000000
00010000
00000000
00000100
00000000
00001000
00000000
00000010
00000000
00000000
00010000
00000000
00000000
00001000
,
00000000
00100000
00000000
00010000
00000000
01000000
00000000
00001000
00010000
00000000
00000200
00000000
00000000
00000000
00000000
00000000
,
00000000
00000000
00000000
00000000
,
00000000
00000000
00000000
00000000
,
00000000
00000300
00000000
00000000
00000000
00000000
00000000
00000000
;

//---------------dance-double - forcednature-DDP----------------
#NOTES:
     dance-double:
     forcednature:
     Medium:
     15:
     :
00000000
00000000
00000000
00000000
,
00000000
00000000
00000000
00000000
,
00000000
00000000
00000000
00000000
,
00000000
00000000
00000000
00000000
,
00000000
00000000
00000000
00000000
,
00000000
00000000
00000000
00000000
,
00000000
00000000
00000000
00000000
,
00000000
00000000
00000000
00000000
,
01001000
00000000
00000000
01001000
00000000
00000000
00000000
00000000
,
00010100
00000000
00000000
00010100
00000000
00000000
00000000
00000000
,
00101000
00000000
00000000
00101000
00000000
00000000
00000000
00000000
,
00010010
00000000
00000000
00010010
00000000
00000000
00000000
00000000
,
01001000
00000000
00000000
00101000
00000000
00000000
00000000
00000000
,
00010100
00000000
00000000
00010010
00000000
00000000
00000000
00000000
,
00011000
00000000
00000000
00011000
00000000
00000000
00000000
00000000
,
01100000
00000000
10000000
01000000
,
00100000
00010000
00001000
00000100
,
00000020
00000030
00000001
00000100
,
00000010
00001000
00010000
01000000
,
00200000
00300000
10000000
01000000
,
00100000
00010000
00001000
00000100
,
00000020
00000030
00000001
00000100
,
00000010
00000000
00001000
00000000
00010000
00000000
00000000
01000000
,
00000000
00010000
10000000
01000000
,
00010000
01000000
00100000
00001000
,
00010000
00001000
00000100
00000001
,
00001000
00000001
00000010
00001000
,
00010000
00000000
00000000
00000000
00001000
00000000
00000000
00000000
02000000
03000000
00000000
00000000
20020000
00000000
00000000
00000000
,
00000000
00000000
00000000
00000000
30030000
00000000
10000000
01000000
,
00010000
00000000
00001000
00000000
00010000
00000000
01000000
00000000
00100000
00000000
00010000
00000000
01000000
00000000
00010000
01000000
,
00000000
00010000
01000000
00000000
00001000
00000000
00010000
00000000
00000100
00000000
00000000
00000000
00001000
00000000
00000010
00000000
,
00000001
00000010
00001000
00000100
00010000
00001000
01000000
00100000
,
00100000
00000000
10000000
00010000
00000000
00000000
00100000
00000000
01000000
00000000
00000000
00000000
00100000
00000000
00001000
00000000
,
00010000
00100000
00010000
00001000
00100000
00010000
01000000
00001000
,
00010000
00000100
00001000
00000010
00010000
00000000
00001000
00000010
,
00000001
00000100
00000001
00000010
00001000
00010000
00200000
00000000
,
02300000
00000000
03010000
10000000
01000000
00000000
00010000
00001000
,
00001000
00000000
00001000
00000000
00000010
00000000
00000100
00000000
00001000
00000000
00000010
00000000
00000100
00000000
00000000
00001000
,
00000000
00010000
00200000
00000000
01300000
00010000
10000000
00000000
,
01010000
00000000
00000000
00000000
00000000
00000000
00000000
00000000
00000000
00001000
00000000
00000000
00000000
00000000
00000000
00000000
00000000
00000000
00010000
00000000
00000000
00000000
00000000
00000000
00000000
00000000
00000000
00000100
00000000
00000000
00000000
00000000
00000000
00000000
00000000
00000000
00000010
00000000
00000000
00000000
00000000
00000000
00000000
00000000
00000010
00000000
00000000
00000000
,
00000000
00000000
00000010
00000000
00000000
00000000
00000001
00000000
00001000
00000000
00000001
00000000
00001000
00000000
00000000
00000000
00000000
00000000
00000001
00000000
00000000
00001000
00000000
00000000
,
00000010
00010000
00001000
01000000
00020000
00000000
10030000
00010000
,
00100000
00001000
00010000
00000100
00002000
00000000
00003001
00000100
,
00001000
00000100
00000010
00000010
00000010
00000000
00002002
00000000
,
00000000
00000000
00000000
00000000
00003003
00000000
00000001
00000010
,
00000100
00001000
00000100
00000010
00000001
00001000
00000010
00000000
,
00000100
00000000
00001000
00010000
00001000
00000000
01000000
00010000
,
10000000
00100000
10000000
00010000
01000000
00010000
00100000
00000000
,
00001000
00010000
00000010
00000010
00000010
00000000
00000100
00000001
,
00001000
00000100
00001000
00000001
00000100
00001000
00010000
00000000
,
01000000
00000000
00100000
00010000
00100000
00000000
01000000
10000000
,
01000000
00100000
00010000
00100000
01000000
10000000
00010000
00000000
,
01000000
00000000
00001000
00010000
00001000
00000000
00000010
00000100
,
00001000
00000010
00000100
00001000
00010000
00100000
01000000
00010000
,
00100000
01000000
10000000
00010000
10000000
00000000
00100000
01000000
,
00010000
00100000
01000000
00010000
00001000
00000010
00000100
00001000
,
00000010
00000000
00000100
00000000
00001000
00000000
00010000
00000000
00001000
00000000
00000000
00000000
00000010
00000000
00000000
00000010
,
00000000
00000010
00000100
00001000
00000001
00000100
00001000
00010000
,
01000000
00100000
00010000
01000000
10000000
01000000
00100000
10000000
,
00010000
00000000
10000000
01000000
00010000
00001000
01000000
00010000
,
00100000
00001000
00010000
00000010
00001000
00000100
00000001
00000100
,
00001000
00000000
00000010
00000000
00000100
00000000
00001000
00000000
00010000
00000000
00100000
00000000
01000000
00000000
00010000
10000000
,
00010000
00100000
01000000
00000000
00010000
00001000
00010000
00000100
,
00001000
00000010
00000001
00000001
00000010
00000100
00000001
00001000
,
00000100
00000000
00000010
00000000
00001000
00000000
00010000
00001000
00020000
00000000
00000000
00000000
00000000
00000000
00000000
00000000
,
00000000
00000000
00000000
00000000
,
00000000
00000000
00000000
00000000
,
00000000
00000000
00000000
00000000
,
00000000
00000000
00000000
00000000
,
00000000
00000000
00000000
00000000
,
00000000
00000000
00030000
00022000
,
00033000
00001000
00000010
00000001
,
00000100
00000000
00001000
00000000
00010000
00000000
00001000
00010000
,
00022000
00033000
00010000
00100000
,
10000000
00000000
01000000
00000000
00010000
00000000
00001000
01000000
,
00010000
00100000
00001000
00010000
00000020
00000000
00010030
00000100
,
00001000
00000010
00010000
00001000
00200000
00000000
00310000
01000000
,
00100000
10000000
01000000
00010000
00001000
00010000
00000020
00000000
,
00000000
00000000
00000000
00000000
00000030
00000000
00000100
00001000
,
00000100
00000001
00000010
00000100
00010000
00001000
01000000
00100000
,
00010000
00100000
10000000
00010000
00100000
00000000
01000000
00010000
,
00001000
00010000
00000010
00000100
00000100
00001000
00010000
00000100
,
00001000
00000010
00000100
00000001
00000010
00000000
00000100
00000001
,
00000100
00001000
00000010
00010000
00001000
00100000
00010000
01000000
,
10000000
01000000
00100000
10000000
01000000
00010000
00001000
00000000
,
00000010
00000100
00001000
00000010
00000100
00001000
00010000
01000000
,
10000000
01000000
00020000
00000000
00032000
00000000
00003010
00000100
,
00000110
00000000
00001000
00000001
00000100
00001000
00000100
00000010
,
00010000
00001000
00100000
00010000
01000000
10000000
01000000
00010000
,
00100000
01000000
00010000
00001000
00000100
00000010
00001000
00000001
,
00000010
00001000
00010000
00010000
00100000
01000000
10000000
00000000
,
01010000
00000000
10000000
01000000
00010000
00001000
01000000
00010000
,
00100000
00000000
00001000
00000000
00000000
00011000
00000000
00000000
00010100
00000000
00000000
00000000
00000010
00000000
00000000
00010000
,
00000000
00000000
00000000
00000000
00000000
00000000
00001000
00000000
00000000
00000000
00000000
00000000
01000000
00000000
00000000
00000000
00000000
00000000
00000000
00000000
00000000
00001000
00000000
00000000
00000000
00000000
00000000
00000000
00000000
00000000
00010000
00000000
00000000
00000000
00000000
00000000
00000100
00000000
00000000
00000000
00010000
00000000
00000000
00000000
00001000
00000000
00000000
00000000
,
00100000
00001000
00010000
00000100
00000000
00000000
00000000
00000000
00000000
00000010
00000000
00000000
,
00000001
00000100
00001000
00010000
,
01000000
00100000
00001000
00010000
,
00100000
10000000
00010000
00100000
,
00000000
01100000
00000000
01000000
,
00010000
00001000
00000100
00000010
,
00001000
00000001
00000010
00000100
,
00010000
00001000
00000100
00000010
,
00000000
00000110
00000000
00000100
,
00001000
00010000
01000000
00010000
,
00001000
00010000
00100000
10000000
,
00010000
00100000
01000000
00010000
,
00000000
00011000
00000000
00001000
,
00000010
00000100
00001000
00000001
,
00000100
00000010
00000001
00000010
,
00001000
00000001
00000010
00001000
,
00000000
00000000
00000000
00000000
00011000
00000000
00000000
00000000
00000000
00000000
00000000
00000000
01000000
00010000
00100000
00001000
,
00000000
00010000
00000000
00100000
00000000
10000000
00000000
01000000
00000000
00100000
00000000
00000000
00001000
00010000
00000010
00001000
,
00000000
00000001
00000000
00000010
00000000
00000100
00000000
00001000
00000001
00000100
00000010
00000000
00001000
00000100
00010000
00001000
,
00000000
01000000
00000000
00010000
00000000
00100000
00000000
00001000
00000000
00010000
00000000
00000000
00100000
10000000
00010000
10000000
,
00000000
01000000
00000000
00010000
00000000
00001000
00000000
00000010
00000100
00001000
00000002
00000000
00000000
00000000
00000000
00000000
,
00000000
00000000
00000000
00000000
,
00000000
00000000
00000000
00000000
,
00000000
00000003
00000000
00000000
00000000
00000000
00000000
00000000
;

//---------------dance-double - forcednature-EDP----------------
#NOTES:
     dance-double:
     forcednature:
     Hard:
     18:
     :
00000000
00000000
00000000
00000000
,
00000000
00000000
00000000
00000000
,
00000000
00000000
00000000
00000000
,
00000000
00000000
00000000
00000000
,
00000000
00000000
00000000
00000000
,
00000000
00000000
00000000
00000000
,
00000000
00000000
00000000
00000000
,
00000000
00000000
00000000
00000000
,
00001000
00010000
00100000
01000000
00010000
00100000
01000000
00000000
,
00010000
00001000
00000010
00000100
00001000
00000010
00000100
00000000
,
00001000
00010000
01000000
00100000
00010000
01000000
10000000
01000000
,
00100000
10000000
01000000
00010000
00001000
00000100
00000001
00000000
,
00000010
00000100
00001000
00000001
00000100
00001000
00010000
00000000
,
01000000
00100000
00001000
00010000
00100000
10000000
00010000
00000000
,
10000000
00100000
00010000
00001000
00000100
00000010
00001000
00000001
,
00000010
00000000
00000001
00000100
,
00001000
00010000
01000000
10000000
,
00200000
00300000
10000000
01000000
,
00010000
00001000
00000100
00000001
,
00000020
00000030
00001000
00000010
,
00000100
00010000
00001000
01000000
,
00200000
00300000
00010000
00100000
,
01000000
00000000
00001000
00000000
00010000
00000000
00000000
00010100
,
00000000
00000000
00000100
00000000
00001000
00000001
00001000
00000000
,
00000010
00000000
00000100
00000000
00001000
00010000
00001000
00000000
,
00100000
00000000
00010000
00000000
01000000
00001000
01000000
00000000
,
00100000
00100000
00100000
00100000
,
00100000
00000000
10000000
00000000
00010000
00000000
01000000
00000000
00002000
00003000
00000000
00000000
00022000
00000000
00000000
00000000
,
00000000
00000000
00000000
00000000
00000000
00000000
00000000
00000000
00033000
00000000
00000000
00000000
00001000
00000000
00000010
00000100
,
00000010
00000001
00001000
00000000
00000001
00000000
00000100
00000000
00001000
00000000
00000100
00000000
00001000
00000000
00010000
00001000
,
01000000
00010000
01000000
00000000
00100000
10000000
00100000
10000000
00010000
00000000
00010000
00000000
00100000
00000000
00010000
01000000
,
00001000
00010000
00001000
00000000
00100000
00000000
00010000
00000000
00001000
00000100
00000000
00001000
00000100
00000000
00000010
00000001
,
00000100
00000000
00000001
00001000
00000001
00000000
00000010
00000000
00001000
00010000
00001000
00010000
00000010
00000000
00001000
00000100
,
00010000
00001000
00010000
00000000
00100000
00000000
01000000
00000000
00100000
00000000
10000000
00010000
00100000
00000000
01000000
10000000
,
01000000
00100000
00010000
00000000
00001000
00000000
00000100
00000000
00000110
00000000
00000000
00000000
00000010
00000001
00001000
00000001
,
00000100
00000000
00000010
00001000
00000000
00010000
01000000
00000000
00100000
10000000
00010000
00000000
10010000
00000000
10000000
01000000
,
00100000
00001000
00010000
00000000
00000010
00001000
00000100
00001000
00000002
00000000
00000000
00000000
00000013
00000000
00000100
00001000
,
00000100
00010000
00001000
00000000
00000100
00000000
00001000
00000000
00010000
00000000
00100000
00000000
01000000
00000000
00100000
10000000
,
00010000
01000000
00010000
00000000
10000000
01000000
00100000
00010000
01000000
00000000
01000000
00000000
00001000
00000000
00000000
00000000
,
00010200
00000000
00000000
00000000
00000000
00000000
00000000
00000000
00000000
00001000
00000000
00000000
00000000
00000000
00000000
00000000
00000000
00000000
00000001
00000000
00000000
00000000
00000000
00000000
00000000
00000000
00000000
00001000
00000000
00000000
00000000
00000000
00000000
00000000
00000000
00000000
00010300
00000000
00000000
00000000
00000000
00000000
00000000
00000000
00010100
00000000
00000000
00000000
,
00000000
00000000
00000000
00000000
01001000
00000000
00000000
00000000
00000000
00000000
00000000
00000000
01000000
00000000
00000000
00000000
00010000
00000000
00000000
00000000
00100000
00000000
00000000
00000000
01000000
00000000
00000000
00000000
00000000
00000000
00000000
00000000
00000000
00000000
00000000
00000000
10010000
00000000
00000000
00000000
00000000
00000000
10000000
00000000
00000000
00100000
00000000
00000000
,
01000000
00010000
01000000
00000000
00100000
00000000
00010000
00000000
00000100
00000000
00000000
00000000
00001001
00000000
00000001
00000010
,
00000100
00001000
00000100
00000000
00000010
00000000
00001000
00000000
01000000
00000000
00000000
00000000
01100000
00000000
00100000
10000000
,
00010000
10000000
01000000
00000000
00100000
00010000
00100000
00001000
00010000
00000000
00000000
00000000
00002020
00000000
00000000
00000000
,
00003000
00000000
00000001
00000001
00000031
00000000
00000010
00001000
,
00010000
00000000
01000000
00000000
00100000
00000000
10000000
00000000
00010000
00100000
01000000
10000000
00010000
00000000
01000000
00010000
,
01000000
00001000
00010000
00000000
00010000
00000000
00010000
00000000
00020000
00000000
00000000
00000000
00031000
00000000
00000010
00000000
,
00000100
00000000
00001000
00000000
00000001
00000100
00000010
00001000
00000001
00000000
00000000
00000000
00000010
00000000
00001000
00000000
,
00010000
00000000
00001000
01000000
00010000
01000000
00001000
01000000
00020000
00000000
00000000
00000000
00130000
00000000
01000000
00000000
,
10000000
00000000
01000000
00000000
00010000
00000000
00001000
00000000
00000100
00000010
00001000
00000010
00010000
00000000
00001000
00000000
,
00000010
00000000
00001000
00000000
00010000
00000100
00001000
00000000
00000020
00000000
00000000
00000000
00000130
00000000
00001000
00000000
,
00010000
00000000
01000000
00000000
00100000
00010000
01000000
00100000
10000000
00000000
00000000
00000000
11000000
00000000
00000000
00000000
,
01000000
00010000
01000000
00010000
00001000
00000000
00010000
00000010
00002000
00000000
00000000
00000000
00003001
00001000
00000100
00000010
,
00000001
00000000
00000001
00000000
00000100
00001000
00010000
00001000
00100000
00010000
00100000
00000000
01000000
00000000
01000000
00000000
,
01000000
10000000
00100000
00000000
01000000
00010000
00100000
00000000
00001000
00000000
00010000
00000000
00000010
00001000
00000010
00000100
,
00000001
00000000
00000001
00000000
00000010
00000100
00001000
00000100
00010000
00001000
00100000
00000000
01000000
10000000
01000000
00000000
,
00020000
00000000
00000000
00000000
00030010
00000000
00010000
00001000
00010000
00000000
00000100
00000000
00000110
00000000
00000000
00001001
,
00000000
00000000
00000110
00000000
00000001
00000100
00000010
00001000
00000010
00010000
00001000
00000000
00100000
00010000
01000000
00010000
,
00100000
01000000
10000000
00000000
00100000
00000000
01000000
00010000
01000000
00001000
00010000
00000000
00000100
00001000
00000010
00000000
,
00000200
00000000
00000000
00000000
00000301
00000100
00000010
00000100
00000001
00001000
00000100
00000000
00000010
00000100
00001000
00000100
,
00010000
00001000
01000000
00000000
00100000
10000000
00010000
10000000
01000000
00100000
00010000
00000000
01000000
00010000
01000000
00001000
,
00010000
00000010
00001000
00000000
00000100
00010000
00000100
00001000
00000010
00000000
00000010
00000000
00000100
00000001
00000100
00001000
,
00010000
00001000
00100000
00000000
00110000
00000000
00010000
10000000
00100000
10000000
01000000
00000000
00100000
00000000
00010000
00000000
,
00001000
00000100
00001000
00000010
00010000
00000000
00001000
00000000
00000010
00000000
00000100
00001000
00000001
00000000
00000100
00000000
,
00001000
00000000
00010000
00000000
00100000
01000000
00010000
10000000
02000000
00000000
00000000
00000000
00000000
00000000
00000000
00000000
,
00000000
00000000
00000000
00000000
,
00000000
00000000
00000000
00000000
,
00000000
00000000
00000000
00000000
,
00000000
00000000
00000000
00000000
,
00000000
00000000
00000000
00000000
,
00000000
00000000
03000000
01100000
,
00100000
00001000
00010000
00000010
00000100
00001000
00000100
00000001
,
00000010
00000100
00000001
00000100
00010000
00000000
00011000
00001000
,
01001000
00000000
01000000
00010000
00100000
01000000
00010000
00001000
,
00010000
00100000
10000000
00010000
00100000
00000000
01000000
00010000
,
00001000
00010000
00000010
00001000
00000002
00000000
00000103
00001000
,
00010000
00001000
00100000
00010000
20000000
00000000
31000000
00010000
,
00001000
00000000
00000100
00000000
00000010
00000000
00000100
00000001
00000100
00000001
00000100
00000001
00000020
00000000
00000000
00000000
,
00000000
00000000
00000000
00000000
00000030
00000000
00000100
00001000
,
00000001
00000100
00000010
00001000
00000001
00000000
00000010
00000100
00010000
00000000
00001000
00100000
00010000
00000000
00010000
01000000
,
00100000
10000000
00100000
01000000
00020000
00000000
00100000
00000000
10030000
00000000
00010000
00000000
00100000
00000000
00001000
00010000
,
00000100
00001000
00000100
00000000
00000010
00000000
00000010
00000001
00000100
00000000
00000010
00001000
00000100
00000000
00010000
00001000
,
01000000
00010000
01000000
00001000
00010000
00100000
01000000
00000000
00010000
00000000
00010000
00000000
10010000
00000000
10000000
01000000
,
00100000
00000000
01000000
10000000
00010000
00000000
01000000
00001000
00010000
00000100
00001000
00000100
00000010
00000000
00000001
00001000
,
00000001
00000100
00000010
00001000
00000001
00000000
00000010
00000000
00001000
00000000
00010000
00000000
00100000
01000000
00010000
01000000
,
00100000
00000000
10000000
01000000
00100000
01000000
10000000
00000000
00010000
01000000
00001000
00010000
00002000
00000000
00003020
00000000
,
00000032
00000000
00000203
00000000
00002300
00000000
00023000
00000000
00030200
00000000
00000000
00000000
00000310
00000000
00000001
00000100
,
00000010
00000000
00001000
00000001
00000010
00000100
00001000
00000000
00000010
00000000
00010000
00001000
00100000
00000000
00001000
00010000
,
00100000
00000000
01000000
00010000
10000000
00100000
10000000
01000000
00100000
00000000
00001000
00000000
00000010
00000000
00000100
00000000
,
00001000
00000000
00000001
00000100
00000010
00001000
00000001
00000000
00000010
00000000
00001000
00000000
00010000
00000000
00100000
01000000
,
00010000
00000000
00100000
01000000
10000000
00010000
10000000
00100000
01000000
00000000
00010000
00000000
00100000
00000000
00000000
00000000
,
00001100
00000000
00000000
00000100
00000010
00000000
00000001
00001000
00000010
00000000
00000100
00000010
00001000
00000000
00000100
00000000
,
00010000
00000000
01001000
00000000
00000000
00011000
00000000
00000000
00010010
00000000
00000000
00000000
00001100
00000000
00000000
00010100
,
00000000
00000000
00000000
00000000
00000000
00000000
00101000
00000000
00000000
00000000
00000000
00000000
01010000
00000000
00000000
00000000
00000000
00000000
00000000
00000000
00000000
01001000
00000000
00000000
00000000
00000000
00000000
00000000
00000000
00000000
00010010
00000000
00000000
00000000
00000000
00000000
00000010
00000000
00000000
00000000
00000100
00000000
00000000
00000000
00001000
00000000
00000000
00000000
,
00010000
00000000
00100000
00000000
01000000
00000000
00010000
00000000
00000000
00000000
00000000
00000000
00000000
00000000
00000000
00000000
00000000
00000000
10000000
00000000
00000000
01000000
00000000
00000000
,
10000000
01000000
00100000
01000000
00100000
00010000
00100000
00001000
,
00010000
00000100
00002000
00000000
00000000
00000000
00003010
00001000
,
00000010
00001000
00000001
00000010
00000100
00001000
00000010
00000000
,
00000000
00000000
00001001
00000000
00000000
00000000
00000001
00000100
,
00000001
00000100
00000010
00000100
00000010
00001000
00000010
00010000
,
00001000
01000000
00020000
00000000
00000000
00000000
00130000
00010000
,
00100000
00010000
10000000
00100000
01000000
00010000
00100000
00000000
,
00000000
00000000
10010000
00000000
00000000
00000000
10000000
01000000
,
10000000
01000000
00100000
01000000
00100000
01000000
00100000
00010000
,
00100000
00001000
00010000
00000010
00001000
00000010
00000100
00000001
,
00000100
00000001
00001000
00000100
00001000
00000100
00000010
00000000
,
00000000
00000000
00001001
00000000
00000000
00000000
00000001
00000100
,
00000001
00000100
00000010
00000100
00000010
00000100
00000010
00001000
,
00000010
00010000
00001000
00100000
00010000
00100000
01000000
10000000
,
01000000
10000000
00010000
01000000
00010000
01000000
00100000
00000000
,
00000000
00000000
00000000
00000000
10010000
00000000
00000000
00000000
00000000
00000000
00000000
00000000
10000000
01000000
00100000
00001000
,
00000000
00010000
00000000
00000010
00000000
00001000
00000000
00000001
00000000
00000010
00000000
00000000
00000100
00001000
00000100
00010000
,
00000000
00001000
00000000
00000100
00000000
00001000
00000000
01000000
00010000
00100000
01000000
00000000
10000000
01000000
00010000
00001000
,
00000000
01000000
00000000
00010000
00000000
00100000
00000000
00001000
00000000
00010000
00000000
00000000
00000010
00001000
00000100
00000001
,
00000000
00000100
00000000
00010000
00000000
00001000
00000000
01000000
00010000
00100000
00002000
00000000
00000000
00000000
00000000
00000000
,
00000000
00000000
00000000
00000000
,
00000000
00000000
00000000
00000000
,
00000000
00003100
00000000
00000000
00000000
00000000
00000000
00000000
;
