#TITLE:INFINITAS beyond;
#ARTIST:tykoneko;
#BANNER:INFINITAS beyond.png;
#BACKGROUND:INFINITAS beyond-bg.png;
#MUSIC:INFINITAS beyond.ogg;
#OFFSET:-0.001;
#SAMPLESTART:27.2;
#SAMPLELENGTH:15;
#BPMS:0=150;

//---------------dance-single - NewbStepper-bSP----------------
#NOTES:
     dance-single:
     NewbStepper:
     Beginner:
     4:
     :
0000
0000
0000
0000
,
0000
0000
0000
0000
,
0000
0000
0000
0000
,
0000
0000
0000
0000
,
0000
0000
0000
0000
,
0000
0000
0000
0000
,
0000
0000
0000
0000
,
0000
0000
0000
0000
,
0000
0000
0000
0000
,
1000
0000
0000
0000
,
0000
0000
0000
0000
,
0000
0000
0000
0000
,
0000
0000
0000
0000
,
0001
0000
0000
0000
,
0001
0000
0000
0000
,
1000
0000
1000
0000
,
0020
0000
0030
0000
,
1000
1000
0000
1000
,
0000
1000
0000
1000
,
0001
0001
0000
0001
,
0000
0001
0000
0001
,
0100
0100
0000
0100
,
0000
0100
0000
0100
,
0010
0000
0010
0000
,
0100
0000
0100
0000
,
0001
0001
0000
0001
,
0000
0001
0000
0001
,
1000
1000
0000
1000
,
0000
1000
0000
1000
,
0100
0100
0000
0100
,
0000
0100
0000
0100
,
0010
0000
0010
0000
,
0200
0000
0300
0000
,
1000
0001
0000
0001
,
0000
0001
0000
0001
,
0100
0010
0000
0010
,
0000
0010
0000
0010
,
1000
0100
0000
0100
,
0000
0100
0000
0100
,
1000
1000
0000
1000
,
0000
1000
0000
1000
,
0001
0000
0000
0000
,
0000
0000
0000
0000
,
0000
0000
0000
0000
,
0000
0000
0000
0000
,
1000
0000
0000
0000
,
1000
0000
0000
0000
,
0001
0000
0001
0000
,
0020
0000
0030
0000
,
0001
0001
0001
0000
,
1000
1000
1000
0000
,
0010
0010
0010
0000
,
0100
0100
0100
0000
,
0001
0000
0010
0000
,
1000
0000
0100
0000
,
0001
0000
0010
0000
,
1001
0000
0000
0000
,
1000
1000
1000
0000
,
0001
0001
0001
0000
,
0010
0010
0010
0000
,
0100
0100
0100
0000
,
1000
0000
0010
0000
,
0001
0000
0100
0000
,
1000
0000
0010
0000
,
1001
0000
0000
0000
,
0001
0001
0000
0001
,
0000
0001
0000
0001
,
1000
1000
0000
1000
,
0000
1000
0000
1000
,
0010
0010
0000
0010
,
0000
0010
0000
0010
,
0100
0100
0000
0100
,
0000
0100
0000
0100
,
0001
0000
0001
0000
,
0010
0000
0010
0000
,
0100
0000
0100
0000
,
1000
0000
1000
0000
,
0001
0000
0001
0000
,
0100
0000
0100
0000
,
0010
0000
0010
0000
,
1000
0000
1000
0000
,
1001
0000
0000
0000
;

//---------------dance-single - NewbStepper-BSP----------------
#NOTES:
     dance-single:
     NewbStepper:
     Easy:
     8:
     :
0000
0000
0000
0000
,
0000
0000
0000
0000
,
0000
0000
0000
0000
,
0000
0000
0000
0000
,
0000
0000
0000
0000
,
0000
0000
0000
0000
,
0000
0000
0000
0000
,
0000
0000
0000
0000
,
0000
0000
0000
0000
,
1001
0000
0001
0000
,
0001
0000
0001
0000
,
1000
0000
1000
0000
,
1000
0000
1000
0000
,
1001
0000
0000
0000
,
1001
0000
0000
0000
,
1001
0000
0110
0000
,
2002
0000
0000
3003
,
0010
0000
1000
0000
0100
1000
0001
0000
,
0010
1000
0100
0001
,
0010
0000
0001
0000
0100
0001
1000
0000
,
0010
0001
0100
1000
,
0001
0000
0100
0000
0001
0010
0100
0000
,
1000
0010
0001
0100
,
1000
0101
0001
1100
,
0220
0000
0000
0330
,
0010
0000
0001
0000
0100
0001
1000
0000
,
0010
0001
0100
1000
,
0010
0000
1000
0000
0100
1000
0001
0000
,
0010
1000
0100
0001
,
1000
0000
0100
0000
1000
0010
0100
0000
,
0001
0010
1000
0100
,
0001
1100
1000
0101
,
0220
0000
0000
0330
,
1000
0100
0001
0010
,
1000
0001
0100
0100
,
0001
0010
1000
0100
,
0001
0100
0010
1000
,
0001
0100
1000
0010
,
0001
1000
0100
0100
,
1000
0010
0001
0100
,
1000
0100
0010
0001
,
2002
0000
0000
0000
,
0000
0000
0000
0000
,
0000
0000
0000
0000
,
0000
0000
3003
0000
,
1001
0000
0000
0000
,
1001
0000
0000
0000
,
1001
0000
0110
0000
,
2002
0000
0000
3003
,
0010
0001
0010
0001
,
1000
0010
0100
0000
0001
0010
0100
0000
,
1000
0010
1000
0010
,
0100
0000
0001
1000
0100
0010
0001
0000
,
0100
0010
0100
0010
,
1000
0000
0001
0100
0000
0010
1000
0000
,
0001
1100
1000
0101
,
0220
0000
0000
0330
,
0010
1000
0010
1000
,
0001
0010
0100
0000
1000
0010
0100
0000
,
0001
0010
0001
0010
,
0100
0000
1000
0001
0100
0010
1000
0000
,
0100
0010
0100
0010
,
0001
0000
1000
0100
0000
0010
0001
0000
,
1000
0101
0001
1100
,
0220
0000
0000
0330
,
1001
0000
1000
0010
0100
0010
1000
0000
,
0001
0100
1000
0010
,
0001
0000
1000
0100
0010
0100
1000
0000
,
0001
0000
1000
0100
0001
0000
0100
0000
,
1001
0000
0001
0010
0100
0010
0001
0000
,
1000
0100
0001
0010
,
1000
0000
0001
0100
0010
0100
0001
0000
,
1000
0000
0001
0100
1000
0000
0100
0000
,
1001
0001
0001
0001
,
1000
1000
1000
1000
,
0010
0010
0010
0010
,
0100
0100
0100
0100
,
0001
0000
1000
0000
0100
0000
0010
0001
,
1000
0000
0001
0000
0100
0000
0010
1000
,
0001
0000
1000
0000
0010
0000
0100
0001
,
2000
0000
0000
0000
3000
0000
0001
0100
,
0010
0000
0000
0000
;

//---------------dance-single - NewbStepper-DSP----------------
#NOTES:
     dance-single:
     NewbStepper:
     Medium:
     12:
     :
0000
0000
0000
0000
,
0000
0000
0000
0000
,
0000
0000
0000
0000
,
0000
0000
0000
0000
,
0000
0000
0000
0000
,
0000
0000
0000
0000
,
0000
0000
0000
0000
,
0000
0000
0000
0000
,
0000
0000
0000
0000
,
1001
1000
0100
0000
,
0100
0000
0100
1000
,
0001
0001
0100
0000
,
0100
0000
0100
0001
,
1001
0000
0000
0000
,
1001
0000
0000
0000
,
1001
0000
1001
0000
,
0001
0000
0000
0001
0000
0000
0001
0000
1000
0000
0000
1000
0000
0000
1000
0000
,
0010
1000
0001
0001
0000
0100
0000
0001
,
0000
0000
1000
0000
0000
0100
0000
0000
0001
0000
0000
0100
0000
0000
1000
0000
,
0000
0000
0001
0000
0010
0000
0010
0000
0000
0000
0100
0000
0000
1000
0000
0010
,
0000
0000
0001
0000
0000
0010
0000
0000
1000
0000
0000
0100
0000
0000
1000
0000
,
0000
0010
0100
0100
0000
1000
0000
0100
,
0000
0000
0001
0000
0000
0010
0000
0000
1000
0000
0000
0010
0000
0000
0001
0000
,
0000
0000
1000
0000
0000
0100
0000
0010
0000
0100
0010
0000
0000
0000
0001
0000
,
1000
0000
0000
1000
0000
0000
1000
0000
0001
0000
0000
0001
0000
0000
0001
0000
,
0010
0001
1000
1000
0000
0100
0000
1000
,
0000
0000
0001
0000
0000
0100
0000
0000
1000
0000
0000
0100
0000
0000
0001
0000
,
0000
0000
1000
0000
0010
0000
0010
0000
0000
0000
0100
0000
0000
0001
0000
0010
,
0000
0000
1000
0000
0000
0010
0000
0000
0001
0000
0000
0100
0000
0000
0001
0000
,
0000
0010
0100
0100
0000
0001
0000
0100
,
0000
0000
1000
0000
0000
0010
0000
0000
0001
0000
0000
0010
0000
0000
1000
0000
,
0000
0000
0001
0000
0000
0100
0000
0010
0000
0100
0010
0000
0000
0000
1000
0000
,
0002
0000
0000
0003
,
0100
1001
0100
1001
,
1000
0000
0100
0000
0001
0000
0100
0000
1000
0000
0000
0001
0000
0000
1000
0000
,
0010
1001
0010
1001
,
0010
0000
0000
0010
0000
0000
0100
0000
0000
0100
0000
0000
0010
0000
0000
0000
,
0100
1001
0100
1001
,
0001
0000
0100
0000
1000
0000
0100
0000
0001
0000
0000
1000
0000
0000
0001
0000
,
0010
1001
0010
1001
,
0010
0000
0000
0010
0000
0000
0100
0000
0000
0100
0000
0000
0010
0000
0000
0000
,
2002
0000
0000
0000
,
0000
0000
0000
0000
,
0000
0000
0000
0000
,
0000
0000
3003
0000
,
1001
0000
0000
0000
,
1001
0000
0000
0000
,
1001
0000
1001
0000
,
1000
0000
0000
1000
0000
0000
1000
0000
0001
0000
0000
0001
0000
0000
0001
0000
,
0100
0000
0000
0010
0000
0000
0100
0000
0000
0001
0000
0000
0010
0000
1000
0000
,
0000
0010
0000
0001
0000
0000
1000
0000
0010
0000
0000
0100
0000
0000
0001
0000
,
0000
1000
0000
0010
0000
0000
1000
0000
0001
0000
0100
0000
1000
0000
0100
0000
,
0010
0000
0000
1000
0000
0000
0001
1000
0000
0001
0000
0100
0000
0010
0000
0000
,
1000
0000
0000
0001
0000
0000
1000
0000
0000
0010
0000
1000
0000
0100
0000
0000
,
0010
0000
0000
0001
0000
0000
1000
0000
0000
0000
0100
0000
0000
0001
0000
0000
,
0100
0000
0000
0010
0000
0000
0100
0000
0000
1000
0000
0000
0001
0000
0100
0000
,
0001
0000
0000
0001
0000
0000
0001
0000
1000
0000
0000
1000
0000
0000
1000
0000
,
0100
0000
0000
0010
0000
0000
0100
0000
0000
1000
0000
0000
0010
0000
0001
0000
,
0000
0010
0000
1000
0000
0000
0001
0000
0010
0000
0000
0100
0000
0000
1000
0000
,
0000
0001
0000
0010
0000
0000
0001
0000
1000
0000
0100
0000
0001
0000
0100
0000
,
0010
0000
0000
0001
0000
0000
1000
0001
0000
1000
0000
0100
0000
0010
0000
0000
,
0001
0000
0000
1000
0000
0000
0001
0000
0000
0010
0000
0001
0000
0100
0000
0000
,
0010
0000
0000
1000
0000
0000
0001
0000
0000
0000
0100
0000
0000
1000
0000
0000
,
0100
0000
0000
0010
0000
0000
0100
0000
0000
0001
0000
0000
1000
0000
0100
0000
,
2000
0000
0000
3000
,
0010
0000
1100
0000
0001
0100
1000
0000
,
1000
0000
0100
0000
0001
0000
0000
0000
1000
0000
0000
1000
0000
0000
0100
0000
,
0010
0000
0110
0000
1000
0100
0001
0000
,
0100
0000
0000
0100
0000
0000
0010
0000
0000
0010
0000
0000
0100
0000
0000
0000
,
0010
0000
0101
0000
1000
0100
0001
0000
,
0001
0000
0100
0000
1000
0000
0000
0000
0001
0000
0000
0001
0000
0000
0100
0000
,
0010
0000
0110
0000
0001
0100
1000
0000
,
0100
0000
0000
0100
0000
0000
0010
0000
0000
0010
0000
0000
0100
0000
0000
0000
,
0001
0000
0000
0100
0000
0000
0010
0000
0000
1000
0000
0000
0100
0000
0010
0000
,
0001
0000
0000
0100
0000
0000
0100
0000
1000
0000
0000
0010
0000
0000
0010
0000
,
0001
0000
0000
0010
0000
0000
0100
0000
0000
1000
0000
0000
0001
0000
0100
0000
,
0010
0000
0000
0010
0000
0000
1000
0000
0000
1000
0000
0000
0001
0000
0000
0000
,
1000
0000
0000
0100
0000
0000
0010
0000
0000
0001
0000
0000
0100
0000
0010
0000
,
1000
0000
0000
0100
0000
0000
0100
0000
0001
0000
0000
0010
0000
0000
0010
0000
,
1000
0000
0000
0010
0000
0000
0100
0000
0000
0001
0000
0000
1000
0000
0100
0000
,
0010
0000
0000
0010
0000
0000
0001
0000
0000
0001
0000
0000
1000
0000
0001
0000
,
1001
0000
0000
0000
;

//---------------dance-single - NewbStepper-ESP----------------
#NOTES:
     dance-single:
     NewbStepper:
     Hard:
     14:
     :
0000
0000
0000
0000
,
0000
0000
0000
0000
,
0000
0000
0000
0000
,
0000
0000
0000
0000
,
0000
0000
0000
0000
,
0000
0000
0000
0000
,
0000
0000
0000
0000
,
0000
0000
0000
0000
,
0000
0000
0000
0000
,
1100
1000
0001
0020
0000
0032
0000
0103
,
0000
0000
0020
0000
0000
2030
0000
0000
3002
0000
0000
2003
0000
0000
3100
0000
,
0000
0000
1000
0000
1000
0000
0020
0000
0000
0000
2030
0000
0000
3200
0000
2300
,
0000
0000
3020
0000
0000
0230
0000
0000
0302
0000
0000
0023
0000
0000
0031
0000
,
0101
0000
0000
0000
,
1100
0000
0000
0000
,
1001
0000
1001
0000
,
1100
0000
0000
1001
0000
0000
0011
0000
0101
0000
0000
1001
0000
0000
1010
0000
,
1000
0000
0010
0000
0010
0000
1000
0010
0000
0010
0200
0000
0300
0000
1100
0000
,
0000
0000
0102
0000
0000
0013
0000
0000
1200
0000
0000
0310
0000
0000
0110
0000
,
0000
0000
0001
0000
0001
0000
1000
0010
0000
0010
0100
0000
0100
0001
0000
1001
,
0000
0000
1100
0000
0000
0010
0000
0000
0002
0000
0000
2003
0000
0000
3001
0000
,
0100
0000
1000
0000
1000
0000
0100
0010
0000
0010
0100
0000
0000
0001
1000
0000
,
0000
0000
2100
0000
0000
3010
0000
0000
0102
0000
0000
0013
0000
0000
0110
0000
,
0000
0000
1001
0000
0000
0101
0000
0110
0000
0100
0001
0000
0000
0000
1000
0000
,
0002
0000
0000
0203
0000
0000
0320
0000
2030
0000
0000
3200
0000
0000
0320
0000
,
0031
0000
0010
0000
0010
0000
0001
0010
0000
0010
0200
0000
0300
0000
0101
0000
,
0000
0000
2100
0000
0000
3010
0000
0000
0102
0000
0000
0013
0000
0000
0110
0000
,
0000
0000
1000
0000
1000
0000
0001
0010
0000
0010
0100
0000
0100
1000
0000
1001
,
0000
0000
0101
0000
0000
0010
0000
0000
2000
0000
0000
3002
0000
0000
1003
0000
,
0100
0000
0001
0000
0001
0000
0100
0010
0000
0010
0100
0000
0000
1000
0001
0000
,
0000
0000
0102
0000
0000
0013
0000
0000
2100
0000
0000
3010
0000
0000
0110
0000
,
0000
0000
1001
0000
0000
1100
0000
0110
0000
0100
1000
0000
0000
0000
0001
0000
,
2000
0000
0000
3200
0000
0000
0320
0000
0032
0000
0000
0203
0000
0000
0320
0000
,
2030
3002
0203
2300
0000
3002
0203
2300
,
0000
3002
0203
0302
0023
2030
3200
0302
,
0000
2003
3200
0302
0000
2003
3200
0302
,
0000
2003
3200
2300
3020
0032
0203
2300
,
0000
3020
2030
3020
0000
2030
3200
2300
,
0000
3200
0302
0203
0000
0302
0023
0032
,
0000
0023
2030
3020
0000
2030
3002
2003
,
0000
0000
3002
0000
0203
0000
0302
0000
1003
0001
1000
0100
1000
0001
1000
0100
,
0010
0001
0000
0001
,
0000
0001
0000
0001
,
0110
1000
0000
1000
,
0000
1000
0000
1000
,
1100
0000
0000
0000
,
0101
0000
0000
0000
,
1001
0000
1001
0000
,
0101
0000
0000
1001
0000
0000
1010
0000
1100
0000
0000
1001
0000
0000
0011
0000
,
0010
0000
0001
0100
0000
0001
1000
0000
0010
0100
0000
0001
1000
0000
0001
0000
,
0100
0001
0000
0001
0010
0000
1000
0000
0010
0000
0001
0100
0000
0100
0010
0000
,
0000
1000
0000
0001
0000
0100
0010
0000
1000
0000
0100
0000
0001
0000
0100
0000
,
1000
0010
0000
0010
0100
0000
0100
0001
0000
0100
0000
1000
0000
0100
0000
0000
,
0001
0100
0000
0010
1000
0000
0100
0000
0000
0010
0000
0001
0000
0100
0000
0000
,
0010
0000
0000
1000
0000
0000
1001
0000
0000
0000
0001
0000
0000
0100
0000
0000
,
1010
0000
0000
1001
0000
0000
0011
0000
0000
1001
0000
0000
0001
0000
0100
0000
,
0020
0000
0000
2030
0000
0000
3200
0000
0320
0000
0000
0032
0000
0000
0203
0000
,
0310
0000
1000
0100
0000
1000
0001
0000
0010
0100
0000
1000
0001
0000
1000
0000
,
0100
1000
0000
1000
0010
0000
0001
0000
0010
0000
1000
0100
0000
0100
0010
0000
,
0000
0001
0000
1000
0000
0100
0010
0000
0001
0000
0100
0000
1000
0000
0100
0000
,
0001
0010
0000
0010
0100
0000
0100
1000
0000
0100
0000
0001
0000
0100
0000
0000
,
1000
0100
0000
0010
0001
0000
0100
0000
0000
0010
0000
1000
0000
0100
0000
0000
,
0010
0000
0000
0001
0000
0000
1001
0000
0000
0000
1000
0000
0000
0100
0000
0000
,
0011
0000
0000
1001
0000
0000
1010
0000
0000
1001
0000
0000
1000
0000
0100
0000
,
0020
0000
0000
0032
0000
0000
0203
0000
0320
0000
0000
2030
0000
0000
3200
0000
,
0310
0000
0000
0010
0001
0000
0100
0000
1000
0100
0000
0000
0001
0000
0000
0010
,
0100
0000
0000
1000
0010
0000
0100
0000
0001
1000
0000
1000
0010
0000
0100
0000
,
0001
0010
0001
0010
0001
0010
0001
0010
0100
0000
0000
0100
1000
0000
0010
0000
,
0100
0001
0000
0001
0010
0000
0100
0000
1000
0010
1000
0010
1000
0010
1000
0010
,
0100
0000
0000
0100
0001
0000
0010
0000
1000
0010
0000
0000
0001
0000
0000
0100
,
0010
0000
0000
1000
0100
0000
0010
0000
0001
1000
0000
1000
0010
0000
0100
0000
,
0001
0000
0000
0010
0100
0000
0010
0000
0001
0100
0000
0100
1000
0000
0100
0000
,
0010
1000
0000
1000
0001
0000
0100
0000
0010
1000
0000
1000
0100
0000
0000
0000
,
0020
0000
0030
0001
0200
0000
0300
1000
0200
0000
0300
0001
0020
0000
0030
0100
,
2000
0000
3000
0100
0002
0000
0003
0100
2000
0000
3000
0010
0200
0000
0300
1000
,
0002
0000
0003
0010
2000
0000
3000
0100
0002
0000
0003
1000
0020
0000
0030
0001
,
0200
0000
0300
0010
2000
0000
3000
0100
0020
0000
0030
0001
2000
0000
0000
0000
,
3020
0000
0030
1000
0200
0000
0300
0001
0200
0000
0300
1000
0020
0000
0030
0100
,
0002
0000
0003
0100
2000
0000
3000
0100
0002
0000
0003
0010
0200
0000
0300
0001
,
2000
0000
3000
0010
0002
0000
0003
0100
2000
0000
3000
0001
0020
0000
0030
1000
,
0100
0000
0000
1100
0000
0000
0101
0000
0000
0110
0000
0000
0001
0000
1000
0000
,
1001
0000
0000
0000
;

//---------------dance-double - NewbStepper-BDP----------------
#NOTES:
     dance-double:
     NewbStepper:
     Easy:
     10:
     :
00000000
00000000
00000000
00000000
,
00000000
00000000
00000000
00000000
,
00000000
00000000
00000000
00000000
,
00000000
00000000
00000000
00000000
,
00000000
00000000
00000000
00000000
,
00000000
00000000
00000000
00000000
,
00000000
00000000
00000000
00000000
,
00000000
00000000
00000000
00000000
,
00000000
00000000
00000000
00000000
,
10010000
00000000
10000000
00000000
,
00010000
00000000
00010000
00000000
,
00001000
00000000
00001000
00000000
,
00000001
00000000
00000001
00000000
,
00001001
00000000
00000000
00000000
,
00011000
00000000
00000000
00000000
,
10010000
00000000
01100000
00000000
,
20020000
00000000
00000000
30030000
,
00100000
00000000
10000000
00000000
01000000
00010000
00001000
00000000
,
00000010
00000001
00000100
00001000
,
00010000
00000010
00001000
00010000
,
01000000
00100000
00010000
00001000
,
00000010
00000000
00000001
00000000
00000100
00001000
00010000
00000000
,
00100000
10000000
01000000
00010000
,
00001000
00110000
00010000
00001010
,
00022000
00000000
00000000
00033000
,
00100000
00000000
00001000
00000000
00010000
01000000
10000000
00000000
,
00100000
00001000
00100000
10000000
,
01000000
00000000
00010000
00000000
00001000
00000100
00000001
00000000
,
00001000
00010000
00001000
00000001
,
00000010
00000000
00000100
00000000
00010000
00001000
00000010
00000000
,
00000100
00010000
01000000
00001000
,
00010000
00110000
00001000
00001010
,
00022000
00000000
00000000
00033000
,
00010000
01000000
00001000
00000100
,
00010000
01000000
10000000
00000000
00100000
00000000
00010000
00000000
,
00001000
00000100
00010000
01000000
,
00001000
00000100
00000001
00000000
00000010
00000000
00001000
00000000
,
00010000
00100000
00001000
00000010
,
00010000
00100000
10000000
00000000
01000000
00000000
00010000
00000000
,
00001000
00000010
00010000
00100000
,
00001000
00000010
00000001
00000100
00001000
00000000
00011000
00000000
,
02000000
00000000
00000000
00000000
,
03000000
00000000
00000000
00000000
,
00000200
00000000
00000000
00000000
,
00000300
00000000
00000000
00000000
,
10010000
00000000
00000000
00000000
,
00011000
00000000
00000000
00000000
,
00001001
00000000
00000110
00000000
,
00002002
00000000
00000000
00003003
,
00000001
00000100
00010000
00000100
,
00000001
00000010
00001000
00000000
00010000
00000000
00100000
00000000
,
10000000
01000000
00001000
01000000
,
10000000
00100000
00010000
00000000
00001000
00000000
00000010
00000000
,
00000001
00000100
00010000
01000000
,
10000000
00000000
01000000
00001000
00000000
00010000
00100000
00000000
,
10000000
11000000
00010000
01010000
,
02200000
00000000
00000000
03300000
,
10000000
01000000
00001000
01000000
,
10000000
00100000
00010000
00000000
00001000
00000000
00000010
00000000
,
00000001
00000100
00010000
00000100
,
00000001
00000010
00001000
00000000
00010000
00000000
00100000
00000000
,
10000000
01000000
00001000
00000100
,
00000001
00000000
00000100
00010000
00000000
00001000
00000010
00000000
,
00000001
00000101
00001000
00001100
,
00000220
00000000
00000000
00000330
,
00001001
00000000
00000001
00000100
00000010
00010000
00001000
00000000
,
00010000
00100000
10000000
00000000
01000000
00000000
00110000
00000000
,
10010000
00000000
10000000
01000000
00100000
00001000
00010000
00000000
,
00001000
00000010
00000001
00000000
00000100
00000000
00001010
00000000
,
00001001
00000000
00000001
00000010
00000100
00010000
00001000
00000000
,
00010000
01000000
10000000
00000000
00100000
00000000
01010000
00000000
,
10010000
00000000
10000000
00100000
01000000
00001000
00010000
00000000
,
00001000
00000100
00000001
00000000
00000010
00000000
00001100
00000000
,
00000001
00000100
00010000
00100000
,
00010000
00000100
00000001
00000010
,
00010000
01000000
00010000
00000010
,
00001000
00010000
00100000
01100000
,
10000000
01000000
00001000
00000010
,
00001000
01000000
10000000
00100000
,
00001000
00000100
00001000
00100000
,
00010000
00001000
00000010
00000110
,
00001001
00000000
00000000
00000000
;

//---------------dance-double - NewbStepper-DDP----------------
#NOTES:
     dance-double:
     NewbStepper:
     Medium:
     12:
     :
00000000
00000000
00000000
00000000
,
00000000
00000000
00000000
00000000
,
00000000
00000000
00000000
00000000
,
00000000
00000000
00000000
00000000
,
00000000
00000000
00000000
00000000
,
00000000
00000000
00000000
00000000
,
00000000
00000000
00000000
00000000
,
00000000
00000000
00000000
00000000
,
00000000
00000000
00000000
00000000
,
10010000
10000000
01000000
00000000
,
01000000
00000000
01000000
00010000
,
00001000
00001000
00000100
00000000
,
00000100
00000000
00000100
00000001
,
00001001
00000000
00000000
00000000
,
00011000
00000000
00000000
00000000
,
10010000
00000000
10010000
00000000
,
00010000
00000000
00000000
00010000
00000000
00000000
00010000
00000000
10000000
00000000
00000000
10000000
00000000
00000000
10000000
00000000
,
00100000
10000000
01000000
01000000
00000000
00010000
00000000
00001000
,
00000000
00000000
00000010
00000000
00000000
00000001
00000000
00000000
00000100
00000000
00000000
00001000
00000000
00000000
00010000
00000000
,
00000000
00000000
00000010
00000000
00001000
00000000
00001000
00000000
00000000
00000000
00000100
00000000
00000000
00000010
00000000
00000001
,
00000000
00000000
00000100
00000000
00000000
00001000
00000000
00000000
00010000
00000000
00000000
01000000
00000000
00000000
10000000
00000000
,
00000000
00100000
01000000
01000000
00000000
00010000
00000000
00001000
,
00000000
00000000
00000010
00000000
00000000
00000100
00000000
00000000
00010000
00000000
00000000
00000100
00000000
00000000
00000010
00000000
,
00000000
00000000
00001000
00000000
00000000
00000010
00000000
00000100
00000000
00000010
00000100
00000000
00000000
00000000
00000001
00000000
,
00001000
00000000
00000000
00001000
00000000
00000000
00001000
00000000
00000001
00000000
00000000
00000001
00000000
00000000
00000001
00000000
,
00000010
00000001
00000100
00000100
00000000
00001000
00000000
00010000
,
00000000
00000000
00100000
00000000
00000000
10000000
00000000
00000000
01000000
00000000
00000000
00010000
00000000
00000000
00001000
00000000
,
00000000
00000000
00100000
00000000
00010000
00000000
00010000
00000000
00000000
00000000
01000000
00000000
00000000
00100000
00000000
10000000
,
00000000
00000000
01000000
00000000
00000000
00010000
00000000
00000000
00001000
00000000
00000000
00000100
00000000
00000000
00000001
00000000
,
00000000
00000010
00000100
00000100
00000000
00001000
00000000
00010000
,
00000000
00000000
00100000
00000000
00000000
01000000
00000000
00000000
00001000
00000000
00000000
01000000
00000000
00000000
00100000
00000000
,
00000000
00000000
00010000
00000000
00000000
00100000
00000000
01000000
00000000
00100000
01000000
00000000
00000000
00000000
10000000
00000000
,
00020000
00000000
00000000
00030000
,
01000000
00011000
01000000
00011000
,
00010000
00000000
01000000
00000000
10000000
00000000
01000000
00000000
00010000
00000000
00000000
00001000
00000000
00000000
00000100
00000000
,
00000010
00011000
00000010
00011000
,
00010000
00000000
00000000
00001000
00000000
00000000
00000010
00000000
00000000
00000001
00000000
00000000
00001000
00000000
00000000
00000000
,
00000100
00011000
00000100
00011000
,
00001000
00000000
00000100
00000000
00000001
00000000
00000100
00000000
00001000
00000000
00000000
00010000
00000000
00000000
01000000
00000000
,
00100000
00011000
00100000
00011000
,
00001000
00000000
00000000
00010000
00000000
00000000
00100000
00000000
00000000
10000000
00000000
00000000
01000000
00000000
00000000
00000000
,
20020000
00000000
00000000
00000000
,
00000000
00000000
00000000
00000000
,
00000000
00000000
00000000
00000000
,
00000000
00000000
00000000
30030000
,
10010000
00000000
00000000
00000000
,
00011000
00000000
00000000
00000000
,
00001001
00000000
00001001
00000000
,
00001000
00000000
00000000
00001000
00000000
00000000
00001000
00000000
00000001
00000000
00000000
00000001
00000000
00000000
00000001
00000000
,
00000100
00000000
00000000
00000010
00000000
00000000
00000100
00000000
00000000
00000001
00000000
00000000
00000010
00000000
00001000
00000000
,
00000000
00010000
00000000
00100000
00000000
00000000
10000000
00000000
00010000
00000000
00000000
01000000
00000000
00000000
00100000
00000000
,
00000000
10000000
00000000
01000000
00000000
00000000
10000000
00000000
00010000
00000000
01000000
00000000
10000000
00000000
01000000
00000000
,
00010000
00000000
00000000
00100000
00000000
00000000
00001000
00010000
00000000
00000100
00000000
00000010
00000000
00000100
00000000
00000000
,
00010000
00000000
00000000
00001000
00000000
00000000
00010000
00000000
00000000
00100000
00000000
10000000
00000000
01000000
00000000
00000000
,
00010000
00000000
00000000
00001000
00000000
00000000
00000010
00000000
00000000
00000000
00000001
00000000
00000000
00000100
00000000
00000000
,
00001000
00000000
00000000
00010000
00000000
00000000
00001000
00000000
00000000
00010000
00000000
00000000
01000000
00000000
10000000
00000000
,
00010000
00000000
00000000
00010000
00000000
00000000
00010000
00000000
10000000
00000000
00000000
10000000
00000000
00000000
10000000
00000000
,
01000000
00000000
00000000
00100000
00000000
00000000
01000000
00000000
00000000
10000000
00000000
00000000
00100000
00000000
00010000
00000000
,
00000000
00001000
00000000
00000010
00000000
00000000
00000001
00000000
00001000
00000000
00000000
00000100
00000000
00000000
00000010
00000000
,
00000000
00000001
00000000
00000100
00000000
00000000
00000001
00000000
00001000
00000000
00000100
00000000
00000001
00000000
00000100
00000000
,
00001000
00000000
00000000
00000010
00000000
00000000
00010000
00001000
00000000
01000000
00000000
00100000
00000000
01000000
00000000
00000000
,
00001000
00000000
00000000
00010000
00000000
00000000
00001000
00000000
00000000
00000010
00000000
00000001
00000000
00000100
00000000
00000000
,
00001000
00000000
00000000
00010000
00000000
00000000
00100000
00000000
00000000
00000000
10000000
00000000
00000000
01000000
00000000
00000000
,
00010000
00000000
00000000
00001000
00000000
00000000
00010000
00000000
00000000
00001000
00000000
00000000
00000100
00000000
00000001
00000000
,
00002000
00000000
00000000
00003000
,
00000010
00000000
00001001
00000000
00000001
00000100
00001000
00000000
,
00010000
00000000
01000000
00000000
10000000
00000000
00000000
00000000
00010000
00000000
00000000
00010000
00000000
00000000
00100000
00000000
,
00001000
00000000
00011000
00000000
00010000
00001000
00000100
00000000
,
00000010
00000000
00000000
00000010
00000000
00000000
00010000
00000000
00000000
00010000
00000000
00000000
00001000
00000000
00000000
00000000
,
00100000
00000000
10010000
00000000
10000000
01000000
00010000
00000000
,
00001000
00000000
00000100
00000000
00000001
00000000
00000000
00000000
00001000
00000000
00000000
00001000
00000000
00000000
00000010
00000000
,
00010000
00000000
00011000
00000000
00001000
00010000
01000000
00000000
,
00100000
00000000
00000000
00100000
00000000
00000000
00001000
00000000
00000000
00001000
00000000
00000000
00010000
00000000
00000000
00000000
,
00000100
00000000
00000000
00000010
00000000
00000000
00000001
00000000
00000000
00000100
00000000
00000000
00001000
00000000
00010000
00000000
,
01000000
00000000
00000000
10000000
00000000
00000000
10000000
00000000
00100000
00000000
00000000
00010000
00000000
00000000
00010000
00000000
,
00001000
00000000
00000000
00000010
00000000
00000000
00000001
00000000
00000000
00000100
00000000
00000000
00001000
00000000
00010000
00000000
,
00100000
00000000
00000000
00100000
00000000
00000000
10000000
00000000
00000000
10000000
00000000
00000000
00010000
00000000
00000000
00000000
,
01000000
00000000
00000000
00100000
00000000
00000000
10000000
00000000
00000000
01000000
00000000
00000000
00010000
00000000
00001000
00000000
,
00000100
00000000
00000000
00000001
00000000
00000000
00000001
00000000
00000010
00000000
00000000
00001000
00000000
00000000
00001000
00000000
,
00010000
00000000
00000000
00100000
00000000
00000000
10000000
00000000
00000000
01000000
00000000
00000000
00010000
00000000
00001000
00000000
,
00000010
00000000
00000000
00000010
00000000
00000000
00000001
00000000
00000000
00000001
00000000
00000000
00001000
00000000
00000001
00000000
,
00001001
00000000
00000000
00000000
;

//---------------dance-double - NewbStepper-EDP----------------
#NOTES:
     dance-double:
     NewbStepper:
     Hard:
     14:
     :
00000000
00000000
00000000
00000000
,
00000000
00000000
00000000
00000000
,
00000000
00000000
00000000
00000000
,
00000000
00000000
00000000
00000000
,
00000000
00000000
00000000
00000000
,
00000000
00000000
00000000
00000000
,
00000000
00000000
00000000
00000000
,
00000000
00000000
00000000
00000000
,
00000000
00000000
00000000
00000000
,
11000000
10000000
00010000
00200000
00000000
02300000
00000000
03010000
,
00000000
00000000
00002000
00000000
00000000
00003020
00000000
00000000
00000032
00000000
00000000
00000203
00000000
00000000
00001300
00000000
,
00000000
00000000
00010000
00000000
00010000
00000000
00200000
00000000
00000000
00000000
00320000
00000000
00000000
00032000
00000000
00003020
,
00000000
00000000
00000032
00000000
00000000
00000203
00000000
00000000
00000302
00000000
00000000
00000013
00000000
00000000
00000001
00000000
,
00000101
00000000
00000000
00000000
,
00001100
00000000
00000000
00000000
,
00011000
00000000
00110000
00000000
,
10100000
00000000
00000000
10010000
00000000
00000000
01010000
00000000
00110000
00000000
00000000
10010000
00000000
00000000
11000000
00000000
,
10000000
00000000
00010000
00000000
00010000
00000000
00100000
00010000
00000000
00010000
02000000
00000000
03000000
00000000
01001000
00000000
,
00000000
00000000
00020100
00000000
00000000
00030010
00000000
00000000
00001200
00000000
00000000
00000310
00000000
00000000
00000110
00000000
,
00000000
00000000
00001000
00000000
00001000
00000000
00000001
00000010
00000000
00000100
00010000
00000000
00001000
00010000
00000000
00100000
,
00000000
00000000
10000000
00000000
00000000
01000000
00000000
00000000
00020000
00000000
00000000
00032000
00000000
00000000
00013000
00000000
,
00000010
00000000
00001000
00000000
00001000
00000000
00000100
00000010
00000000
00000010
00000001
00000000
00000000
00000100
00001000
00000000
,
00000000
00000000
01002000
00000000
00000000
00103000
00000000
00000000
02010000
00000000
00000000
03100000
00000000
00000000
01100000
00000000
,
00000000
00000000
10000000
01000000
00000000
00010000
00000000
00001000
00000000
00000010
00000001
00000000
00000000
00000000
00001000
00000000
,
00000002
00000000
00000000
00000203
00000000
00000000
00000320
00000000
00002030
00000000
00000000
00003200
00000000
00000000
00000320
00000000
,
00000031
00000000
00001000
00000000
00001000
00000000
00000010
00001000
00000000
00001000
00000200
00000000
00000300
00000000
00010100
00000000
,
00000000
00000000
01002000
00000000
00000000
00103000
00000000
00000000
02010000
00000000
00000000
03100000
00000000
00000000
01100000
00000000
,
00000000
00000000
00010000
00000000
00010000
00000000
10000000
00100000
00000000
01000000
00001000
00000000
00010000
00001000
00000000
00000010
,
00000000
00000000
00000001
00000000
00000000
00000100
00000000
00000000
00002000
00000000
00000000
00023000
00000000
00000000
00031000
00000000
,
00100000
00000000
00010000
00000000
00010000
00000000
01000000
00100000
00000000
00100000
10000000
00000000
00000000
01000000
00010000
00000000
,
00000000
00000000
00020100
00000000
00000000
00030010
00000000
00000000
00001200
00000000
00000000
00000310
00000000
00000000
00000110
00000000
,
00000000
00000000
00000001
00000100
00000000
00001000
00000000
00010000
00000000
00100000
10000000
00000000
00000000
00000000
00010000
00000000
,
20000000
00000000
00000000
32000000
00000000
00000000
03200000
00000000
00320000
00000000
00000000
02030000
00000000
00000000
03200000
00000000
,
20300000
32000000
03020000
00032000
00000000
00203000
00320000
00032000
,
00000000
00003020
00002030
00023000
00030200
00000320
00002030
00003002
,
00000000
00000203
00002300
00023000
00000000
00030020
00002030
00023000
,
00000000
00230000
00320000
00032000
02003000
03200000
00320000
20030000
,
00000000
30200000
20300000
30200000
00000000
20300000
32000000
23000000
,
00000000
32000000
03020000
02030000
00000000
03020000
00032000
00023000
,
00000000
00032000
00003020
00002030
00000000
00003020
00000032
00000023
,
00000000
00000000
00000032
00000000
00000203
00000000
00000302
00000000
00001003
00000100
00001000
00000100
00001000
00000100
00001000
00000100
,
00000020
00000000
00000000
00000000
,
00002030
00000000
00000000
00000000
,
00023000
00000000
00000000
00000000
,
02030000
00000000
00000000
03000000
,
11000000
00000000
00000000
00000000
,
01010000
00000000
00000000
00000000
,
00011000
00000000
00001010
00000000
,
00000011
00000000
00000000
00001001
00000000
00000000
00001100
00000000
00001010
00000000
00000000
00001001
00000000
00000000
00000101
00000000
,
00000100
00000000
00000001
00000010
00000000
00000000
00001000
00000000
00010000
00000100
00000000
00000000
00000010
00000000
00001000
00000000
,
00010000
00001000
00000000
00001000
00100000
00000000
01000000
00000000
10000000
00000000
00100000
00010000
00000000
00010000
00002000
00000000
,
00000000
01003000
00000000
00010000
00000000
01000000
00100000
00000000
00010000
00000000
00001000
00000000
00000010
00000000
00001000
00000000
,
00100000
00010000
00000000
01000000
00000000
00000000
00100000
00010000
00000000
00001000
00000000
00000010
00000000
00001000
00000000
00000000
,
00010000
00000000
00010000
00001000
00000000
00001000
00000100
00000000
00000000
00000001
00000000
00000010
00000000
00001000
00000000
00000000
,
00010000
00000000
00000000
00100000
00000000
00000000
01100000
00000000
00000000
00000000
10000000
00000000
00000000
01000000
00000000
00000000
,
00101000
00000000
00000000
00011000
00000000
00000000
00010010
00000000
00000000
00011000
00000000
00000000
00001000
00000000
00000010
00000000
,
00000002
00000000
00000000
00000203
00000000
00000000
00002300
00000000
00023000
00000000
00000000
02030000
00000000
00000000
23000000
00000000
,
31000000
00000000
10000000
00100000
00000000
00000000
00010000
00000000
00001000
01000000
00000000
00000000
00100000
00000000
00010000
00000000
,
00001000
00010000
00000000
00010000
00000010
00000000
00000100
00000000
00000001
00000000
00000010
00001000
00000000
00001000
00020000
00000000
,
00000000
00030100
00000000
00001000
00000000
00000100
00000010
00000000
00001000
00000000
00010000
00000000
00100000
00000000
00010000
00000000
,
00000010
00001000
00000000
00000100
00000000
00000000
00000010
00001000
00000000
00010000
00000000
00100000
00000000
00010000
00000000
00000000
,
00001000
00000000
00001000
00010000
00000000
00010000
01000000
00000000
00000000
10000000
00000000
00100000
00000000
00010000
00000000
00000000
,
00001000
00000000
00000000
00000010
00000000
00000000
00000110
00000000
00000000
00000000
00000001
00000000
00000000
00000100
00000000
00000000
,
00010010
00000000
00000000
00011000
00000000
00000000
00101000
00000000
00000000
00011000
00000000
00000000
00010000
00000000
00100000
00000000
,
20000000
00000000
00000000
32000000
00000000
00000000
03020000
00000000
00032000
00000000
00000000
00003020
00000000
00000000
00000032
00000000
,
00000103
00000000
00000000
00000100
00001000
00000000
00010000
00000000
00001000
00100000
00000000
00000000
01000000
00000000
00000000
10000000
,
00100000
00000000
00000000
01000000
00010000
00000000
00001000
00000000
00000100
00000000
00000000
00000010
00000000
00000000
00000001
00000000
,
00001000
00000010
00001000
00000010
00001000
00000010
00001000
00000010
00000100
00000000
00000000
00000100
00000001
00000000
00000010
00000000
,
00001000
00010000
00000000
00001000
01000000
00000000
00001000
00010000
00000000
00001000
00100000
00000000
01100000
00000000
00000000
00000000
,
01000000
00000000
00000000
01000000
00010000
00000000
00001000
00000000
00010000
00000010
00000000
00000000
00000100
00000000
00000000
00000001
,
00000010
00000000
00000000
00000100
00001000
00000000
00010000
00000000
01000000
00000000
00000000
00100000
00000000
00000000
10000000
00000000
,
00010000
00000000
00000000
01000000
00100000
00000000
10000000
00000000
01000000
00010000
00000000
00010000
00001000
00000000
00000010
00000000
,
00000001
00000100
00000000
00000100
00000010
00000000
00001000
00000000
00000100
00010000
00000000
00010000
00001000
00000000
00000000
00000000
,
00200000
00000000
00300000
00010000
02000000
00000000
03000000
10000000
02000000
00000000
03000000
00010000
00200000
00000000
00300000
01000000
,
00020000
00000000
00030000
00001000
00000200
00000000
00000300
00000001
00000200
00000000
00000300
00000010
00002000
00000000
00003000
00010000
,
02000000
00000000
03000000
00100000
00020000
00000000
00030000
10000000
02000000
00000000
03000000
00010000
00200000
00000000
00300000
00001000
,
00010000
00000100
00000000
00000100
00000000
00000000
00000110
00000000
00000000
00001001
00000000
00000000
00001010
00000000
00000000
00000000
,
00000020
00000000
00000030
00001000
00000200
00000000
00000300
00000001
00000200
00000000
00000300
00001000
00000020
00000000
00000030
00000100
,
00002000
00000000
00003000
00010000
02000000
00000000
03000000
10000000
02000000
00000000
03000000
00100000
00020000
00000000
00030000
00001000
,
00000200
00000000
00000300
00000010
00002000
00000000
00003000
00000001
00000200
00000000
00000300
00001000
00000020
00000000
00000030
00010000
,
00001000
01000000
00000000
01001000
00000000
00000000
01100000
00000000
00000000
10010000
00000000
00000000
01000000
00000000
00100000
00000000
,
01100000
00000000
00000000
00000000
;
