#TITLE:I'm Something Else;
#ARTIST:SomeThingElseYT;
#BANNER:I'm Something Else.png;
#BACKGROUND:I'm Something Else-bg.png;
#MUSIC:I'm Something Else.ogg;
#OFFSET:-0.1;
#SAMPLESTART:116.215042;
#SAMPLELENGTH:15;
#BPMS:0=93;
#STOPS:141.75=1.29;
#BGCHANGES:-0.25=I'm Something Else.avi=1=0=0=0=StretchNoLoop====,99999=-nosongbg-=1=0=0=0 // don't automatically add -songbackground-;

//---------------dance-single - Pandemonium X-ESP----------------
#NOTES:
     dance-single:
     Pandemonium X:
     Hard:
     8:
     0.285384,0.375872,0.180975,0.020882,0,287,261,26,3,0,0,0.285384,0.375872,0.180975,0.020882,0,287,261,26,3,0,0:
0000
0000
0000
0000
,
0000
0000
0000
0000
,
0000
0000
0000
0000
,
0000
0000
0000
0000
,
1000
0001
1000
0001
,
0010
0100
1000
0001
,
0100
0001
0100
0001
,
1000
0100
0020
0000
,
0130
0000
0010
0001
1000
0000
0100
1000
,
0001
0100
0010
1000
0100
0000
0010
0100
,
1000
0000
1000
0100
0010
0000
0010
0100
,
1000
0001
0100
0010
1000
0000
1001
0000
,
0110
0000
0100
0001
0010
0000
0100
0010
,
0001
1000
0010
1000
0100
0000
1000
0001
,
0100
0000
0010
1000
0100
0000
0010
0001
,
1000
0010
1000
0100
0010
0000
0100
0000
,
0011
0000
0001
0100
1010
0000
1000
0100
,
0010
0100
1000
0001
0110
0010
0110
0100
,
0001
0000
1000
0001
0100
0000
0010
1000
,
0100
0001
0100
0010
0001
0000
0000
0000
,
1000
0010
1000
0010
,
0100
0001
0010
0100
,
1000
0100
0010
0100
,
1000
0010
0100
0000
,
1001
0001
1000
0010
,
1000
0100
0010
0100
,
0010
0100
1000
0100
,
0010
0001
2000
0000
,
3001
0000
0100
0000
0010
0000
0100
0010
,
1001
0001
1000
0100
0010
0000
0100
1000
,
0010
0000
0100
0001
0010
0000
0100
0010
,
0001
0100
1000
0100
0010
0000
0000
1000
,
0100
0000
1000
0010
0001
0000
0001
0010
,
1000
0100
0001
0100
0010
0000
0100
0010
,
0001
0000
0010
0100
1000
0000
0100
0010
,
0001
0100
0010
1000
0100
0000
0010
0100
,
0010
0000
0100
1000
0100
0010
0001
1000
,
0001
0000
0100
0010
0100
0000
0010
0100
,
0010
0000
0100
0010
1000
0001
0010
0001
,
1000
0000
0001
0000
,
1000
0000
0001
1000
,
0010
0000
0100
0000
,
0010
0000
1000
0010
,
0100
0000
0020
0000
,
0000
0000
0000
0000
0000
0000
0000
0030
1001
0000
0000
0000
0010
0000
1000
0000
,
1010
0000
1000
0001
0011
0010
0100
1000
,
1001
0000
0001
0100
0101
0000
0001
1000
,
1010
0000
1000
0010
0110
0001
1001
0010
,
1001
0000
0000
0000
0110
0000
0100
0001
,
0011
0000
0010
0001
0101
0100
0010
1000
,
1010
0000
1000
0001
1010
0000
1000
0001
,
1100
0000
1000
0100
0101
0100
0110
0001
,
1001
0000
0000
0000
0100
0000
0010
0100
,
0010
0000
0100
0010
0100
0010
1000
0001
,
0010
0000
0000
0000
;

//---------------dance-single - Pandemonium X-CSP----------------
#NOTES:
     dance-single:
     Pandemonium X:
     Challenge:
     13:
     0.481275,0.695363,0.208818,0.020882,0.518564,484,454,30,3,0,0,0.481275,0.695363,0.208818,0.020882,0.518564,484,454,30,3,0,0:
0000
0000
0000
0000
,
0000
0000
0000
0000
,
0000
0000
0000
0000
,
0000
0000
0000
0000
,
1000
0000
1000
0010
0100
0000
0100
0010
,
1000
0100
0001
0100
1000
0000
0001
1000
,
0010
0000
0010
1000
0001
0000
0001
1000
,
0010
0001
0010
1000
0002
0000
0000
0000
,
0003
0010
0001
1000
0010
0000
0010
0000
0100
0010
1000
0001
0000
0010
0000
0001
,
1000
0000
0100
0000
0010
0000
0100
0000
0010
0001
0100
0001
0000
1000
0000
0100
,
1000
0000
0010
0000
0100
0001
0010
0001
0100
0010
0100
0001
0000
1000
0000
0100
,
1000
0000
0100
1000
0010
0100
0010
1000
0001
0010
0001
1000
0000
0110
0000
0000
,
0000
1000
0010
1000
0001
0010
0001
1000
0100
1000
0010
0100
0010
1000
0001
0010
,
0100
0010
0001
1000
0010
0100
0001
0010
0001
1000
0010
1000
0010
0100
0001
0010
,
0100
0000
0000
1000
0000
0000
0100
0000
0010
0000
0100
0000
1000
0000
0000
0001
0000
0000
0100
0000
0010
0000
0100
0000
0000
0000
0001
0000
1000
0000
0100
0000
0000
0000
0000
0000
0010
0000
0000
0100
0000
0000
0010
0000
0000
0001
0000
0000
,
1000
0010
1000
0010
0100
0001
0100
0010
0000
0100
0001
1000
0100
0000
0000
0000
,
1001
0000
0000
0000
0000
0000
0001
0100
0010
1000
0001
0010
0100
0000
0000
0000
0000
0000
0010
0001
0100
0010
1000
0100
,
0010
0000
0100
0000
1000
0000
0010
0000
0100
0000
0001
0000
0010
0000
0100
0000
0010
0000
0001
0000
1000
0000
0010
0000
0100
0000
0000
0000
0000
0000
0010
0000
0000
1000
0000
0000
0001
0000
0000
0000
0000
0000
1000
0000
0001
0000
1000
0000
,
0010
0000
0000
0000
0000
0000
0100
0000
0001
0000
0100
0000
0010
0000
1000
0000
0010
0000
1000
0000
0001
0000
0010
0000
0100
0000
0000
0000
0000
0000
0000
0000
0000
0000
0000
0000
0000
0000
0000
0000
0010
0000
0001
0000
0000
0010
0000
0000
,
0001
1000
0010
0001
0010
1000
0010
0001
0010
0000
0000
0000
0000
0000
0000
0000
,
1001
0000
1000
0010
0100
0000
0100
0010
,
1000
0001
0010
0001
1000
0000
0001
0100
,
1000
0000
1000
0100
0001
0000
0001
0010
,
1000
0010
1000
0010
0001
0000
0000
0000
,
1001
0000
0001
0100
0010
0000
0010
0100
,
0001
1000
0100
1000
0001
0000
1000
0010
,
0001
0000
0001
0010
1000
0000
1000
0100
,
0001
0100
0001
0100
2000
0000
0000
0000
,
3001
0000
0000
0000
1000
0100
1000
0001
0010
0000
0000
0000
0100
1000
0001
0010
,
0100
0010
0001
1000
0010
0100
0010
1000
0010
0000
0000
0000
0100
0001
0100
0001
,
1000
0100
1000
0100
1000
0001
0010
0001
1000
0000
0001
0100
0010
1000
0001
0010
,
0100
0000
0000
0010
0000
0000
0100
0000
0000
1000
0000
0000
0001
0000
0000
0100
0000
0000
0010
0000
0000
1000
0000
0000
0010
0000
0000
0000
0000
0000
0000
0000
0000
0000
0000
0000
0000
0000
0000
0000
1000
0000
0100
0000
1000
0000
0010
0000
,
1000
0000
0000
0000
0000
0000
0001
0000
0000
0100
0000
0000
0001
0000
0010
0000
0001
0000
1000
0000
0000
0000
0000
0000
0001
0000
0000
0000
0000
0000
1000
0000
0010
0000
1000
0000
0001
0000
0000
0000
0000
0000
1000
0000
0000
0000
0000
0000
,
0001
1000
0100
1000
0000
0000
0001
0100
0001
1000
0000
0000
0001
0000
0000
1000
0000
0000
0010
0000
0000
0100
0000
0010
,
0000
0000
0000
0000
0000
0000
0100
0000
0000
0010
0000
0000
1000
0000
0000
0001
0000
0000
0010
0000
0000
0001
0000
0000
1000
0000
0000
0100
0000
0000
1000
0000
0010
0000
0100
0000
0010
0000
0000
0000
0000
0000
1000
0000
0000
0000
0000
0000
,
0000
0000
0001
0010
0001
1000
0010
0100
1001
0000
0000
0000
0001
0000
0100
0000
,
1000
0000
1000
0100
0010
1000
0001
0010
,
0001
0000
0010
0001
0100
0000
0010
1000
,
0100
0000
0010
0001
0100
0010
1000
0100
,
0010
0000
0000
0000
0000
0000
0000
0000
0000
0100
0010
0001
1000
0100
0000
1000
,
0001
0000
0100
0001
0000
0100
0000
0010
1000
0000
0100
0000
0010
0100
0000
0010
,
0000
0001
0010
0000
0001
0000
1000
0010
0000
0100
0000
0010
1000
0000
0001
0000
,
0000
0000
0000
1000
0000
0000
0000
0000
0000
0000
0000
0000
0001
0000
0000
0100
0000
0000
0000
0000
0000
0000
0000
0000
0100
0000
0000
0000
0000
0000
0001
0000
0000
0000
0000
0000
0000
0000
0000
0000
1000
0000
0001
0000
1000
0000
0001
0000
,
1000
0000
0100
0000
0010
0001
0100
0010
2000
0001
0000
0000
0000
0000
0000
0000
,
0000
0000
0000
3000
0110
0000
1010
1000
,
1010
0000
0110
0100
0101
0001
0011
0010
,
0110
0000
0100
1000
1010
0000
0010
0100
,
0101
0000
1001
0010
1001
0100
1001
0110
,
1001
0000
0000
0000
0011
0000
0001
0010
,
0110
0000
0100
1000
1010
0010
0100
0001
,
1001
0000
0001
0010
1100
0000
1000
0100
,
0011
0000
0101
0100
1010
0010
0110
1001
,
0110
0000
0000
0000
1000
0000
0001
1000
,
0010
0000
0010
1000
0001
0010
1000
0010
,
0001
0000
0000
0000
;

//---------------dance-single - Pandemonium X-DSP----------------
#NOTES:
     dance-single:
     Pandemonium X:
     Medium:
     6:
     0.215778,0.300697,0.090488,0.055685,0,217,204,13,8,0,0,0.215778,0.300697,0.090488,0.055685,0,217,204,13,8,0,0:
0000
0000
0000
0000
,
0000
0000
0000
0000
,
0000
0000
0000
0000
,
0000
0000
0000
0000
,
1000
0001
1000
0001
,
1000
0100
0010
0100
,
1000
0100
1000
0100
,
1000
0010
0202
0303
,
1000
0000
0001
0010
0100
0000
0010
0001
,
1000
0001
0100
0001
1000
0000
0100
1000
,
0010
0000
0100
0010
1000
0000
0010
0100
,
0001
1000
0100
1000
0001
0000
0000
0000
,
1000
0101
0001
1100
,
1000
0001
0010
0001
,
0100
0001
0010
0100
,
0010
0001
0100
0010
0000
0100
0010
0000
,
1010
0000
0010
1000
1001
0000
0001
0010
,
0001
0100
0010
1000
1001
0000
0001
0000
,
1000
0000
0010
1000
0100
0000
0010
0000
,
0001
0100
0100
0100
0101
0000
0000
0000
,
0002
0000
0003
0000
,
2000
0000
3000
0000
,
0020
0000
0030
0000
,
0200
0000
0300
0000
,
1001
0001
1000
0001
,
0010
0001
1000
0100
,
0010
0100
1000
0010
,
0100
0010
1000
0001
1000
0000
0000
0000
,
0001
0000
1000
0000
,
0110
0000
0100
0000
0001
0000
0010
0001
,
1000
0000
0010
1000
0001
0000
0010
0001
,
1000
0010
0100
0001
1000
0000
0000
0000
,
1001
0001
1000
0010
,
1000
0000
0010
0000
0100
0000
0001
0010
,
0100
0000
0010
0001
1000
0000
0100
1000
,
0010
0100
0001
1000
0001
0000
0000
0000
,
1000
0000
0010
0000
,
0100
0000
0001
0000
,
0010
0000
0001
1000
,
0001
0000
0110
0000
,
0100
0000
0010
0000
,
1000
0000
0001
0000
,
1000
0000
0010
0000
,
0100
0000
0020
0000
,
0000
0000
0030
0000
1001
0000
0001
1000
,
0010
0000
1000
0001
0010
0001
1000
0001
,
1000
0000
0001
1000
0100
0000
1000
0001
,
0100
0000
0001
1000
0100
1000
0001
1000
,
0001
0000
0000
0000
0110
0000
0100
0100
,
0010
0000
0100
0100
0001
0100
0010
0010
,
1000
0000
0001
0001
1000
0000
0100
0100
,
0010
0000
0100
0100
0010
0001
1000
1000
,
0010
0000
0200
0000
,
0000
0000
0000
0000
,
0300
0000
0000
0000
;

//---------------dance-single - Pandemonium X-BSP----------------
#NOTES:
     dance-single:
     Pandemonium X:
     Easy:
     4:
     0.113358,0.187936,0.020882,0.027842,0,114,111,3,4,0,0,0.113358,0.187936,0.020882,0.027842,0,114,111,3,4,0,0:
0000
0000
0000
0000
,
0000
0000
0000
0000
,
0000
0000
0000
0000
,
0000
0000
0000
0000
,
1000
0000
0000
0000
,
0000
0000
0000
0000
,
0001
0000
0000
0000
,
0000
0000
0200
0000
,
0310
0000
0100
0000
,
0001
0000
1000
0000
,
0100
0000
1000
0000
,
0001
1000
0001
0000
,
0100
0000
0010
0000
,
1000
0010
1000
0000
,
0010
0000
0100
0000
,
0001
0010
0001
0000
,
1000
0001
0100
0001
,
0010
0010
0100
0010
,
0001
1000
0001
0000
,
1000
0010
0010
0000
,
0100
0000
0000
0000
,
0010
0000
0000
0000
,
1000
0000
0000
0000
,
0001
0000
0000
0000
,
1001
0000
0000
0000
,
0010
0000
0000
0000
,
0100
0000
0000
0000
,
0001
0000
2000
0000
,
3010
0000
0000
0000
,
1001
0001
1000
0100
,
1000
0100
0010
0100
,
1000
0001
0100
0000
,
0010
0100
0001
1000
,
0100
1000
0001
0100
,
0001
0010
0001
1000
,
0100
0100
1000
0000
,
0000
0000
0001
0000
,
0000
0000
0100
0000
,
0000
0000
0010
0000
,
0000
0000
1000
0000
,
0000
0000
0001
0000
,
0000
0000
0010
0000
,
0000
0000
0100
0000
,
0000
0000
0020
0000
,
0000
0000
0130
0010
,
0100
0010
0001
1000
,
0010
0100
0001
0100
,
0010
0100
0001
1000
,
0001
0000
0110
0100
,
0010
0100
0010
1000
,
0100
1000
0001
1000
,
0010
1000
0100
0010
,
0001
0000
0200
0000
,
0000
0000
0000
0000
,
0300
0000
0000
0000
;

//---------------dance-single - Pandemonium X-bSP----------------
#NOTES:
     dance-single:
     Pandemonium X:
     Beginner:
     1:
     0.070600,0.127901,0.020882,0,0,71,68,3,0,0,0,0.070600,0.127901,0.020882,0,0,71,68,3,0,0,0:
0000
0000
0000
0000
,
0000
0000
0000
0000
,
0000
0000
0000
0000
,
0000
0000
0000
0000
,
0010
0000
0000
0000
,
0000
0000
0000
0000
,
0100
0000
0000
0000
,
0000
0000
0001
0000
,
1000
0000
0000
0000
,
0001
0000
0000
0000
,
0100
0000
0000
0000
,
0010
0000
0000
1000
,
0001
0000
0000
0000
,
0100
0000
0000
0000
,
0010
0000
0000
0000
,
1000
0000
0000
0000
,
1001
0000
0010
0000
,
0100
0100
0100
0000
,
0010
0000
1000
0000
,
0001
0001
0001
0000
,
0100
0000
0000
0000
,
0010
0000
0000
0000
,
1000
0000
0000
0000
,
0001
0000
0000
0000
,
0010
0000
0000
0000
,
0001
0000
0000
0000
,
1000
0000
0000
0000
,
0100
0000
1000
0000
,
0010
0000
0000
0000
,
0100
0000
0000
0000
,
0010
0000
0000
0000
,
1000
0000
0000
0000
,
0001
0000
0000
0000
,
1000
0000
0000
0000
,
0010
0000
0000
0000
,
0100
0000
0010
0000
,
0000
0000
1000
0000
,
0000
0000
0001
0000
,
0000
0000
0010
0000
,
0000
0000
0001
0000
,
0000
0000
1000
0000
,
0000
0000
0010
0000
,
0000
0000
0100
0000
,
0000
0000
0010
0000
,
0000
0000
1001
0000
,
1000
0000
0001
0000
,
0100
0000
0001
0000
,
1000
0000
0010
0010
,
0010
0000
1001
0000
,
1000
0000
0001
0001
,
0001
0000
1000
0000
,
0010
0000
0100
0100
,
0100
0000
0001
0000
;

//---------------dance-double - Pandemonium X-CDP----------------
#NOTES:
     dance-double:
     Pandemonium X:
     Challenge:
     13:
     0.492213,0.676569,0.396754,0.020882,0.441997,495,438,57,3,0,0,0.492213,0.676569,0.396754,0.020882,0.441997,495,438,57,3,0,0:
// measure 0
00000000
00000000
00000000
00000000
,  // measure 1
00000000
00000000
00000000
00000000
,  // measure 2
00000000
00000000
00000000
00000000
,  // measure 3
00000000
00000000
00000000
00000000
,  // measure 4
01000000
00000000
00100000
10000000
00100000
00000000
10000000
00100000
,  // measure 5
01000000
00010000
00100000
00001000
00010000
00000000
00000100
00001000
,  // measure 6
00000100
00000000
00001000
00000100
00001000
00000000
00000100
00001000
,  // measure 7
00000010
00000100
00000001
00000100
00000020
00000000
00000000
00000000
,  // measure 8
00000130
00000000
00000010
00001000
00000100
00000000
00010000
00000000
00001000
00100000
00010000
01000000
00000000
00100000
00000000
01000000
,  // measure 9
00010000
00000000
00100000
00000000
00001000
00000000
00010000
00000000
00000100
00001000
00000010
00000100
00000000
00000001
00000000
00000010
,  // measure 10
00000100
00000000
00001000
00000000
00000100
00010000
00001000
00100000
01000000
00100000
00010000
10000000
00000000
00010000
00000000
01000000
,  // measure 11
00010000
00000000
00100000
00000000
00001000
00010000
00000100
00001000
00000010
00000100
00000001
00000010
00000000
00001100
00000000
00000000
,  // measure 12
00000000
00000100
00010000
00001000
00100000
01000000
00100000
00010000
01000000
00100000
10000000
00010000
00100000
01000000
00100000
00001000
,  // measure 13
00010000
00000100
00001000
00000010
00000100
00000001
00000010
00000100
00001000
00000100
00010000
00001000
01000000
00100000
10000000
01000000
,  // measure 14
00100000
00000000
00000000
01000000
00000000
00000000
00100000
00000000
00010000
00000000
10000000
00000000
00010000
00000000
00000000
01000000
00000000
00000000
00010000
00000000
00100000
00000000
00001000
00000000
00000000
00000000
00010000
00000000
00001000
00000000
00010000
00000000
00000000
00000000
00000000
00000000
00001000
00000000
00000000
00010000
00000000
00000000
00000100
00000000
00000000
00001000
00000000
00000000
,  // measure 15
00000010
00000100
00000001
00000010
00000100
00000010
00000001
00000100
00000000
00000010
00001000
00000100
00010000
00000000
00000000
00000000
,  // measure 16
00011000
00000000
00000000
00000000
00000000
00000000
00100000
00001000
00010000
00000100
00010000
00001000
00100000
00000000
00000000
00000000
00000000
00000000
00001000
00100000
00010000
01000000
00100000
10000000
,  // measure 17
00010000
00000000
00100000
00000000
01000000
00000000
00100000
00000000
00010000
00000000
01000000
00000000
00100000
00000000
10000000
00000000
00010000
00000000
00100000
00000000
00001000
00000000
00010000
00000000
00000100
00000000
00000000
00000000
00000000
00000000
00010000
00000000
00000000
00000100
00000000
00000000
00001000
00000000
00000000
00000000
00000000
00000000
00000100
00000000
00000000
00001000
00000000
00000000
,  // measure 18
00000010
00000000
00000000
00000100
00000010
00001000
00000001
00000010
00000100
00000010
00000001
00001000
00000010
00000000
00000000
00000000
00000000
00000000
00000000
00000000
00000100
00000010
00001000
00000000
,  // measure 19
00000100
00010000
00001000
00100000
00001000
00010000
00000100
00001000
00001100
00000000
00000000
00000000
00000000
00000000
00000000
00000000
,  // measure 20
00011000
00000000
00001000
00100000
00010000
00000000
00100000
00010000
,  // measure 21
01000000
10000000
01000000
00100000
10000000
00000000
00010000
00100000
,  // measure 22
00001000
00000000
00010000
00000100
00001000
00000000
00000100
00001000
,  // measure 23
00000010
00000100
00000001
00000010
00000100
00000000
00000000
00000000
,  // measure 24
00001100
00000000
00000100
00010000
00001000
00000000
00010000
00001000
,  // measure 25
00100000
10000000
00100000
00010000
01000000
00000000
00010000
00100000
,  // measure 26
00001000
00000000
00010000
00000100
00001000
00000000
00001000
00000100
,  // measure 27
00000001
00000100
00000010
00000001
00002000
00000000
00000000
00000000
,  // measure 28
00003100
00000000
00000000
00000000
00000100
00000010
00000001
00000100
00000010
00000000
00000000
00000000
00000100
00000010
00001000
00000100
,  // measure 29
00010000
00001000
00100000
01000000
00100000
00010000
10000000
00100000
10100000
00000000
00000000
00000000
10000000
01000000
00010000
01000000
,  // measure 30
00100000
00001000
00010000
00000010
00000100
00000010
00010000
00000100
00010100
00000000
00000100
00010000
00001000
00100000
01000000
00100000
,  // measure 31
00010000
00000000
00000000
10000000
00000000
00000000
00100000
00000000
00000000
01000000
00000000
00000000
00010000
00000000
00000000
00100000
00000000
00000000
00001000
00000000
00000000
00010000
00000000
00000000
00010100
00000000
00000000
00000000
00000000
00000000
00000000
00000000
00000000
00000000
00000000
00000000
00000000
00000000
00000000
00000000
00000100
00000000
00010000
00000000
00001000
00000000
00100000
00000000
,  // measure 32
01000000
00000000
00000000
00000000
00000000
00000000
10000000
00000000
00000000
01000000
00000000
00000000
00100000
00000000
00001000
00000000
00010000
00000000
00000100
00000000
00000000
00000000
00000000
00000000
00001000
00000000
00000000
00000000
00000000
00000000
00000010
00000000
00000100
00000000
00000001
00000000
00001000
00000000
00000000
00000000
00000000
00000000
00000100
00000000
00000000
00000000
00000000
00000000
,  // measure 33
00001000
00000000
00000001
00000000
00000010
00000000
00000100
00000000
00000000
00000000
00000000
00000000
00000100
00000000
00000010
00000000
00000001
00000000
00001000
00000000
00000000
00000000
00000000
00000000
00000010
00000000
00000000
00000000
00000000
00000000
00000100
00000000
00000000
00000000
00000000
00000000
00000010
00000000
00000000
00001000
00000000
00000000
00000100
00000000
00000000
00010000
00000000
00000000
,  // measure 34
00000000
00001000
00010000
00100000
01000000
00100000
00010000
01000000
00100000
10000000
00010000
00100000
00001000
00010000
00000100
00000000
,  // measure 35
00010000
00001000
00100000
00010000
01000000
00100000
10000000
00000000
00101000
00000000
00000000
00000000
00001000
00000000
00010000
00000000
,  // measure 36
00000100
00000000
00001000
00000010
00000100
00000001
00000010
00000100
,  // measure 37
00001000
00000000
00000100
00010000
00001000
00000000
00001000
00100000
,  // measure 38
00010000
00000000
00010000
01000000
10000000
01000000
00100000
10000000
,  // measure 39
00010000
00000000
00000000
00000000
10000000
00000000
01000000
01000000
,  // measure 40
00100000
00000000
01000000
01000000
00100000
00100000
00001000
00001000
,  // measure 41
00010000
00000000
00000100
00000100
00001000
00000000
00000010
00000010
,  // measure 42
00000100
00000000
00000010
00000010
00001000
00001000
00000001
00000010
,  // measure 43
00000100
00000000
00020000
00000000
,  // measure 44
00000000
00000000
00030000
00000000
00011000
00000000
00110000
01100000
,  // measure 45
11000000
00000000
11000000
01100000
00110000
01010000
01001000
00101000
,  // measure 46
00011000
00000000
00010100
00001100
00001010
00000000
00001010
00000101
,  // measure 47
00001001
00000000
00001001
00001010
00001100
00010100
00011000
00101000
,  // measure 48
00110000
00000000
00000000
00000000
10010000
00000000
00110000
00101000
,  // measure 49
00011000
00000000
00011000
00010100
00001100
00011000
01010000
00011000
,  // measure 50
00001100
00000000
00001100
00000110
00000011
00000000
00000011
00000110
,  // measure 51
00001100
00000000
00011000
00001010
00011000
00110000
00011000
00001010
,  // measure 52
00000110
00000000
00000000
00000000
00000010
00000000
00000100
00000010
,  // measure 53
00001000
00000000
00000100
00010000
00001000
00100000
01000000
00100000
,  // measure 54
00001000
00000000
00000000
00000000
;

//---------------dance-double - NewbStepper-EDP----------------
#NOTES:
     dance-double:
     NewbStepper:
     Hard:
     8:
     0.282401,0.375872,0.146172,0.020882,0,284,263,21,3,0,0,0.282401,0.375872,0.146172,0.020882,0,284,263,21,3,0,0:
// measure 0
00000000
00000000
00000000
00000000
,  // measure 1
00000000
00000000
00000000
00000000
,  // measure 2
00000000
00000000
00000000
00000000
,  // measure 3
00000000
00000000
00000000
00000000
,  // measure 4
00000001
00001000
00000001
00001000
,  // measure 5
00000010
00000100
00001000
00010000
,  // measure 6
01000000
10000000
00010000
10000000
,  // measure 7
01000000
00010000
00002000
00000000
,  // measure 8
00103000
00000000
01000000
00010000
00001000
00000000
00000010
00001000
,  // measure 9
00000001
00000100
00001000
00000010
00000100
00000000
00000001
00000100
,  // measure 10
00001000
00000000
00010000
01000000
10000000
00000000
00100000
10000000
,  // measure 11
01000000
00010000
00001000
00000100
00000001
00000000
00001001
00000000
,  // measure 12
00000010
00000000
00000100
00001000
00010000
00000000
00100000
00010000
,  // measure 13
10000000
01000000
00010000
00100000
01000000
00000000
10000000
01000000
,  // measure 14
00010000
00000000
00001000
00000100
00000001
00000000
00000010
00000001
,  // measure 15
00000100
00001000
00010000
01000000
10000000
00000000
10010000
00000000
,  // measure 16
01010000
00000000
00100000
00001000
00011000
00000000
01000000
00100000
,  // measure 17
00010000
00001000
00000010
00000100
00000110
00000010
00000001
00001000
,  // measure 18
00000100
00000000
00000010
00000001
00001000
00000000
00000001
00000100
,  // measure 19
00001000
00010000
01000000
10000000
00010000
00000000
00000000
00000000
,  // measure 20
10000000
00010000
10000000
00010000
,  // measure 21
00100000
01000000
00010000
00001000
,  // measure 22
00000100
00000001
00001000
00000001
,  // measure 23
00000100
00001000
00010000
00000000
,  // measure 24
00011000
00010000
00100000
00010000
,  // measure 25
00001000
00000010
00001000
00010000
,  // measure 26
00001000
00000100
00000001
00000010
,  // measure 27
00001000
00010000
00200000
00000000
,  // measure 28
10300000
00000000
01000000
00000000
00100000
00000000
01000000
00010000
,  // measure 29
00011000
00001000
00000010
00000100
00001000
00000000
00000010
00000100
,  // measure 30
00000001
00000000
00001000
00000001
00000100
00000000
00000001
00000010
,  // measure 31
00001000
00010000
00100000
10000000
00010000
00000000
00000000
10000000
,  // measure 32
00010000
00000000
10000000
00100000
00010000
00000000
00001000
00000010
,  // measure 33
00000001
00000100
00001000
00000100
00000010
00000000
00001000
00010000
,  // measure 34
01000000
00000000
00100000
00010000
00001000
00000000
00000010
00001000
,  // measure 35
00100000
00010000
00001000
00000100
00000010
00000000
00000001
00000100
,  // measure 36
00001000
00000000
00010000
01000000
10000000
00100000
00010000
00100000
,  // measure 37
10000000
00000000
00100000
01000000
00100000
00000000
10000000
01000000
,  // measure 38
00010000
00000000
00001000
00000100
00000001
00000010
00001000
00000010
,  // measure 39
00000001
00000000
00000010
00000000
,  // measure 40
00010000
00000000
01000000
10000000
,  // measure 41
00010000
00000000
10000000
00000000
,  // measure 42
00010000
00000000
00001000
00000010
,  // measure 43
00000100
00000000
00000002
00000000
,  // measure 44
00000000
00000000
00000003
00000000
00001001
00000000
00000010
00000001
,  // measure 45
00000101
00000000
00001100
00001000
00010000
01000000
01100000
00010000
,  // measure 46
10010000
00000000
10000000
01000000
00010000
00000000
00001000
00000100
,  // measure 47
00000001
00000000
00000010
00001000
00011000
00010000
01000000
00100000
,  // measure 48
00001000
01000000
01100000
00000000
10010000
00000000
00100000
10000000
,  // measure 49
11000000
00000000
01010000
00010000
00001000
00000100
00000110
00001000
,  // measure 50
00001001
00000000
00000001
00000100
00001000
00000000
00010000
01000000
,  // measure 51
10000000
00000000
00100000
00010000
00011000
00001000
00000100
00000010
,  // measure 52
00010000
00000100
00000110
00000000
00000000
00000000
00001000
00000000
,  // measure 53
00000001
00000000
00000010
00000001
00000100
00001000
00010000
01000000
,  // measure 54
10000000
00000000
00000000
00000000
;

//---------------dance-double - NewbStepper-DDP----------------
#NOTES:
     dance-double:
     NewbStepper:
     Medium:
     6:
     0.212795,0.281904,0.076566,0.055685,0,214,203,11,8,0,0,0.212795,0.281904,0.076566,0.055685,0,214,203,11,8,0,0:
// measure 0
00000000
00000000
00000000
00000000
,  // measure 1
00000000
00000000
00000000
00000000
,  // measure 2
00000000
00000000
00000000
00000000
,  // measure 3
00000000
00000000
00000000
00000000
,  // measure 4
10000000
00010000
10000000
00010000
,  // measure 5
10000000
01000000
00100000
01000000
,  // measure 6
00010000
00001000
00010000
00000100
,  // measure 7
00000010
00001000
00002200
00003300
,  // measure 8
00000001
00000000
00001000
00000010
00000100
00000000
00000001
00000100
,  // measure 9
00000010
00001000
00000100
00001000
00000001
00000000
00000100
00001000
,  // measure 10
00010000
00000000
00001000
00010000
01000000
00000000
00100000
00010000
,  // measure 11
10000000
00100000
10000000
01000000
00100000
00000000
00000000
00000000
,  // measure 12
00010000
11000000
10000000
01010000
,  // measure 13
00010000
00001000
00000010
00000100
,  // measure 14
00000010
00001000
00000001
00000010
,  // measure 15
00001000
00010000
00000100
00001000
00000000
00000100
00010000
00000000
,  // measure 16
00011000
00000000
00100000
00010000
10010000
00000000
10000000
00100000
,  // measure 17
10000000
01000000
00100000
00010000
00100000
00000000
00001000
00000000
,  // measure 18
00000100
00000000
00000001
00000010
00000001
00000000
00001000
00000000
,  // measure 19
00000010
00010000
00000010
00010000
00001000
00000000
00000000
00000000
,  // measure 20
00020000
00000000
00030000
00000000
,  // measure 21
00200000
00000000
00300000
00000000
,  // measure 22
20000000
00000000
30000000
00000000
,  // measure 23
02000000
00000000
03000000
00000000
,  // measure 24
10010000
10000000
00010000
10000000
,  // measure 25
00100000
01000000
00010000
00100000
,  // measure 26
00001000
00010000
00000100
00000010
,  // measure 27
00000100
00001000
00000001
00001000
00000001
00000000
00000000
00000000
,  // measure 28
00001000
00000000
00000001
00000000
,  // measure 29
00000110
00000000
00000100
00000000
00000010
00000000
00001000
00000001
,  // measure 30
00000100
00000000
00000001
00001000
00000100
00000000
00001000
00000010
,  // measure 31
00010000
00001000
00100000
00010000
10000000
00000000
00000000
00000000
,  // measure 32
10010000
10000000
00100000
00010000
,  // measure 33
00001000
00000000
00000010
00000000
00000001
00000000
00001000
00000100
,  // measure 34
00000010
00000000
00000001
00000100
00000010
00000000
00001000
00000100
,  // measure 35
00010000
00001000
01000000
00100000
00000000
00000000
00000000
00000000
,  // measure 36
10000000
00000000
01000000
00000000
,  // measure 37
00010000
00000000
00001000
00000000
,  // measure 38
00000100
00000000
00000001
00001000
,  // measure 39
00000001
00000000
00000110
00000000
,  // measure 40
00000001
00000000
00000100
00000000
,  // measure 41
00000010
00000000
00001000
00000000
,  // measure 42
00010000
00000000
01000000
00000000
,  // measure 43
00100000
00000000
20000000
00000000
,  // measure 44
30000000
00000000
00000000
00000000
10010000
00000000
00100000
10000000
,  // measure 45
00010000
00000000
00100000
00010000
10000000
00100000
10000000
00010000
,  // measure 46
00100000
00000000
00001000
00010000
00001000
00000000
00010000
00001000
,  // measure 47
00010000
00000000
00000010
00001000
00000010
00001000
00000100
00000010
,  // measure 48
00000100
00000000
00000000
00000000
00001001
00000000
00000010
00000001
,  // measure 49
00001000
00000000
00000010
00001000
00000001
00000010
00000001
00001000
,  // measure 50
00000010
00000000
00010000
00001000
00010000
00000000
00001000
00010000
,  // measure 51
00001000
00000000
00100000
00010000
00100000
00010000
01000000
00100000
,  // measure 52
01000000
00000000
02000000
00000000
,  // measure 53
00000000
00000000
00000000
00000000
,  // measure 54
03000000
00000000
00000000
00000000
;

//---------------dance-double - NewbStepper-BDP----------------
#NOTES:
     dance-double:
     NewbStepper:
     Easy:
     4:
     0.111369,0.187936,0.013921,0.027842,0,112,110,2,4,0,0,0.111369,0.187936,0.013921,0.027842,0,112,110,2,4,0,0:
// measure 0
00000000
00000000
00000000
00000000
,  // measure 1
00000000
00000000
00000000
00000000
,  // measure 2
00000000
00000000
00000000
00000000
,  // measure 3
00000000
00000000
00000000
00000000
,  // measure 4
10000000
00000000
00000000
00000000
,  // measure 5
00000000
00000000
00000000
00000000
,  // measure 6
00010000
00000000
00000000
00000000
,  // measure 7
00000000
00000000
02000000
00000000
,  // measure 8
03010000
00000000
00100000
00000000
,  // measure 9
00001000
00000000
00010000
00000000
,  // measure 10
00000100
00000000
00001000
00000000
,  // measure 11
00000001
00001000
00000001
00000000
,  // measure 12
00000100
00000000
00000010
00000000
,  // measure 13
00001000
00000010
00001000
00000000
,  // measure 14
00000010
00000000
00010000
00000000
,  // measure 15
00001000
00100000
00001000
00000000
,  // measure 16
00010000
01000000
00100000
00010000
,  // measure 17
10000000
10000000
01000000
00100000
,  // measure 18
00010000
00100000
00001000
00000000
,  // measure 19
00010000
00000010
00000010
00000000
,  // measure 20
00000100
00000000
00000000
00000000
,  // measure 21
00000001
00000000
00000000
00000000
,  // measure 22
00001000
00000000
00000000
00000000
,  // measure 23
00010000
00000000
00000000
00000000
,  // measure 24
10010000
00000000
00000000
00000000
,  // measure 25
00100000
00000000
00000000
00000000
,  // measure 26
10000000
00000000
00000000
00000000
,  // measure 27
00010000
00000000
02000000
00000000
,  // measure 28
03001000
00000000
00000000
00000000
,  // measure 29
00011000
00010000
00001000
00010000
,  // measure 30
00000100
00001000
00000001
00000100
,  // measure 31
00000001
00001000
00000100
00000000
,  // measure 32
00010000
00001000
00100000
01000000
,  // measure 33
00100000
00001000
00010000
00001000
,  // measure 34
01000000
00100000
10000000
01000000
,  // measure 35
00100000
00010000
00000000
00000000
,  // measure 36
00000000
00000000
10000000
00000000
,  // measure 37
00000000
00000000
01000000
00000000
,  // measure 38
00000000
00000000
00100000
00000000
,  // measure 39
00000000
00000000
00010000
00000000
,  // measure 40
00000000
00000000
00001000
00000000
,  // measure 41
00000000
00000000
00000100
00000000
,  // measure 42
00000000
00000000
00000010
00000000
,  // measure 43
00000000
00000000
00000002
00000000
,  // measure 44
00000003
00000000
00001000
00000100
,  // measure 45
00000010
00000001
00000100
00000010
,  // measure 46
00001000
00000100
00010000
00001000
,  // measure 47
00100000
00010000
01000000
00100000
,  // measure 48
10000000
00000000
00010000
00100000
,  // measure 49
01000000
10000000
00100000
01000000
,  // measure 50
00010000
00100000
00001000
00010000
,  // measure 51
00000100
00001000
00000010
00000100
,  // measure 52
00000001
00000000
00000200
00000000
,  // measure 53
00000000
00000000
00000000
00000000
,  // measure 54
00000300
00000000
00000000
00000000
;
