#VERSION:0.83;
#TITLE:I'm Flying Away;
#ARTIST:Stepper;
#BANNER:I'm Flying Away.png;
#BACKGROUND:I'm Flying Away-bg.png;
#JACKET:I'm Flying Away-jacket.png;
#MUSIC:I'm Flying Away.ogg;
#SAMPLESTART:1.393;
#SAMPLELENGTH:15;
#BPMS:0=180;

//---------------dance-single - KONAMI-bSP----------------
#NOTEDATA:;
#CHARTNAME:KONAMI-bSP;
#STEPSTYPE:dance-single;
#DESCRIPTION:KONAMI-bSP;
#DIFFICULTY:Beginner;
#METER:3;
#RADARVALUES:0.144963,0.281006,0.195143,0.009757,0,104,84,20,1,0,0,0,0,0,0.144963,0.281006,0.195143,0.009757,0,104,84,20,1,0,0,0,0,0;
#CREDIT:KONAMI;
#NOTES:
0000
0000
0000
0000
,
0000
0000
0000
0000
,
0000
0000
0000
0000
,
1000
0000
0000
0000
,
1000
0000
1001
0000
,
0000
0000
0000
0000
,
0100
0000
0000
0000
,
1000
0000
0000
0000
,
0001
0000
0001
0000
,
1000
0000
0000
0000
,
0010
0000
0000
0000
,
0001
0000
0000
0000
,
1001
0000
0000
0000
,
0001
0001
0000
0000
,
0001
0000
0001
0000
,
1000
1000
0000
0000
,
1000
0001
1000
0001
,
0000
0000
0000
0000
,
0010
0000
0000
0000
,
0100
0000
0000
0000
,
1001
0000
0000
0000
,
1000
1000
0000
0000
,
1000
0000
1000
0000
,
0001
0001
0000
0000
,
1000
1000
1000
0000
,
0000
0000
0000
0000
,
0100
0000
0000
0000
,
0020
0000
0000
0000
,
0000
0000
0000
0030
,
0000
0000
0000
0000
,
0001
0000
1000
0000
,
0000
0000
0000
0000
,
1000
0000
1001
0000
,
0000
0000
0000
0000
,
0001
0000
1001
0000
,
0000
0000
0000
0000
,
0010
0010
0010
0000
,
0000
0000
0000
0000
,
0001
0000
0001
0000
,
0100
0000
0100
0000
,
0010
0000
0010
0000
,
0000
0000
0000
0000
,
1000
0000
1000
0000
,
0010
0000
0000
0000
,
0110
0000
0110
0000
,
0000
0000
0000
0000
,
1000
0000
0010
0000
,
0100
0000
0001
0000
,
0000
0000
0000
0000
,
0001
0000
0100
0000
,
0010
0000
1000
0000
,
0000
0000
0000
0000
,
0110
0000
1001
0000
,
0000
0000
0000
0000
,
0001
0000
0000
0000
,
1000
0000
0000
0000
,
0000
0000
1001
0000
,
0000
0000
0000
0000
,
0000
0000
1001
0000
,
0110
0000
0000
0000
,
1001
0000
1001
0000
,
0000
0000
0000
0000
,
1000
0000
0001
0000
,
0000
0000
0000
0000
,
0001
0000
1001
0000
,
0000
0000
0000
0000
,
1000
0000
1001
0000
,
1001
0000
0000
0000
,
0100
0000
0000
0000
,
0010
0000
0000
0000
,
1001
0000
0000
0000
,
0110
0000
0000
0000
,
1001
0000
0000
0000
;

//---------------dance-single - KONAMI-BSP----------------
#NOTEDATA:;
#CHARTNAME:KONAMI-BSP;
#STEPSTYPE:dance-single;
#DESCRIPTION:KONAMI-BSP;
#DIFFICULTY:Easy;
#METER:6;
#RADARVALUES:0.235565,0.424436,0.175629,0.156114,0,169,151,18,16,0,0,0,0,0,0.235565,0.424436,0.175629,0.156114,0,169,151,18,16,0,0,0,0,0;
#CREDIT:KONAMI;
#NOTES:
0000
0000
0000
0000
,
0000
0000
0000
0000
,
0000
0000
0000
0000
,
1000
0000
0001
0000
,
1000
0001
1001
0000
,
0001
0000
0000
0100
0000
0000
0001
0000
,
0200
0000
0300
0000
,
1000
0000
0000
0001
0000
0000
0010
0000
,
0001
0001
0001
0000
,
1000
0000
1000
0000
,
0020
0000
0030
0000
,
0100
0100
0100
0100
,
1001
0110
1001
0010
,
0000
0000
0001
0000
,
0002
0000
1000
1003
,
1000
0000
1000
0000
,
2000
0000
0001
3001
,
0001
0000
0100
0000
,
0010
0000
0010
0000
,
1000
0000
0001
0000
,
0010
0100
1000
0010
,
0001
0000
1000
0000
,
2000
0000
0001
3001
,
0001
0000
0001
0000
,
0002
0000
1000
1003
,
1000
0000
0010
0000
,
0100
0000
0100
0000
,
1002
0000
0000
0000
,
0010
0000
0100
0003
,
0100
0000
0100
0000
,
0001
1000
0001
0100
,
0010
0000
0010
0000
,
1000
0001
1000
0010
,
0100
0000
0100
0000
,
0010
0000
0000
0000
,
1000
0001
1000
1001
,
0010
0000
0010
0000
,
1000
0000
0000
0000
,
0001
0000
0000
0000
,
0100
0000
0000
0000
,
0100
0000
0100
0000
,
0001
0000
0000
0000
,
1000
0000
0000
0000
,
0010
0000
0000
0000
,
1001
0010
1001
0100
,
0002
0000
0003
0000
,
2000
0000
3000
0000
,
0002
0000
0003
0000
,
0010
0000
0100
0000
,
2000
0000
3000
0000
,
0002
0000
0003
0000
,
0100
0000
0010
0000
,
0100
0000
0000
0200
0000
0000
0300
0000
,
1000
0000
0001
0000
,
1000
0000
1000
0000
,
0001
0000
1000
0000
,
0001
0001
0001
0001
,
1000
0000
0001
0000
,
0100
0000
0000
0000
,
0001
1000
0001
1000
,
1001
0000
0000
0000
,
0010
0000
0010
0000
,
1000
0001
1000
0010
,
0100
0000
0100
0000
,
0001
1000
0001
0100
,
0010
0000
0010
0000
,
0100
0000
0000
0000
,
1001
0000
1001
0110
,
0000
0000
0110
0000
,
0020
0000
0030
0000
,
0110
0000
0110
0000
,
1001
0010
1001
0010
,
0220
0000
0330
0000
;

//---------------dance-single - KONAMI-DSP----------------
#NOTEDATA:;
#CHARTNAME:KONAMI-DSP;
#STEPSTYPE:dance-single;
#DESCRIPTION:KONAMI-DSP;
#DIFFICULTY:Medium;
#METER:10;
#RADARVALUES:0.436284,0.565914,0.429314,0.302471,0,313,269,44,31,0,0,0,0,0,0.436284,0.565914,0.429314,0.302471,0,313,269,44,31,0,0,0,0,0;
#CREDIT:KONAMI;
#NOTES:
0000
0000
0000
0000
,
0000
0000
0000
0000
,
0000
0000
0000
0000
,
0001
0000
0001
0000
,
1000
0000
1000
0000
0010
0010
0000
0000
,
1000
0100
0001
0000
1000
0000
0100
0000
,
0020
0000
0030
0000
,
0001
0000
0000
0010
0000
0000
0100
0000
,
1000
0100
1000
0001
,
0001
0010
1000
0000
0001
0000
0010
0000
,
0200
0000
0300
0000
,
1000
0010
0001
0100
,
1100
1010
0101
0011
,
1000
0000
0001
0100
0001
0000
0100
0000
,
2000
0000
0000
3200
0000
0000
0310
0000
,
0001
0000
1000
0010
1000
0000
0010
0000
,
0002
0000
0000
0023
0000
0000
0130
0000
,
0020
0001
0031
0000
,
1100
0000
0101
0000
,
0001
1000
0010
0000
0100
0010
1000
0000
,
0102
0000
0000
0010
0000
0000
0103
0000
,
0001
0000
1000
0100
1000
0000
0010
0000
,
0001
0010
0100
0100
,
1000
0000
0001
0010
0001
0000
0100
0000
,
2000
0000
0000
3200
0000
0000
0310
0000
,
0200
1000
1300
0000
,
0100
0110
0100
1001
,
2100
0000
0100
0000
,
0001
0010
0100
3001
,
0020
0001
0031
0000
,
0001
1000
0010
1000
0100
1000
1000
0000
,
0200
1000
1300
0000
,
1000
0010
0100
0000
1100
0000
0011
0000
,
0200
0001
0301
0000
,
0100
1000
0010
1000
0001
1000
0010
0000
,
0101
1100
0101
1100
,
0002
0010
0203
0010
,
0300
0000
1001
0000
0000
1000
0000
0001
,
0000
0001
0001
0000
1000
0000
1100
0000
,
0000
0000
1001
0000
0000
0001
0000
1000
,
0000
1000
1000
0000
0001
0000
0011
0000
,
0000
0000
0110
0000
0000
0100
0000
0010
,
0000
0010
0010
0000
0100
0000
0101
0000
,
0000
0110
0000
0110
,
1100
0110
1100
0101
,
2000
0100
0001
3100
,
0200
0010
1000
1300
,
0020
0001
1000
0031
,
0001
0011
0110
1100
,
0002
0010
1000
0013
,
0020
0100
0001
0031
,
1100
0100
0100
0000
0011
0010
0010
0000
,
1000
0001
0000
0110
0000
0000
0000
0000
,
0200
0000
1300
0000
,
1000
0100
0010
0001
,
0020
0000
0031
0000
,
0001
0010
0001
1000
,
0002
0000
0013
0000
,
0010
0100
1000
0100
,
0100
0101
0010
1010
,
0200
0000
0300
0000
1100
1100
0000
0000
,
0200
1000
1300
0000
,
1000
0001
0100
0001
0010
0001
0001
0000
,
0020
0001
0031
0000
,
0001
0100
0010
0000
0011
0000
1100
0000
,
0002
0010
0013
0000
,
0010
0001
0100
0001
1000
0001
0100
0000
,
1000
1000
0000
0100
0100
0000
0010
0000
,
0002
0013
0020
0130
,
1000
0000
1001
0000
1000
0100
0010
0001
,
0001
1000
0010
0001
,
1010
0010
0101
0100
,
0000
0100
0010
0100
0110
0000
0000
0000
;

//---------------dance-single - KONAMI-ESP----------------
#NOTEDATA:;
#CHARTNAME:KONAMI-ESP;
#STEPSTYPE:dance-single;
#DESCRIPTION:KONAMI-ESP;
#DIFFICULTY:Hard;
#METER:13;
#RADARVALUES:0.653729,0.672023,0.731786,0,0.097571,469,394,75,0,0,0,0,0,0,0.653729,0.672023,0.731786,0,0.097571,469,394,75,0,0,0,0,0,0;
#CREDIT:KONAMI;
#NOTES:
0000
0000
0000
0000
,
0000
0000
0000
0000
,
0000
0000
0000
0000
,
1000
0000
1000
0000
,
0001
0000
0001
0000
0110
0110
0000
0000
,
0010
0000
0010
0000
1000
0001
1000
0000
,
0010
0000
0010
0000
0001
1000
0001
1000
,
0010
0000
0010
0000
0100
0010
0100
0000
,
1010
0101
0110
1010
,
0100
0000
0100
0000
0001
1000
0001
0000
,
0100
0000
0100
0000
1000
0001
1000
0001
,
0101
1010
0110
0101
,
0110
1100
0110
0011
,
0001
0001
0010
0010
0100
0100
1000
1000
,
0100
0010
0100
0000
0011
0000
1100
0000
,
0001
0001
0100
0100
0010
0010
1000
0000
,
1100
0000
0000
0110
0000
0000
0011
0000
,
0100
1000
0010
0000
0010
1000
0100
0000
,
0100
0010
0001
0000
0001
0010
0100
0000
,
0100
0001
1000
0100
0010
0001
1000
0000
,
1000
0000
0011
0010
0000
0000
0101
0000
,
1000
1000
0100
0100
0010
0010
0001
0001
,
0010
0100
0010
0000
1100
0000
0011
0000
,
1000
1000
0010
0010
0100
0100
0001
0000
,
0011
0000
0000
0110
0000
0000
1100
0000
,
0010
0001
0100
0000
0100
0001
0010
0000
,
0010
0100
1000
0000
1000
0100
0010
0000
,
1001
0010
1001
0100
,
0001
0010
0100
1000
0001
0010
0100
1000
,
0001
1000
0010
0100
0010
0001
0010
1000
,
0100
0010
0001
0010
1000
0100
0010
0100
,
1000
0001
0010
0100
0010
1000
0010
0000
,
1000
0100
0000
0000
0100
0010
0000
0000
0010
0001
0000
0000
0001
1000
0000
0000
,
0001
1000
0100
0010
0100
0001
0100
1000
,
0010
0100
0010
0001
0010
1000
0100
0000
,
1010
0101
1010
0101
,
1001
0000
0000
0000
0100
0000
0000
0000
0010
0100
0000
0000
0100
0010
0000
0000
,
0000
0000
0011
0000
0000
1100
0000
1100
,
0000
0100
1000
0100
0000
0010
0001
0010
,
0000
0000
0110
0000
0000
1001
0000
1001
,
0000
1010
1010
0000
1100
0000
0101
0000
,
0000
0000
1100
0000
0000
0011
0000
0011
,
0000
0010
0001
0010
0000
0100
1000
0100
,
0000
0110
0000
1001
,
0101
0011
0110
1010
,
0001
0000
0010
0000
0100
0000
1000
0000
0001
0010
0100
0000
1000
0000
0010
0000
,
0100
1000
0100
0010
0100
0001
0100
1000
,
0001
0000
0100
0000
0010
0000
1000
0000
0001
0100
0010
0000
1000
0000
0100
0000
,
0001
0011
1000
1010
,
1000
0000
0010
0000
0100
0000
0001
0000
1000
0010
0100
0000
0001
0000
0010
0000
,
0100
0001
0100
0010
0100
1000
0100
0001
,
1001
0000
0110
0000
,
0011
0011
0000
1100
0000
0000
0000
0000
,
0001
0000
0010
0000
0010
0001
0010
0000
,
0100
0000
0100
0000
1000
0100
0010
0000
,
1000
0000
0010
0000
0010
1000
0010
0000
,
1000
0110
0010
0011
,
0001
1000
0100
0000
0100
0001
0100
0000
,
0010
0100
0010
0000
1000
0001
0100
0000
,
0011
1100
0011
1100
,
1001
0000
0000
0000
0110
0000
0000
0000
0010
0100
0010
0000
0000
0000
0000
0000
,
1000
0001
0100
0010
0100
1000
0100
0001
,
0010
0100
1000
0100
0001
0010
0100
0010
,
0001
1000
0100
0010
0100
0001
0100
0000
,
0001
0010
0000
0000
0010
0100
0000
0000
0100
1000
0000
0000
1000
0001
0000
0000
,
1000
0001
0010
0100
0010
1000
0010
0001
,
0100
0010
0100
1000
0100
0001
0010
0000
,
1010
0000
0000
0110
0000
0000
0101
0000
,
1001
0000
0000
0000
0010
0000
0000
0000
0100
0010
0000
0000
0010
0100
0000
0000
,
1001
0000
0100
0000
0100
0001
0010
0100
,
1000
0001
1100
0101
,
1000
0100
0000
0000
0010
0001
0000
0000
0010
0100
0000
0000
0100
0010
0000
0000
,
0000
0110
0100
0100
0100
0000
0000
0000
;

//---------------dance-single - Marten-CSP----------------
#NOTEDATA:;
#CHARTNAME:Marten-CSP;
#STEPSTYPE:dance-single;
#DESCRIPTION:Marten-CSP;
#DIFFICULTY:Challenge;
#METER:14;
#RADARVALUES:0.759663,0.813502,0.741543,0.204900,0.146357,545,469,76,21,0,0,0,0,0,0.759663,0.813502,0.741543,0.204900,0.146357,545,469,76,21,0,0,0,0,0;
#CREDIT:Marten;
#NOTES:
0000
0000
0000
0000
,
0000
0000
0000
0000
,
0000
0000
0000
0000
0000
0000
0000
0000
0000
0000
0000
0000
0000
0000
0001
0100
,
0001
0000
0000
0000
0000
0000
1000
0100
1000
0000
0000
0000
0000
0000
0010
0100
,
0010
0000
0000
0000
0010
0000
0000
0000
1000
0001
1000
0000
0000
0000
0000
0000
,
0001
0100
1000
0100
0010
1000
0001
0010
,
0100
0000
1000
0000
0100
1000
0001
1000
,
0001
0010
1000
0001
0100
0010
0001
1000
,
0020
0230
0302
2003
,
3100
0001
0100
1000
0001
0010
0100
1000
,
0001
0000
0100
0001
1000
0001
0100
0100
,
0101
0110
1010
1001
,
0011
0110
1100
1001
,
0001
0010
1000
0010
0001
0010
1000
0010
,
0001
0000
0100
0001
0000
1000
0100
0000
,
1000
0010
0001
0010
1000
0010
0001
0010
,
1010
0000
0000
1001
0000
0000
0011
0000
,
0110
0000
0100
1000
0010
0000
0010
0001
,
0100
0000
0100
0001
0010
0000
0010
1000
,
0100
0000
1000
0001
0100
0001
1000
0000
,
1001
0000
0001
0011
0100
0000
1100
0000
,
1001
0001
0100
1000
0100
0001
0100
1000
,
0100
0001
0010
0100
,
1000
0100
0001
0100
1000
0100
0001
0100
,
1100
0000
0000
1001
0000
0000
0011
0000
,
0101
0000
0100
0010
1000
0000
0001
0010
,
1000
0000
0001
0100
1000
0000
0001
0000
,
0011
0010
1010
0010
,
0001
0010
0100
1000
0001
0100
0010
1000
,
0001
0000
0100
0000
0001
0000
0010
0000
1000
0000
0010
0000
0001
0000
0100
0010
,
0100
0001
1000
0100
0001
0100
1000
0001
,
0100
0000
0010
0000
0001
0000
0010
0000
0100
0000
0001
0000
1000
0000
0001
0010
,
0001
0001
1000
1000
0010
0010
0100
0100
,
0001
0000
0100
0000
0001
0000
0010
0000
1000
0000
0001
0000
0100
0000
1000
0001
,
0100
0001
1000
0010
0001
0010
1000
0001
,
0011
1001
1010
0110
,
0010
0000
1000
0000
0010
0000
0100
0000
0001
0010
0001
0000
1000
0010
1000
0000
,
0001
0000
2001
0000
0000
3010
0100
0101
,
0000
0001
0011
0000
0110
0100
1100
0000
,
1000
0001
1002
0000
0000
0013
0100
1100
,
0000
1000
1010
0000
0110
0100
0101
0000
,
0100
0010
0210
0000
0301
0101
0100
1100
,
0000
0110
1010
1000
1001
0001
0011
0010
,
0100
1000
1001
0001
0100
0010
1001
1000
,
1010
0011
0101
1100
,
1000
0000
0010
0000
0100
0000
0001
1000
0100
0000
1000
0000
0001
0000
0010
0000
,
1000
0000
0010
0000
0001
0000
0100
0001
1000
0001
0100
0000
0010
0000
1000
0000
,
0001
0000
1000
0000
0100
0000
1000
0010
0100
0000
1000
0000
0100
0000
0010
0000
,
2000
0100
3200
0010
0320
0001
0032
1000
,
1003
0000
0010
0000
0001
0000
0010
0100
0001
0000
1000
0000
0100
0000
1000
0001
,
0100
0000
0001
0000
0010
0000
0100
1000
0001
0000
0010
0000
0001
1000
0010
1000
,
0002
0000
0000
0000
0013
0000
0001
0100
0002
0000
0000
0000
0013
0000
0100
1000
,
0001
1001
0000
0220
0000
0000
0330
0000
,
1001
0000
0100
0000
1000
0010
0001
0010
,
1000
0000
0001
0100
0001
0000
1000
0000
,
1001
0000
0100
0000
0001
0010
1000
0010
,
0011
0001
0101
0000
1010
1000
1100
0000
,
1001
0000
0001
0100
0010
0000
0001
0000
,
0010
1000
0001
0000
0010
0000
0100
0000
,
1100
1010
0101
0011
,
1001
0000
0000
0000
0110
0000
0000
0000
0001
1000
0001
0000
0000
0000
0000
0000
,
1000
0100
0001
1000
0010
0001
0100
0001
,
0010
0000
1000
0000
0010
0000
0001
0100
0010
0100
0001
0000
1000
0000
0100
0000
,
1000
0000
0010
0000
0001
0000
0010
0000
1000
0000
0001
0000
0100
0000
0001
0010
,
0001
0001
1000
1000
0010
0010
0100
0100
,
0001
0000
0010
0000
1000
0000
0010
0001
0100
0000
0010
0000
1000
0000
0100
1000
,
0001
0000
0100
0000
1000
0000
0100
0001
1000
0000
0100
0000
1000
0000
0001
0010
,
0002
0000
1003
1020
0000
0130
0110
0000
,
0101
0000
0000
0000
1010
0000
0000
0000
1000
0010
0100
0000
0001
0010
0100
0000
,
1100
0000
1000
0100
0010
0001
0100
0010
,
2000
0010
3020
0100
0230
0001
0302
1003
,
1001
0011
1100
1010
,
0100
0101
0100
0110
1001
0000
0000
0000
;

//---------------dance-double - NewbStepper-EDP----------------
#NOTEDATA:;
#CHARTNAME:NewbStepper-EDP;
#STEPSTYPE:dance-double;
#DESCRIPTION:NewbStepper-EDP;
#DIFFICULTY:Hard;
#METER:13;
#RADARVALUES:0.653729,0.636654,0.995229,0,0.004879,469,367,102,0,0,0,0,0,0,0.653729,0.636654,0.995229,0,0.004879,469,367,102,0,0,0,0,0,0;
#CREDIT:NewbStepper;
#NOTES:
// measure 0
00000000
00000000
00000000
00000000
,  // measure 1
00000000
00000000
00000000
00000000
,  // measure 2
00000000
00000000
00000000
00000000
,  // measure 3
10000000
00000000
10000000
00000000
,  // measure 4
01000000
00000000
00010000
00000000
00001000
00000010
00000001
00000000
,  // measure 5
00001000
00000000
00001000
00000000
00000010
00000100
00000010
00000000
,  // measure 6
00010000
00000000
00010000
00000000
00001000
01000000
00001000
01000000
,  // measure 7
00100000
00000000
00100000
00000000
10000000
01000000
10000000
00000000
,  // measure 8
10100000
01010000
01100000
10010000
,  // measure 9
01000000
00000000
01000000
00000000
10000000
00100000
00010000
00000000
,  // measure 10
00000100
00000000
00000100
00000000
00010000
00001000
00000100
00000001
,  // measure 11
00000011
00000101
00001100
00001010
,  // measure 12
01010000
11000000
10100000
00110000
,  // measure 13
01010000
01001000
00010100
00001100
,  // measure 14
00001001
00000000
00000110
00000000
00000001
00000100
00001000
00000000
,  // measure 15
00011000
01010000
11000000
10100000
,  // measure 16
01100000
00000000
00000000
10010000
00000000
00000000
01001000
00000000
,  // measure 17
00001000
00010000
00100000
00000000
00100000
00010000
00001000
00000000
,  // measure 18
00010000
00001000
00000010
00000001
00001000
00000010
00000100
00001000
,  // measure 19
00010000
01000000
10000000
00010000
01000000
00100000
10000000
00000000
,  // measure 20
01010000
00000000
00000000
00011000
00000000
00000000
00001010
00000000
,  // measure 21
00000110
00001001
00000101
00001010
,  // measure 22
00001001
00011000
10010000
00011000
,  // measure 23
00001010
00011000
00110000
00011000
,  // measure 24
00000110
00000000
00000000
00001001
00000000
00000000
00010100
00000000
,  // measure 25
00010000
00001000
00000010
00000000
00000010
00001000
00010000
00000000
,  // measure 26
00001000
00010000
00100000
10000000
00010000
00100000
01000000
00000000
,  // measure 27
11000000
01100000
00110000
10010000
,  // measure 28
00100000
10000000
00010000
01000000
00001000
00010000
00000010
00001000
,  // measure 29
00000001
00001000
00000010
00000100
00001000
00010000
00001000
00000010
,  // measure 30
00000100
00010000
00001000
00000010
00001000
00010000
00100000
10000000
,  // measure 31
00010000
00100000
10000000
00100000
00010000
01000000
00001000
00010000
,  // measure 32
00011000
01001000
01100000
10010000
,  // measure 33
10000000
00010000
00100000
01000000
00010000
00001000
00010000
00100000
,  // measure 34
01000000
00001000
00010000
00100000
00010000
00001000
00000010
00000001
,  // measure 35
00000101
00001001
00001010
00010010
,  // measure 36
00101000
00000000
01010000
00000000
00100000
10000000
01000000
00000000
,  // measure 37
00000000
00000000
00110000
00000000
00000000
00101000
00000000
01001000
,  // measure 38
00000000
00001000
00010000
00001000
00000000
00010000
00000010
00010000
,  // measure 39
00000000
00000000
00001100
00000000
00000000
00010100
00000000
00010010
,  // measure 40
00000000
00001000
00000010
00000000
00000110
00000000
00001001
00000000
,  // measure 41
00000000
00000000
00001010
00000000
00000000
00010010
00000000
00010100
,  // measure 42
00000000
00010000
00001000
00010000
00000000
00001000
00100000
00001000
,  // measure 43
00000000
01010000
00000000
01001000
,  // measure 44
00110000
11000000
01100000
10010000
,  // measure 45
10000000
00100000
01000000
00010000
10000000
00100000
00010000
00001000
,  // measure 46
00100000
00001000
00010000
00001000
01000000
00001000
00010000
00000100
,  // measure 47
00010000
00001000
00010000
00000010
00010000
00001000
00000010
00000001
,  // measure 48
00000101
00001100
00001010
00000011
,  // measure 49
00000001
00000010
00000100
00001000
00000001
00000010
00001000
00010000
,  // measure 50
00000010
00010000
00001000
00010000
00100000
00010000
00001000
00010000
,  // measure 51
00011000
00000000
01100000
00000000
,  // measure 52
10010000
10010000
00000000
01010000
00000000
00000000
00000000
00000000
,  // measure 53
00001000
00000000
00000010
00000000
,  // measure 54
00000001
00000000
00000100
00000000
00000010
00010000
00001000
00000000
,  // measure 55
00010000
00000000
00100000
00000000
,  // measure 56
10000000
00000000
01000000
00000000
00100000
00001000
00010000
00000000
,  // measure 57
00001000
00010000
00001000
00000000
00000010
00001000
00000010
00000000
,  // measure 58
00000001
00000010
00000100
00000000
00001000
00000010
00000100
00000000
,  // measure 59
00000011
00001100
00000011
00001100
,  // measure 60
00001001
00000000
00000000
00000000
00000110
00000000
00000000
00000000
00000010
00000100
00000010
00000000
00000000
00000000
00000000
00000000
,  // measure 61
00001000
00000001
00000100
00000010
00000100
00001000
00010000
01000000
,  // measure 62
10000000
00100000
00010000
00001000
00100000
00010000
01000000
00100000
,  // measure 63
00010000
00001000
00000100
00000010
00001000
00000100
00000001
00000100
,  // measure 64
00001000
00000010
00010000
00001000
00000010
00000100
00000010
00001000
,  // measure 65
00010000
00100000
10000000
00010000
00100000
00001000
00010000
00001000
,  // measure 66
00000010
00000001
00001000
00000001
00000100
00001000
00010000
01000000
,  // measure 67
11000000
00000000
00000000
10010000
00000000
00000000
00110000
00000000
,  // measure 68
00101000
00010010
01001000
00010100
,  // measure 69
00001001
00000000
00000010
00000000
00000001
00000100
00000010
00001000
,  // measure 70
00000001
00000100
00001000
00010000
,  // measure 71
00011000
00001010
00011000
00110000
,  // measure 72
00000000
00001000
00010000
00001000
00011000
00000000
00000000
00000000
;

//---------------dance-double - NewbStepper-DDP----------------
#NOTEDATA:;
#CHARTNAME:NewbStepper-DDP;
#STEPSTYPE:dance-double;
#DESCRIPTION:NewbStepper-DDP;
#DIFFICULTY:Medium;
#METER:10;
#RADARVALUES:0.418163,0.565914,0.390286,0.263443,0,300,260,40,27,0,0,0,0,0,0.418163,0.565914,0.390286,0.263443,0,300,260,40,27,0,0,0,0,0;
#CREDIT:NewbStepper;
#NOTES:
00000000
00000000
00000000
00000000
,
00000000
00000000
00000000
00000000
,
00000000
00000000
00000000
00000000
,
00000001
00000000
00000001
00000000
,
00001000
00000000
00001000
00000000
00000010
00000010
00000000
00000000
,
00010000
00001000
00000010
00000000
00000100
00000000
00010000
00000000
,
00002000
00000000
00003000
00000000
,
01000000
00000000
00000000
00100000
00000000
00000000
10000000
00000000
,
00010000
00100000
01000000
00010000
,
00001000
00010000
00100000
00000000
01000000
00000000
00001000
00000000
,
00020000
00000000
00030000
00000000
,
00001000
00000010
00000001
00000100
,
00001100
00011000
01010000
00011000
,
00001000
00100000
00010000
01000000
,
00200000
00000000
00000000
20300000
00000000
00000000
31000000
00000000
,
00010000
00000010
00001000
00000100
,
00000020
00000000
00000000
00000032
00000000
00000000
00000103
00000000
,
00000020
00010000
00010030
00000000
,
00010100
00000000
01001000
00000000
,
00001000
00010000
00100000
00000000
00010000
00100000
10000000
00000000
,
21000000
00000000
00000000
00010000
00000000
00000000
00100000
00000000
,
31000000
00010000
00001000
00000100
,
00000001
00000010
00001000
00010000
,
00100000
10000000
00010000
01000000
,
00200000
00000000
00000000
20300000
00000000
00000000
31000000
00000000
,
00200000
00001000
00301000
00000000
,
00010000
00011000
00001000
00011000
,
00000010
00000001
00000100
00000010
,
00001000
00000100
00010000
00001000
,
00200000
01000000
01300000
00000000
,
10000000
00010000
01000000
00001000
00010000
00000100
00001000
00000000
,
00000020
00000100
00000130
00000000
,
00000001
00001000
00010000
10000000
,
00020000
00100000
00130000
00000000
,
00001000
00010000
00000100
00001000
00000001
00000100
00000010
00000000
,
00001010
00001001
00000011
00001001
,
00002000
00000010
00003200
00000010
,
00000300
00000000
00001001
00000000
00000000
00000010
00000000
00010000
,
00000000
00001000
00001000
00000000
01000000
00000000
01100000
00000000
,
00000000
00000000
10010000
00000000
00000000
00100000
00000000
00001000
,
00000000
00010000
00010000
00000000
00000100
00000000
00000110
00000000
,
00000000
00000000
00001001
00000000
00000000
00000100
00000000
00010000
,
00000000
00001000
00001000
00000000
00100000
00000000
01100000
00000000
,
00000000
10010000
00000000
10010000
,
00110000
00101000
00011000
00010010
,
00002000
00000010
00000001
00000100
,
00003020
00010000
00001000
00000100
,
00020030
00000100
00001000
00000010
,
00031000
00011000
00110000
01100000
,
00020000
00100000
10000000
01000000
,
00230000
00001000
00010000
01300000
,
01100000
00000000
00011000
00000000
,
00010000
00000100
00000000
00000110
00000000
00000000
00000000
00000000
,
00000002
00000000
00001003
00000000
,
00000010
00000000
00000000
00001000
00000000
00000000
00010000
00000000
,
20000000
00000000
30010000
00000000
,
01000000
00100000
00010000
00001000
,
00000100
00000000
00000110
00000000
,
00000001
00000100
00001000
00010000
,
01000000
10000000
00100000
00010000
,
00002000
00000000
00003000
00000000
00011000
00011000
00000000
00000000
,
00000020
00000100
00000130
00000000
,
00000001
00001000
00000100
00010000
00001000
01000000
00010000
00000000
,
00200000
01000000
01300000
00000000
,
10000000
00010000
00001000
00000001
,
00002000
00000010
00003010
00000000
,
00010000
00001000
01000000
00010000
10000000
01000000
00100000
00000000
,
00110000
10010000
10100000
10010000
,
00010000
00000000
01000000
00000000
00001000
00010000
00001000
00000000
,
00010000
00000000
00001000
00000000
00000100
00000001
00001000
00000100
,
00000010
00000001
00000100
00001000
,
00011000
00010000
00011000
00001000
,
00000000
00100000
00001000
00010000
01000000
00000000
00000000
00000000
;

//---------------dance-double - NewbStepper-BDP----------------
#NOTEDATA:;
#CHARTNAME:NewbStepper-BDP;
#STEPSTYPE:dance-double;
#DESCRIPTION:NewbStepper-BDP;
#DIFFICULTY:Easy;
#METER:6;
#RADARVALUES:0.262049,0.318327,0.117086,0.107329,0,188,176,12,11,0,0,0,0,0,0.262049,0.318327,0.117086,0.107329,0,188,176,12,11,0,0,0,0,0;
#CREDIT:NewbStepper;
#NOTES:
00000000
00000000
00000000
00000000
,
00000000
00000000
00000000
00000000
,
00000000
00000000
00000000
00000000
,
00100000
00000000
10000000
00000000
,
00010000
10000000
10010000
00000000
,
00010000
00000000
00000000
01000000
00000000
00000000
00001000
00000000
,
00020000
00000000
00030000
00000000
,
00001000
00000000
00000000
00000010
00000000
00000000
00000001
00000000
,
00001000
00001000
00001000
00000000
,
00000001
00000000
00000001
00000000
,
00000020
00000000
00000030
00000000
,
00000100
00000100
00000100
00000100
,
00001000
00010000
01000000
00000000
,
10000000
00100000
01000000
00010000
,
00100000
00000000
00000000
00001000
00000000
00000000
00000100
00000000
,
00000001
00000010
00000100
00001000
,
00000100
00000000
00000000
00010000
00000000
00000000
00001000
00000000
,
00200000
00000000
00300000
00000000
,
00010000
00000000
10000000
00000000
,
00100000
00000000
00010000
00000000
,
00001000
00000010
00000001
00000100
,
00000010
00000000
00001000
00000000
,
00000001
00000100
00001000
00010000
,
01000000
00000000
00100000
00000000
,
00010000
00000000
00000000
01000000
00000000
00000000
00100000
00000000
,
00010000
00000000
00010000
00000000
,
00001000
00000100
00000001
00000010
,
00000001
00000100
00000010
00001000
,
00000001
00000100
00001000
00010000
,
00100000
00000000
00100000
00000000
,
10000000
01000000
00100000
00010000
,
00001000
00000000
00001000
00000000
,
00000001
00000100
00000010
00001000
,
00010000
00000000
00010000
00000000
,
10000000
01000000
00100000
00010000
,
10000000
01000000
00010000
00001000
,
00000010
00000000
00000110
00000000
,
00000000
00001001
00000000
00000000
,
00000000
00010000
00000000
00000000
,
00000000
10010000
00000000
00000000
,
00000000
00001000
00000100
00001000
,
00000000
00001001
00000000
00000000
,
00000000
00010000
00000000
00000000
,
00000000
10010000
00000000
00000000
,
10010000
01000000
10010000
01000000
,
00020000
00000000
00030000
00000000
,
00002000
00000000
00003000
00000000
,
00000020
00000000
00000030
00000000
,
00000001
00000000
00000100
00000000
,
00002000
00000000
00003000
00000000
,
00020000
00000000
00030000
00000000
,
00100000
00000000
01000000
00000000
,
00100000
00100000
00000000
02000000
00000000
00000000
03000000
00000000
,
10010000
00000000
10000000
00000000
,
01000000
00000000
00010000
00000000
,
00001000
00000000
00000010
00000000
,
00000001
00000000
00000100
00000000
,
00000001
00000000
00000001
00000000
,
00000100
00000000
00001000
00000000
,
00010000
00100000
10000000
01000000
,
00010000
00001000
00000100
00000000
,
00000001
00000000
00001000
00000000
,
00000001
00000100
00000010
00001000
,
00010000
00000000
00010000
00000000
,
10000000
01000000
00100000
00010000
,
00001000
00000000
00001000
00000000
,
00000001
00000100
00000010
00001000
,
00000001
00000100
00001000
00010000
,
00100000
00000000
01100000
00000000
,
10010000
00000000
00000000
10000000
,
01000000
00010000
00001000
00000100
,
00000001
00000010
00000100
00001000
,
00000000
00002002
00000000
00000000
00003003
00000000
00000000
00000000
;

//---------------dance-double - NewbStepper-CDP----------------
#NOTEDATA:;
#CHARTNAME:NewbStepper-CDP;
#STEPSTYPE:dance-double;
#DESCRIPTION:NewbStepper-CDP;
#DIFFICULTY:Challenge;
#METER:13;
#RADARVALUES:0.674637,0.707393,2.361229,0.019514,0,484,242,242,2,0,0,0,0,0,0.674637,0.707393,2.361229,0.019514,0,484,242,242,2,0,0,0,0,0;
#CREDIT:NewbStepper;
#NOTES:
// measure 0
00000000
00000000
00000000
00000000
,  // measure 1
00000000
00000000
00000000
00000000
,  // measure 2
00000000
00000000
00000000
00000000
,  // measure 3
10010000
00000000
00011000
00000000
,  // measure 4
00001001
00000110
00001001
00000000
,  // measure 5
00000101
00000101
00001100
00001100
,  // measure 6
00011000
00110000
00011000
00001010
,  // measure 7
00011000
01100000
11000000
01010000
,  // measure 8
00011000
00001100
00011000
01010000
,  // measure 9
00011000
00001010
00000011
00000110
,  // measure 10
00001001
00000000
00001001
00000000
,  // measure 11
00001010
00001001
00001100
00011000
,  // measure 12
00110000
10010000
01010000
00011000
,  // measure 13
00001001
00011000
10010000
00011000
,  // measure 14
00000110
00000000
00000000
00011000
00000000
00000000
01100000
00000000
,  // measure 15
10010000
00011000
00001001
00011000
,  // measure 16
01100000
00000000
00000000
00011000
00000000
00000000
00000110
00000000
,  // measure 17
00000011
00001010
00011000
00001010
,  // measure 18
00011000
01010000
00011000
01010000
,  // measure 19
11000000
01010000
11000000
01010000
,  // measure 20
10010000
00000000
00000000
00011000
00000000
00000000
00001001
00000000
,  // measure 21
00000011
00000101
00001100
00001010
,  // measure 22
00110000
01010000
11000000
10100000
,  // measure 23
11000000
01010000
00011000
00001100
,  // measure 24
00000101
00000000
00000000
00001010
00000000
00000000
00001001
00000000
,  // measure 25
00000101
00000101
00001100
00001100
,  // measure 26
00011000
00110000
00011000
00001010
,  // measure 27
00011000
00110000
10100000
01100000
,  // measure 28
10010000
10010000
10010000
00000000
,  // measure 29
01100000
10010000
01100000
00000000
,  // measure 30
00011000
01001000
00011000
00000000
,  // measure 31
00000110
00001001
00000110
00000000
,  // measure 32
00011000
00110000
00011000
00001010
,  // measure 33
00000110
00001001
00000110
00000000
,  // measure 34
00011000
01001000
00011000
00010100
,  // measure 35
00101000
00011000
00010010
00011000
,  // measure 36
01010000
11000000
10010000
00000000
,  // measure 37
00000000
00000000
01100000
00000000
00000000
10100000
00000000
01010000
,  // measure 38
00000000
00001010
00000110
00000000
00000101
00000000
00001001
00000000
,  // measure 39
00000000
00000000
00000110
00000000
00000000
00000011
00000000
00001100
,  // measure 40
00000000
00110000
01100000
00000000
11000000
00000000
10010000
00000000
,  // measure 41
00000000
00000000
01100000
00000000
00000000
11000000
00000000
00110000
,  // measure 42
00000000
00001100
00000110
00000000
00000011
00000000
00001001
00000000
,  // measure 43
00000000
00000110
00000000
00000011
,  // measure 44
00001001
00011000
10010000
00011000
,  // measure 45
00010010
00011000
00010010
00011000
,  // measure 46
00101000
00011000
00101000
00011000
,  // measure 47
00010100
00011000
00010100
00011000
,  // measure 48
01001000
00011000
01001000
00011000
,  // measure 49
00110000
10100000
10010000
01010000
,  // measure 50
10010000
00011000
00001001
00000110
,  // measure 51
00001001
00000000
00000110
00000000
,  // measure 52
00001001
00001001
00000000
00000202
00000000
00000000
00000303
00000000
,  // measure 53
00000011
00000000
00001100
00000000
,  // measure 54
00110000
00000000
11000000
00000000
,  // measure 55
10100000
00000000
01010000
00000000
,  // measure 56
00001010
00000000
00000101
00000000
,  // measure 57
00001001
00000000
00011000
00000000
,  // measure 58
10010000
00000000
00011000
00000000
,  // measure 59
00001010
00000011
00000101
00001100
,  // measure 60
00001001
00001001
00001001
00000000
,  // measure 61
00000101
00000101
00001010
00001010
,  // measure 62
01010000
01010000
10100000
10100000
,  // measure 63
11000000
11000000
00110000
00110000
,  // measure 64
00001100
00001100
00000011
00000011
,  // measure 65
00000101
00001010
01010000
10100000
,  // measure 66
11000000
00110000
00001100
00000011
,  // measure 67
00000110
00011000
01100000
00011000
,  // measure 68
00001001
00011000
10010000
00011000
,  // measure 69
00001001
00000000
00010010
00000000
,  // measure 70
00101000
00110000
01010000
01100000
,  // measure 71
10010000
00011000
00001001
00011000
,  // measure 72
00000000
00011000
00011000
00011000
00011000
00000000
00000000
00000000
;
