#VERSION:0.83;
#TITLE:I Need You (Insideout Door Mix);
#ARTIST:Supa Fova;
#BANNER:I Need You (Insideout Door Mix).png;
#BACKGROUND:I Need You (Insideout Door Mix)-bg.png;
#JACKET:I Need You (Insideout Door Mix)-jacket.png;
#MUSIC:I Need You (Insideout Door Mix).ogg;
#OFFSET:0.006;
#SAMPLESTART:31.39;
#SAMPLELENGTH:15;
#DISPLAYBPM:65:130;
#BPMS:0=64.8,2=65,18=130;
#TIMESIGNATURES:0=2=4,2=4=4;
#BGCHANGES:1.75=I Need You (Insideout Door Mix).avi=1=0=0=0=StretchNoLoop====,
99999=-nosongbg-=1=0=0=0 // don't automatically add -songbackground-;

//---------------dance-single - KONAMI-bSP----------------
#NOTEDATA:;
#CHARTNAME:KONAMI-bSP;
#STEPSTYPE:dance-single;
#DESCRIPTION:KONAMI-bSP;
#DIFFICULTY:Beginner;
#METER:2;
#RADARVALUES:0.140834,0.184168,0.075834,0,0,91,84,7,0,0,0,0,0,0,0.140834,0.184168,0.075834,0,0,91,84,7,0,0,0,0,0,0;
#CREDIT:KONAMI;
#NOTES:
0000
0000
0000
0000
,
0000
0000
0000
0000
,
0000
0000
0010
0000
,
0100
0100
0100
0000
,
0001
0000
1000
0000
,
0001
0000
1000
0000
,
0001
0000
0100
0000
,
0100
0000
0010
0000
,
0010
0000
1001
0000
,
0000
0000
0110
0000
,
0000
0000
1001
0000
,
0000
0000
0010
0010
,
0010
0010
0010
0000
,
0000
0000
0010
0000
,
0010
0000
1000
1000
,
1000
0000
0001
0001
,
0001
0000
0010
0000
,
0100
0000
0010
0000
,
0100
0000
1001
0000
,
0000
0000
0001
0000
,
1000
0000
0001
0001
,
0001
0000
1000
0000
,
0001
0000
1000
1000
,
1000
0000
0010
0000
,
0100
0000
0010
0010
,
0010
0000
0100
0000
,
0010
0000
0100
0100
,
0100
0000
1001
0000
,
1001
0000
0000
0010
,
0000
0001
0000
0100
,
0000
1000
0000
0010
,
0000
0001
0000
0100
,
0000
1000
0000
0010
,
0000
1000
0000
0100
,
0000
0001
0000
0010
,
0000
1000
0000
0100
,
0000
0000
0001
0001
,
0000
0000
1000
1000
,
0000
0000
0010
0000
,
0001
0000
0100
0000
,
1000
0000
0010
0010
,
0000
0000
0100
0100
,
0000
0000
0110
0000
;

//---------------dance-single - KONAMI-BSP----------------
#NOTEDATA:;
#CHARTNAME:KONAMI-BSP;
#STEPSTYPE:dance-single;
#DESCRIPTION:KONAMI-BSP;
#DIFFICULTY:Easy;
#METER:4;
#RADARVALUES:0.210478,0.215720,0.021667,0.151668,0,136,134,2,14,0,0,0,0,0,0.210478,0.215720,0.021667,0.151668,0,136,134,2,14,0,0,0,0,0;
#CREDIT:KONAMI;
#NOTES:
0000
0000
0000
0000
,
0000
0000
0001
1000
,
0001
0100
1000
0001
,
0010
0001
1000
0001
,
0100
0100
0200
0300
,
0100
0000
0020
0030
,
1000
0001
1000
0000
,
0100
0000
0001
0000
,
0100
0010
0200
0300
,
0100
0000
0020
0030
,
0001
1000
0001
0000
,
0100
0000
1000
1000
,
0100
0000
0002
0000
,
0103
0000
2000
0000
,
3010
0000
0001
0000
,
1000
0000
0001
0001
,
0100
0100
1000
0000
,
1000
0100
0001
0001
,
0100
0000
1000
0000
,
0001
0000
0100
0100
,
0010
0010
2000
3000
,
0100
1000
0001
0001
,
1000
1000
0010
0000
,
0100
0000
0001
0010
,
0100
1000
2000
3000
,
0100
1000
0001
0001
,
1000
1000
0010
0000
,
0100
0000
0001
0010
,
0100
1000
0001
0000
,
0001
0100
0010
0010
,
0100
0100
0001
0100
,
1000
0000
0002
1003
,
0010
0010
1000
0000
,
1000
0100
0010
0010
,
0100
0100
0002
0003
,
1000
0001
1000
0100
,
0001
1001
1000
0000
,
1000
0100
0020
0030
,
0200
0300
1000
0100
,
0002
0003
0010
1000
,
0010
0010
0002
0003
,
0001
0100
0001
0001
,
1000
1000
0100
0100
,
0100
0000
0010
0100
,
1000
1001
0000
0000
;

//---------------dance-single - KONAMI-DSP----------------
#NOTEDATA:;
#CHARTNAME:KONAMI-DSP;
#STEPSTYPE:dance-single;
#DESCRIPTION:KONAMI-DSP;
#DIFFICULTY:Medium;
#METER:7;
#RADARVALUES:0.309526,0.311596,0.162501,0.292502,0.010833,200,185,15,27,0,0,0,0,0,0.309526,0.311596,0.162501,0.292502,0.010833,200,185,15,27,0,0,0,0,0;
#CREDIT:KONAMI;
#NOTES:
0000
0000
0000
0000
,
0000
0000
0000
0000
1100
0000
0010
0100
,
0001
0010
0200
0000
,
1300
0002
0103
0010
,
0001
0000
0000
0001
0000
0000
0001
0000
0002
0000
0000
0000
0000
0000
0000
0000
1003
0000
0000
0000
0000
0000
0000
0000
0100
0000
0000
0000
0000
0000
0000
0000
,
0001
0000
0100
0000
2000
0000
3010
0100
,
0002
0103
1000
0000
,
0001
0100
0010
0000
1000
0000
2000
0000
,
3001
0000
0001
0100
0001
0000
0100
0000
,
1000
0000
0100
0000
0002
0000
0013
0100
,
2000
3100
0001
0000
,
1000
0100
0010
0000
0001
0000
0001
0000
,
1000
0100
0200
0000
,
0300
0110
1000
0100
,
0001
0010
0100
0000
0001
0010
0002
0000
,
1003
0100
2001
3100
,
1002
0103
0020
0030
,
0100
0000
0010
1000
0001
0000
0010
0000
,
0001
0100
0020
0130
,
0001
0100
1000
0000
1000
0000
0001
0000
,
0010
0100
1000
0100
,
0001
1000
0100
0000
1000
0000
2010
0000
,
3001
0100
1000
0000
,
1000
0000
1100
0000
0001
0010
0100
1000
,
0001
1000
0001
0100
,
1000
0001
0100
0000
0001
0000
0012
0000
,
1003
0100
0001
0000
,
0001
0000
0101
0000
1000
0010
0100
0001
,
1000
0001
0220
0330
,
0001
0100
0010
0000
0100
0000
0110
0000
,
0001
1000
0002
0003
,
1000
0100
0010
0001
,
0100
0001
1000
0000
0001
0010
0100
0000
,
1000
0001
0220
0330
,
1000
0100
0010
0000
1001
0000
0100
0000
,
0002
0103
1000
2000
,
3001
0100
0220
0330
,
1000
0100
0010
0000
0100
0000
1001
0000
,
1000
0001
1000
0100
,
0001
0100
0010
1000
,
0100
1000
0001
0000
1000
0010
0100
0000
,
0001
1000
2002
3003
,
0001
0100
0010
0000
0100
0000
0000
0000
,
0100
0001
1000
1000
,
0001
1000
0100
0000
0000
0000
0000
0000
;

//---------------dance-single - KONAMI-ESP----------------
#NOTEDATA:;
#CHARTNAME:KONAMI-ESP;
#STEPSTYPE:dance-single;
#DESCRIPTION:KONAMI-ESP;
#DIFFICULTY:Hard;
#METER:9;
#RADARVALUES:0.376074,0.384045,0.054167,0.281669,0.092084,243,238,5,26,0,0,0,0,0,0.376074,0.384045,0.054167,0.281669,0.092084,243,238,5,26,0,0,0,0,0;
#CREDIT:KONAMI;
#NOTES:
0000
0000
0000
0000
,
0000
0000
1001
0200
,
0301
0100
0010
1000
0200
0000
0320
0000
,
0130
1000
2000
0001
3001
0010
0100
0000
,
0001
0000
0000
1000
0000
0000
0001
0000
0200
0000
0000
0000
0300
0000
0000
0000
0002
0000
0000
0000
0000
0000
0000
0000
0103
0000
0000
0000
0000
0000
0000
0000
,
1000
0100
0010
0000
0001
0100
0002
0000
,
1003
0010
0100
0010
1000
0000
2000
0000
,
3010
0100
0010
0000
0020
0000
1030
0000
,
0100
0001
0010
0100
2000
0000
3100
0000
,
0001
0100
0010
0000
1000
0100
2000
0000
,
3001
0010
0100
0010
0001
0000
1002
0000
,
0013
0100
0010
0000
1000
0001
0001
1000
,
0010
0100
0101
0000
0200
0000
1000
0000
,
0301
0000
1000
0100
0020
0000
0030
0001
,
0200
0000
0300
0010
1000
0000
0001
1000
,
0020
0130
0001
0010
,
0001
0100
0010
1000
0002
0000
0000
0000
,
1003
0000
0010
0100
0020
0000
1030
0000
,
0200
0000
0301
0000
0010
1000
0200
0000
,
0310
0001
0100
0000
0001
0000
1000
0000
,
0010
0100
0001
1000
,
0001
0000
0010
0000
0100
0000
0000
0000
1000
0000
0000
0010
0100
0000
0000
0000
,
1000
0010
0100
0000
0001
0000
0100
0000
,
1000
0000
0000
0100
0010
0000
0000
0000
1000
0000
0100
0000
0010
0000
0001
0000
,
1000
0010
0100
0010
1000
0000
0001
0000
,
1000
0000
0010
0000
0100
0000
0000
0000
0001
0000
0000
0010
0100
0000
0000
0000
,
0001
0010
0100
0000
1000
0000
0100
0000
,
0001
0000
0000
0100
0010
0000
0000
0000
0001
0000
0100
0000
0010
0000
1000
0000
,
0001
0010
0100
1000
2002
0000
3003
0000
,
0010
0100
0010
0000
0100
0000
1000
0000
,
0010
1000
0100
0000
0010
0000
0010
0000
,
0100
0000
0010
0000
0001
0000
0100
0000
0002
0000
0000
0000
1003
0000
0000
0001
,
0000
0001
0010
0000
0100
0000
0000
0000
1000
0000
0000
0000
1000
0000
0000
0000
,
0001
0010
0100
0010
0100
0000
0100
0000
,
0001
0100
1000
0000
0001
0000
0000
0000
,
1000
0000
0000
0000
0001
0000
0000
0000
0100
0000
0000
1000
0000
0000
0000
1000
,
0100
0000
0100
0000
0010
0001
0000
0000
2002
0000
0000
0000
3003
0000
0000
0000
,
0010
0100
0010
0000
0100
0000
0001
0000
,
0010
0001
0100
0000
0010
0000
0010
0000
,
0100
0000
0010
0000
1000
0000
0100
0000
2000
0000
0000
0000
3001
0000
0000
1000
,
0000
1000
0010
0000
0100
0000
0000
0000
0001
0000
0000
0000
0001
0000
0000
0000
,
1000
0010
0100
0010
0100
0000
0100
0000
,
1000
0000
0100
0000
0001
0000
0000
0000
0100
0000
0000
0100
0000
0000
0100
0000
,
0000
0000
1000
0000
0100
0000
0000
0000
0010
0000
0000
0010
0000
0000
0000
0010
,
0001
0000
0001
0000
1000
0100
0000
0000
0000
0000
0000
0000
0000
0000
0000
0000
;

//---------------dance-double - KONAMI-BDP----------------
#NOTEDATA:;
#CHARTNAME:KONAMI-BDP;
#STEPSTYPE:dance-double;
#DESCRIPTION:KONAMI-BDP;
#DIFFICULTY:Easy;
#METER:4;
#RADARVALUES:0.182620,0.215720,0.065000,0.054167,0,118,112,6,5,0,0,0,0,0,0.182620,0.215720,0.065000,0.054167,0,118,112,6,5,0,0,0,0,0;
#CREDIT:KONAMI;
#NOTES:
// measure 0
00000000
00000000
00000000
00000000
,  // measure 1
00000000
00000000
00000000
00000000
,  // measure 2
00000000
00000000
00000000
00000000
,  // measure 3
00000000
00000000
00000000
00000000
,  // measure 4
00000000
00000000
00000000
00000001
,  // measure 5
00000000
00001000
00000000
00000100
,  // measure 6
00000100
00000100
00000000
00001000
,  // measure 7
00000000
00000001
00000000
00000100
,  // measure 8
00001000
00001000
00010000
00000000
,  // measure 9
00001000
00000000
00010000
00010000
,  // measure 10
00100000
00000000
10000000
00000000
,  // measure 11
00010000
00000000
00100000
00100000
,  // measure 12
00010000
10000000
20020000
00000000
,  // measure 13
00000000
30030000
00100000
00000000
,  // measure 14
00000000
00000000
00010000
00000000
,  // measure 15
00001000
00000000
00000010
00000001
,  // measure 16
00000001
00001000
00002002
00000000
,  // measure 17
00000000
00003003
00000100
00000000
,  // measure 18
00001000
00000000
00010000
00010000
,  // measure 19
00100000
00000000
10000000
00010000
,  // measure 20
10000000
00010000
10010000
00000000
,  // measure 21
01000000
00000000
01000000
00010000
,  // measure 22
00001000
00000000
00001000
00000000
,  // measure 23
00000010
00000000
00000010
00000001
,  // measure 24
00001000
00000001
00001001
00000000
,  // measure 25
00000100
00000000
00000100
00001000
,  // measure 26
00010000
00000000
00010000
00000000
,  // measure 27
00100000
00000000
00100000
10000000
,  // measure 28
00010000
10000000
10010000
00000000
,  // measure 29
01000000
00000000
01000000
00000000
,  // measure 30
00010000
00000000
00001000
00000000
,  // measure 31
00010000
00000000
00002000
00003000
,  // measure 32
00001000
00000010
00000001
00000001
,  // measure 33
00001000
00001000
00000001
00000000
,  // measure 34
00000001
00000000
00001000
00001000
,  // measure 35
00001000
00001000
00000001
00000000
,  // measure 36
00000100
00001000
00011000
00000000
,  // measure 37
00010000
01000000
01000000
00000000
,  // measure 38
10000000
10000000
00010000
00010000
,  // measure 39
00010000
00010000
10000000
00000000
,  // measure 40
01000000
00010000
00010000
00001000
,  // measure 41
00001000
00001000
00010000
00010000
,  // measure 42
00010000
00010000
00001000
00001000
,  // measure 43
00001000
00001000
00000010
00000100
,  // measure 44
00000010
00000001
00000000
00000000
;

//---------------dance-double - KONAMI-DDP----------------
#NOTEDATA:;
#CHARTNAME:KONAMI-DDP;
#STEPSTYPE:dance-double;
#DESCRIPTION:KONAMI-DDP;
#DIFFICULTY:Medium;
#METER:7;
#RADARVALUES:0.326550,0.311596,0.119168,0.162501,0.005417,211,200,11,15,0,0,0,0,0,0.326550,0.311596,0.119168,0.162501,0.005417,211,200,11,15,0,0,0,0,0;
#CREDIT:KONAMI;
#NOTES:
// measure 0
00000000
00000000
00000000
00000000
,  // measure 1
00000000
00000000
00000000
00000000
,  // measure 2
00000000
00000000
00001000
00001000
,  // measure 3
00000001
00000001
00000010
00001000
,  // measure 4
00010000
00100000
01000000
00000000
00010000
00000000
10000000
00000000
,  // measure 5
00010000
00100000
01000000
10000000
,  // measure 6
10000000
00010000
10000000
00000000
00100000
00000000
00010000
00000000
,  // measure 7
00010000
00000100
00000010
00000001
,  // measure 8
00001000
00000001
00001000
00000000
00000110
00000000
00000001
00000000
,  // measure 9
00001000
00000010
00000100
00000001
,  // measure 10
00000001
00001000
00000001
00000000
00000010
00000000
00001000
00000000
,  // measure 11
00001000
00100000
01000000
10000000
,  // measure 12
00010000
10000000
00010000
00000000
02200000
00000000
00000000
00000000
,  // measure 13
03000000
01300000
02000000
13000000
,  // measure 14
20000000
30100000
00010000
00001000
,  // measure 15
00000010
00000000
00000001
00000000
00001000
00000001
00000010
00000000
,  // measure 16
00000100
00001001
00000220
00000300
,  // measure 17
00000100
00000000
00000130
00001000
00000001
00000000
00000001
00000000
,  // measure 18
00000001
00001000
00000010
00000000
00000200
00000000
00000301
00000000
,  // measure 19
00000002
00000000
00000013
00000000
00000100
00001000
00000100
00000000
,  // measure 20
00000010
00000001
00000100
00000000
00001100
00000000
00010000
00000000
,  // measure 21
00001000
00010000
00001000
00000000
00010000
00000000
00010000
00000000
,  // measure 22
00100000
01000000
00100000
00000000
10020000
00000000
00100000
00000000
,  // measure 23
00130000
00000000
01000000
00000000
10000000
00010000
01000000
00000000
,  // measure 24
00010000
10000000
01000000
00000000
02020000
00000000
03030000
00000000
,  // measure 25
00001000
00000000
00010000
00000000
00001000
00010000
00001000
00000000
,  // measure 26
00000010
00000100
00002001
00000010
,  // measure 27
00003010
00000000
00000100
00000000
00000001
00001000
00000001
00001000
,  // measure 28
00000001
00001000
00000110
00000001
,  // measure 29
00000001
00000010
00001000
00000000
00010000
00000000
10000000
00000000
,  // measure 30
01000000
00010000
01000000
00000000
00010000
10000000
00010000
00000000
,  // measure 31
10000000
01000000
10000000
00000000
00200000
00000000
01300000
00000000
,  // measure 32
00010000
10000000
01000000
00000000
00110000
00000000
10000000
00000000
,  // measure 33
10000000
00100000
00010000
00000000
00001000
00000000
00000010
00000000
,  // measure 34
00000001
00000100
00000010
00000000
00001000
00000000
00000001
00000000
,  // measure 35
00000010
00000100
00000010
00000000
00000200
00000000
00001300
00000000
,  // measure 36
00000001
00000100
00000001
00000000
00000010
00000100
00000010
00000000
,  // measure 37
00000001
00000000
00000100
00000000
00001000
00010000
00001000
00000000
,  // measure 38
00100000
00000000
01000000
00000000
10000000
01000000
01000000
00000000
,  // measure 39
00010000
01000000
00100000
00000000
00100000
00000000
10010000
00000000
,  // measure 40
00100000
00010000
01000000
00000000
00100000
10000000
00100000
00000000
,  // measure 41
10000000
00000000
01000000
00000000
00010000
00001000
00010000
00000000
,  // measure 42
00000200
00000000
00000000
00000000
00000310
00000000
00000000
00000000
00000100
00000000
00000000
00000100
00000000
00000000
00000100
00000000
,  // measure 43
00000000
00001000
00000010
00000100
00000001
00000000
00000001
00000000
,  // measure 44
00001000
00000010
00001000
00000000
00000000
00000000
00000000
00000000
;

//---------------dance-double - KONAMI-EDP----------------
#NOTEDATA:;
#CHARTNAME:KONAMI-EDP;
#STEPSTYPE:dance-double;
#DESCRIPTION:KONAMI-EDP;
#DIFFICULTY:Hard;
#METER:9;
#RADARVALUES:0.379169,0.384045,0.184168,0.097501,0.032500,245,228,17,9,0,0,0,0,0,0.379169,0.384045,0.184168,0.097501,0.032500,245,228,17,9,0,0,0,0,0;
#CREDIT:KONAMI;
#NOTES:
// measure 0
00000000
00000000
00000000
00000000
,  // measure 1
00000000
00000000
00000000
00000000
,  // measure 2
00000000
00000000
00020000
01030000
,  // measure 3
20000000
31000000
00010000
00001000
,  // measure 4
00001000
00000000
00000000
00000001
00000000
00000000
00000100
00000000
00000010
00000000
00000000
00000000
00000000
00000000
00000000
00000000
00001001
00000000
00000000
00000000
00000000
00000000
00000000
00000000
00000010
00000000
00000000
00000000
00000000
00000000
00000000
00000000
,  // measure 5
00000010
00000100
00000010
00000000
00001000
00000000
00000001
00000000
,  // measure 6
00000100
00001000
00010000
00000000
00010000
00000000
01000000
00000000
,  // measure 7
10000000
00010000
10000000
00000000
00100000
01000000
00100000
00000000
,  // measure 8
01000000
10010000
00000000
00100000
,  // measure 9
00100000
01000000
00100000
00000000
00010000
00000000
10000000
00000000
,  // measure 10
01000000
00010000
00001000
00000000
00001000
00000000
00000100
00000000
,  // measure 11
00000001
00001000
00000001
00000000
00000010
00000100
00000010
00000000
,  // measure 12
00000100
00001001
00000220
00000000
,  // measure 13
00000330
00000000
00000001
00000100
00001000
00000000
00000100
00001000
,  // measure 14
00010000
00000000
00010000
01000000
10000000
00000000
10000000
00000000
,  // measure 15
10000000
00010000
10000000
00000000
00100000
01000000
00010000
00000000
,  // measure 16
00100000
01000000
10000000
00000000
02020000
00000000
03000000
00000000
,  // measure 17
01030000
00000000
00100000
10000000
01000000
00000000
01000000
00010000
,  // measure 18
00001000
00000000
00001000
00000000
00001000
00000100
00000001
00000000
,  // measure 19
00000001
00001000
00000010
00000000
00000101
00000000
00000001
00000000
,  // measure 20
00001000
00000001
00000100
00000000
00001100
00000000
00000001
00000000
,  // measure 21
00000100
00001000
00010000
00000000
00010000
01000000
10000000
00010000
,  // measure 22
10000000
00010000
00100000
01000000
11000000
00000000
00010000
00000000
,  // measure 23
10000000
00100000
00010000
00000000
00010000
00001000
00000100
00000001
,  // measure 24
00001000
00000010
00000100
00000001
00000011
00000000
00000100
00000000
,  // measure 25
00001000
00000001
00000100
00000000
00000100
00001000
00010000
00000000
,  // measure 26
00010000
01000000
10000000
00010000
01010000
00000000
10000000
00000000
,  // measure 27
00100000
01000000
00100000
00000000
10000000
00010000
00100000
01000000
,  // measure 28
10000000
00010000
01000000
00000000
10020000
00000000
00000000
00000000
,  // measure 29
10000000
00000000
10030000
00010000
20000000
00000000
00000000
00000000
,  // measure 30
00010000
00000000
30010000
00000000
10000000
01000000
00010000
00000000
,  // measure 31
00001000
00000010
00000001
00000000
00002100
00000000
00003001
00000000
,  // measure 32
00000001
00001000
00000100
00000000
00001000
00000001
00000100
00000000
,  // measure 33
00000100
00000010
00000100
00000000
00000001
00001000
00000100
00000000
,  // measure 34
00000100
00000000
00000010
00000000
00000100
00000000
00000000
00000000
00001000
00000000
00000000
00001000
00000000
00000000
00001000
00000000
,  // measure 35
00000000
00000000
00000001
00000000
00000100
00000000
00001000
00000000
00010000
00000000
00000000
00010000
00000000
00000000
00010000
00000000
,  // measure 36
01000000
10000000
00000000
01010000
01000000
00100000
00000000
10000000
,  // measure 37
01000000
10000000
00000000
10000000
00010000
00010000
00000000
00100000
,  // measure 38
01000000
11000000
00000000
00010000
10000000
01000000
00000000
01000000
,  // measure 39
00010000
00000000
00001000
00010000
00000100
00000000
00001000
00000000
,  // measure 40
00001000
00000010
00000100
00000000
00001001
00000001
00001000
00000000
,  // measure 41
00000110
00000100
00000010
00000000
00001000
00000001
00000100
00000000
,  // measure 42
00000010
00000000
00001000
00000000
00000100
00000000
00000000
00000000
00001001
00000000
00000000
00000001
00000000
00000000
00000001
00000000
,  // measure 43
00000000
00000001
00000010
00000100
00000100
00000000
00000100
00000000
,  // measure 44
00001000
00000000
00000001
00000000
00000010
00000100
00000000
00000000
00000000
00000000
00000000
00000000
00000000
00000000
00000000
00000000
;

//---------------dance-single - Kekkle-CSP----------------
#NOTEDATA:;
#CHARTNAME:Kekkle-CSP;
#STEPSTYPE:dance-single;
#DESCRIPTION:Kekkle-CSP;
#DIFFICULTY:Challenge;
#METER:13;
#RADARVALUES:0.581909,0.624366,0.227502,0.530837,0.525421,376,355,21,49,0,0,0,0,0,0.581909,0.624366,0.227502,0.530837,0.525421,376,355,21,49,0,0,0,0,0;
#CREDIT:Kekkle;
#NOTES:
0000
0000
0000
0000
,
0000
0000
0000
0000
0000
0000
0000
0000
2000
0000
3010
0100
0001
0000
0000
0000
,
0020
0000
0130
1000
0001
0000
0101
0000
0200
0000
0310
1000
0001
0000
0000
0000
,
2000
0000
3100
0010
0001
0000
0011
0000
0020
0000
0130
1000
0010
0000
0000
0000
,
1010
0000
0000
1001
0000
0000
0101
0000
0120
0000
0000
0000
0000
0000
0000
0000
1030
0000
0000
0000
0001
0000
0000
0000
0101
0000
0000
0000
0200
0000
0000
0000
,
0310
0000
1000
0001
0000
0000
0011
0000
0000
0010
0000
0000
0100
0000
0000
1000
0000
0000
1010
0000
0000
0020
0000
0000
,
0130
0000
0001
1000
0000
0000
1100
0000
0000
0100
0000
0000
0010
0000
0000
0001
0000
0000
1001
0000
0000
2000
0000
0000
,
3100
0000
0010
0001
0000
0000
0101
0000
0000
0100
0000
0000
0020
0000
0000
1030
0000
0000
1001
0000
0000
0001
0000
0010
,
0100
0000
0100
1000
0000
0000
1001
0000
0000
0001
0000
0100
0010
0000
0000
1000
0000
0000
1001
0000
0000
0002
0000
0000
,
0103
0000
0010
1000
0000
0000
1100
0000
0000
0100
0000
0000
0010
0000
0000
0001
0000
0000
0011
0000
0000
0020
0000
0000
,
0130
0000
1000
0010
0000
0000
0110
0000
0000
0100
0000
0000
0001
0000
0000
1000
0000
0000
1010
0000
0000
0020
0000
0000
,
0130
0000
0001
1000
0000
0000
1100
0000
0000
0100
0000
1000
0002
0000
0000
0103
0000
0000
0110
0000
0000
0010
0000
1000
,
0010
0000
1000
0010
0000
0100
0002
0000
0000
0000
0000
0000
2003
0000
0000
0000
0000
0000
0000
0000
0000
0000
0000
0000
,
3010
0000
0100
0001
0000
0000
1000
0000
0000
0200
0000
0000
0000
0000
0000
0310
0000
0000
0001
0000
0000
2000
0000
0000
,
0000
0000
0000
0000
0000
0000
0000
0000
0000
3010
0000
0100
0002
0000
0000
0000
0000
0000
0023
0000
0000
0000
0000
0000
,
0230
0000
2300
3010
0001
0010
0100
0001
,
1000
0000
0100
0010
0000
0000
0001
0000
0000
1000
0000
0010
0100
0000
0000
0001
0000
0000
1000
0000
0000
0100
0000
0000
,
0010
0100
0001
0100
1000
0010
0100
0001
,
0010
0100
1000
0001
0100
0010
0001
0010
,
1000
0100
0010
0100
1000
0001
1000
0100
,
0010
0000
0000
0100
0000
0000
1000
0000
0000
0010
0000
0100
0001
0000
0000
1000
0000
0000
0100
0000
0000
0010
0000
0000
,
0001
0000
1000
0010
0000
0000
0100
0000
0000
0001
0000
0000
0020
0000
0000
0000
0000
0000
0130
0000
0000
1000
0000
0000
,
0010
0100
0100
0002
0000
1003
0100
0020
,
0000
0000
0000
0000
0000
0000
0031
0000
0000
1000
0000
0010
0100
0000
0000
0010
0000
0000
1000
0000
0000
0001
0000
0000
,
0010
0000
0100
0010
0000
0000
0001
0000
0000
1000
0000
0001
0200
0000
0000
0000
0000
0000
0310
0000
1000
0001
0000
0000
,
0010
0000
0000
0100
0000
0010
0001
0000
0000
2000
0000
0000
0000
0000
0000
0000
0000
0000
0001
0000
0000
0000
0000
0000
,
0100
0000
0000
0000
0000
0000
3010
0000
0000
0100
0000
0001
1000
0000
0000
0100
0000
0000
0010
0000
0000
0100
0000
0000
,
1000
0000
0001
0100
0000
0000
0010
0000
0000
1000
0000
0001
0010
0000
0000
0100
0000
0000
1000
0000
0000
0001
0000
0100
,
0010
0000
0010
1000
0000
1000
0100
0010
0100
0020
0000
0000
0031
0000
1000
0000
0000
0010
0000
0000
0100
0000
0000
0002
,
0000
0000
0000
0013
0000
0000
0100
0000
0000
0100
0000
0000
1000
0000
0010
0000
0000
0100
0000
0000
0001
0000
0000
0020
,
0000
0000
0000
0130
0000
1000
0000
0000
0000
0001
0000
1000
0200
0000
0000
0010
0000
0000
0310
0000
0001
0000
0000
1000
,
0010
0000
0000
0100
0000
0001
0100
0000
0020
0000
0000
0000
2030
0000
0000
0000
0000
0000
3001
0000
0000
0000
0000
0010
,
0000
0000
0010
0100
0000
0000
2000
0000
0000
0000
0000
0000
3010
0000
0100
0000
0000
0001
0000
0000
1000
0000
0000
0200
,
0000
0000
0000
0310
0000
0000
0001
0000
0000
0001
0000
0000
0100
0000
0010
0000
0000
1000
0000
0000
0001
0000
0000
0020
,
0000
0000
0000
0130
0000
1000
0000
0000
0000
0020
0000
0000
0001
0000
0000
0000
0000
1000
0000
0000
0000
0001
0000
0000
,
0030
0000
1000
0100
0000
0000
1000
0000
0000
0001
0000
0000
0200
0000
0000
0000
0000
1000
0000
0000
0000
0300
0000
0001
,
0010
0000
0000
0100
0000
0000
1000
0000
0001
0000
0000
0000
0100
0000
0010
0000
0000
1000
0000
0000
0001
0000
0000
0020
,
0000
0000
0000
0130
0000
0000
1000
0000
0000
1000
0000
0000
0001
0000
0100
0000
0000
0010
0000
0000
0100
0000
0000
0002
,
0000
0000
0000
1003
0000
0100
0000
0000
0000
0010
0000
0001
0200
0000
0000
0010
0000
0000
0310
0000
1000
0000
0000
0100
,
0020
0000
0000
0001
0000
0000
0230
0000
0000
1000
0000
0000
0320
0000
0000
0000
0000
0000
0031
0000
0000
0000
0000
1000
,
0000
0000
1000
0010
0000
0000
0200
0000
0000
0000
0000
0000
0301
0000
1000
0000
0000
0100
0000
0000
1000
0000
0000
0020
,
0000
0000
0000
0130
0000
0000
0001
0000
0000
0001
0000
0000
0010
0000
0100
0000
0000
0010
0000
0000
0001
0000
0000
2000
,
0000
0000
0000
3010
0000
0100
0000
0000
0000
0001
0000
0000
0200
0000
0000
0000
0000
1000
0000
0000
0000
0001
0000
0000
,
0300
0000
0010
0100
0000
0000
1000
0000
0000
0001
0000
0000
0020
0000
0000
0000
0000
1000
0000
0000
0000
0030
0000
0001
,
0100
0000
0000
1000
0000
0000
0100
0000
0001
0000
0000
0000
0000
0000
0000
0000
0000
0000
0000
0000
0000
0000
0000
0000
;

//---------------dance-double - Kekkle-CDP----------------
#NOTEDATA:;
#CHARTNAME:Kekkle-CDP;
#STEPSTYPE:dance-double;
#DESCRIPTION:Kekkle-CDP;
#DIFFICULTY:Challenge;
#METER:14;
#RADARVALUES:0.577266,0.624366,0.216668,0.552504,0.525421,373,353,20,51,0,0,0,0,0,0.577266,0.624366,0.216668,0.552504,0.525421,373,353,20,51,0,0,0,0,0;
#CREDIT:Kekkle;
#NOTES:
// measure 0
00000000
00000000
00000000
00000000
,  // measure 1
00000000
00000000
00000000
00000000
00000000
00000000
00000000
00000000
20000000
00000000
31000000
00010000
00001000
00000000
00000000
00000000
,  // measure 2
00000020
00000000
00000031
00001000
00000100
00000000
00010100
00000000
00020000
00000000
00031000
01000000
00100000
00000000
00000000
00000000
,  // measure 3
02000000
00000000
03100000
10000000
00010000
00000000
00000000
00000000
00200000
00000000
00301000
00010000
00000100
00000000
00000000
00000000
,  // measure 4
00000110
00000000
00000000
00000011
00000000
00000000
00001001
00000000
00001200
00000000
00000000
00000000
00000000
00000000
00000000
00000000
00010300
00000000
00000000
00000000
00001000
00000000
00000000
00000000
01001000
00000000
00000000
00000000
02000000
00000000
00000000
00000000
,  // measure 5
03100000
00000000
10000000
00010000
00000000
00000000
01010000
00000000
00000000
01000000
00000000
00000000
00001000
00000000
00000000
00010000
00000000
00000000
00011000
00000000
00000000
00002000
00000000
00000000
,  // measure 6
00003100
00000000
00000001
00000100
00000000
00000000
00000110
00000000
00000000
00000010
00000000
00000000
00001000
00000000
00000000
00000100
00000000
00000000
00010100
00000000
00000000
00020000
00000000
00000000
,  // measure 7
00031000
00000000
01000000
00010000
00000000
00000000
10010000
00000000
00000000
10000000
00000000
00000000
02000000
00000000
00000000
03100000
00000000
00000000
00101000
00000000
00000000
00001000
00000000
00010000
,  // measure 8
00000100
00000000
00000100
00000010
00000000
00000000
00000011
00000000
00000000
00000001
00000000
00001000
00000100
00000000
00000000
00010000
00000000
00000000
00011000
00000000
00000000
00002000
00000000
00000000
,  // measure 9
01003000
00000000
00010000
10000000
00000000
00000000
11000000
00000000
00000000
01000000
00000000
00000000
00100000
00000000
00000000
00001000
00000000
00000000
00101000
00000000
00000000
00200000
00000000
00000000
,  // measure 10
00301000
00000000
00010000
00000010
00000000
00000000
00000110
00000000
00000000
00000100
00000000
00000000
00000001
00000000
00000000
00001000
00000000
00000000
00001010
00000000
00000000
00000020
00000000
00000000
,  // measure 11
00010030
00000000
00001000
01000000
00000000
00000000
01010000
00000000
00000000
00010000
00000000
10000000
02000000
00000000
00000000
03100000
00000000
00000000
00110000
00000000
00000000
00010000
00000000
10000000
,  // measure 12
00100000
00000000
01000000
00001000
00000000
00010000
00000200
00000000
00000000
00000000
00000000
00000000
00002300
00000000
00000000
00000000
00000000
00000000
00000000
00000000
00000000
00000000
00000000
00000000
,  // measure 13
00003001
00000000
00000100
00000010
00000000
00000000
00010000
00000000
00000000
00002000
00000000
00000000
00000000
00000000
00000000
00000000
00000000
00000000
01003000
00000000
00000000
00200000
00000000
00000000
,  // measure 14
00000000
00000000
00000000
00000000
00000000
00000000
00300000
00000000
00000000
10000000
00000000
01000000
00020000
00000000
00000000
00000000
00000000
00000000
00032000
00000000
00000000
00000000
00000000
00000000
,  // measure 15
00003200
00000000
00000302
00000013
00001000
00000010
00000100
00010000
,  // measure 16
00001000
00000000
01000000
00010000
00000000
00000000
10000000
00000000
00000000
00010000
00000000
00100000
01000000
00000000
00000000
10000000
00000000
00000000
00010000
00000000
00000000
01000000
00000000
00000000
,  // measure 17
00001000
00010000
01000000
00010000
00001000
00010000
00000010
00001000
,  // measure 18
00000100
00000010
00000100
00010000
00001000
00000100
00000001
00000010
,  // measure 19
00000100
00001000
00010000
00100000
01000000
00010000
01000000
10000000
,  // measure 20
00100000
00000000
00000000
00010000
00000000
00000000
00001000
00000000
00000000
00010000
00000000
01000000
00100000
00000000
00000000
00010000
00000000
00000000
10000000
00000000
00000000
00100000
00000000
00000000
,  // measure 21
01000000
00000000
00001000
00010000
00000000
00000000
00000010
00000000
00000000
00001000
00000000
00000000
00000200
00000000
00000000
00000000
00000000
00000000
00000310
00000000
00000000
00000001
00000000
00000000
,  // measure 22
00001000
00000100
00000100
00020000
00000000
00031000
01000000
00200000
,  // measure 23
00000000
00000000
00000000
00000000
00000000
00000000
00310000
00000000
00000000
00001000
00000000
01000000
00010000
00000000
00000000
00100000
00000000
00000000
10000000
00000000
00000000
00100000
00000000
00000000
,  // measure 24
00001000
00000000
00010000
00000100
00000000
00000000
00001000
00000000
00000000
00000010
00000000
00000100
00000002
00000000
00000000
00000000
00000000
00000000
00000013
00000000
00000100
00001000
00000000
00000000
,  // measure 25
00000100
00000000
00000000
00010000
00000000
00001000
01000000
00000000
00000000
00200000
00000000
00000000
00000000
00000000
00000000
00000000
00000000
00000000
20300000
00000000
00000000
00000000
00000000
00000000
,  // measure 26
32000000
00000000
00000000
00000000
00000000
00000000
03100000
00000000
00000000
00010000
00000000
10000000
00100000
00000000
00000000
01000000
00000000
00000000
00001000
00000000
00000000
00010000
00000000
00000000
,  // measure 27
00001000
00000000
00000100
00000010
00000000
00000000
00001000
00000000
00000000
00000001
00000000
00000010
00000100
00000000
00000000
00010000
00000000
00000000
00001000
00000000
00000000
00100000
00000000
01000000
,  // measure 28
10000000
00000000
10000000
00010000
00000000
00010000
01000000
00001000
01000000
00002000
00000000
00000000
00013000
00000000
00000010
00000000
00000000
00000100
00000000
00000000
00000001
00000000
00000000
00000020
,  // measure 29
00000000
00000000
00000000
00000130
00000000
00000000
00010000
00000000
00000000
00010000
00000000
00000000
00001000
00000000
01000000
00000000
00000000
00010000
00000000
00000000
00100000
00000000
00000000
02000000
,  // measure 30
00000000
00000000
00000000
03100000
00000000
00010000
00000000
00000000
00000000
10000000
00000000
00100000
02000000
00000000
00000000
00001000
00000000
00000000
03001000
00000000
00010000
00000000
00000000
00000010
,  // measure 31
00001000
00000000
00000000
00000001
00000000
00000010
00000100
00000000
00002000
00000000
00000000
00000000
00003200
00000000
00000000
00000000
00000000
00000000
00010300
00000000
00000000
00000000
00000000
00001000
,  // measure 32
00000000
00000000
00001000
01000000
00000000
00000000
00200000
00000000
00000000
00000000
00000000
00000000
10300000
00000000
01000000
00000000
00000000
00010000
00000000
00000000
00001000
00000000
00000000
00020000
,  // measure 33
00000000
00000000
00000000
00030010
00000000
00000000
00001000
00000000
00000000
00001000
00000000
00000000
00000001
00000000
00000010
00000000
00000000
00001000
00000000
00000000
00000010
00000000
00000000
00000002
,  // measure 34
00000000
00000000
00000000
00001003
00000000
00000100
00000000
00000000
00000000
00020000
00000000
00000000
00001000
00000000
00000000
00000000
00000000
00100000
00000000
00000000
00000000
00000100
00000000
00000000
,  // measure 35
00030000
00000000
00001000
01000000
00000000
00000000
00100000
00000000
00000000
10000000
00000000
00000000
00020000
00000000
00000000
00000000
00000000
00100000
00000000
00000000
00000000
00030000
00000000
10000000
,  // measure 36
01000000
00000000
00000000
00010000
00000000
00000000
00001000
00000000
01000000
00000000
00000000
00000000
00100000
00000000
00010000
00000000
00000000
00001000
00000000
00000000
00000100
00000000
00000000
00000002
,  // measure 37
00000000
00000000
00000000
00000013
00000000
00000000
00000100
00000000
00000000
00000100
00000000
00000000
00010000
00000000
00001000
00000000
00000000
01000000
00000000
00000000
00010000
00000000
00000000
20000000
,  // measure 38
00000000
00000000
00000000
31000000
00000000
00100000
00000000
00000000
00000000
00001000
00000000
01000000
00020000
00000000
00000000
00100000
00000000
00000000
00130000
00000000
00001000
00000000
00000000
00010000
,  // measure 39
00000020
00000000
00000000
00000130
00000000
00000000
00002000
00000000
00000000
00013000
00000000
00000000
00000200
00000000
00000000
00000000
00000000
00000000
00000310
00000000
00000000
00000000
00000000
00000001
,  // measure 40
00000000
00000000
00000001
00000100
00000000
00000000
00000020
00000000
00000000
00000000
00000000
00000000
00010030
00000000
00001000
00000000
00000000
01000000
00000000
00000000
00100000
00000000
00000000
20000000
,  // measure 41
00000000
00000000
00000000
31000000
00000000
00000000
00010000
00000000
00000000
00010000
00000000
00000000
00001000
00000000
00010000
00000000
00000000
00001000
00000000
00000000
00000100
00000000
00000000
00000002
,  // measure 42
00000000
00000000
00000000
00000013
00000000
00000100
00000000
00000000
00000000
00010000
00000000
00000000
00002000
00000000
00000000
00000000
00000000
01000000
00000000
00000000
00000000
00000100
00000000
00000000
,  // measure 43
00003000
00000000
00000001
00000010
00000000
00000000
00000100
00000000
00000000
00010000
00000000
00000000
00002000
00000000
00000000
00000000
00000000
00100000
00000000
00000000
00000000
00003000
00000000
00010000
,  // measure 44
00000100
00000000
00000000
00000001
00000000
00000000
00000100
00000000
00010000
00000000
00000000
00000000
00000000
00000000
00000000
00000000
00000000
00000000
00000000
00000000
00000000
00000000
00000000
00000000
;
