#TITLE:Hydra;
#ARTIST:James Landino X Akira Complex;
#BANNER:Hydra.png;
#BACKGROUND:Hydra-bg.png;
#MUSIC:Hydra.ogg;
#OFFSET:1.497;
#SAMPLESTART:84;
#SAMPLELENGTH:15;
#BPMS:0=160,132=80,164=160;

//---------------dance-single - Talkion-bSP----------------
#NOTES:
     dance-single:
     Talkion:
     Beginner:
     5:
     0.223633,0.327354,0.334285,0.130452,0,192,151,41,16,0,0,0.223633,0.327354,0.334285,0.130452,0,192,151,41,16,0,0:
0000
0000
0000
0000
,
0000
0000
0000
0000
,
0000
0000
0000
0000
,
0000
0000
0000
0000
,
0000
0000
0000
0000
,
0000
1001
0000
0000
,
0000
0000
0000
0000
0000
0001
0000
0000
,
1001
0000
1001
0000
,
1000
0000
0000
1000
0000
0000
1000
0000
,
1001
0001
0000
0001
,
0000
0000
0100
0000
0000
0010
0000
0000
,
1001
1000
0000
1000
,
0000
0000
0100
0000
0000
0010
0000
0000
,
0000
0220
0000
0330
,
2002
0000
0000
0000
3003
0001
0000
0000
,
1001
0000
1001
0000
,
0000
0000
0000
0000
,
1000
0000
1000
0000
,
0100
0100
0100
0000
,
0001
0000
0001
0000
,
0100
0100
0100
0000
,
1000
0000
1000
0000
,
0100
0100
0100
0000
,
0001
0000
0100
0000
,
1001
0000
0000
0110
0000
0000
1001
0000
,
0001
0000
0001
0000
,
0010
0010
0010
0000
,
1000
0000
1000
0000
,
0010
0010
0010
0000
,
0000
0220
0000
0330
,
2002
0000
0000
3003
,
0001
0000
0100
0000
,
1001
0000
0000
0110
0000
0000
1001
0000
,
2000
0000
0000
0000
,
3000
0000
0000
0000
,
0002
0000
0000
0000
,
0003
0000
0000
0000
,
1000
1000
1000
1000
,
0100
0010
0001
1000
,
0001
0001
0001
0001
,
0100
0010
1000
0001
,
1001
0000
1001
0000
,
0110
0000
0110
0000
,
1001
0000
1001
0000
,
0110
0000
0110
0000
,
2000
0000
0000
3000
,
0002
0000
0000
0003
,
1001
0000
1001
0000
,
1000
1000
1000
0000
,
0001
0001
0100
0000
,
0010
0010
1000
0000
,
0001
0000
0001
0000
,
0001
0000
0001
0000
,
1000
1000
0100
0000
,
0010
0010
0001
0000
,
1001
0000
1001
0000
,
0110
0110
0110
0000
,
1000
1000
0100
0000
,
0001
0001
0100
0000
,
1000
0000
1000
0000
,
1000
0000
1000
0000
,
0000
0220
0000
0330
,
2002
0000
0000
3003
,
0001
0000
0100
0000
,
1001
1001
1001
0000
,
1000
0000
1000
0000
,
0100
0100
0100
0000
,
0001
0000
0001
0000
,
0100
0100
0100
0000
,
1000
0000
1000
0000
,
0100
0100
0100
0000
,
0001
0000
0100
0000
,
1001
0000
0000
0110
0000
0000
1001
0000
,
1001
0000
0000
0000
;

//---------------dance-single - Talkion-BSP----------------
#NOTES:
     dance-single:
     Talkion:
     Easy:
     11:
     0.449595,0.476152,0.399511,0.138606,0.122299,386,337,49,17,0,0,0.449595,0.476152,0.399511,0.138606,0.122299,386,337,49,17,0,0:
0000
0000
0000
0000
,
0000
0000
0000
0000
,
0000
0000
0000
0000
,
0000
0000
0000
0000
,
0000
0000
0000
0000
,
0000
1001
1000
1000
,
0100
0000
0000
0100
0000
0000
0100
0000
0000
0000
0010
0000
0000
0010
0000
0000
,
0011
0000
1100
0000
,
1000
0000
0000
0100
0000
0000
0001
0000
0000
0010
0000
0000
1000
0000
0000
0000
,
1001
0001
0100
0010
,
0100
0000
0000
0000
0001
0000
0000
0000
0100
0000
0010
0000
0000
0010
0000
0000
,
1010
1000
0001
0010
,
0001
0000
0000
0000
1000
0000
0000
0000
0001
0000
0010
0000
0000
0020
0000
0000
,
0030
0000
1100
0000
1000
0100
0010
0000
,
0011
0000
0000
0000
0001
0000
0100
0000
0010
0000
1000
0000
0000
1000
0000
0000
,
1001
0000
0000
0001
0000
0000
0010
0000
0110
0000
0000
1000
0000
0000
0020
0000
,
0000
0000
0000
0030
,
1010
0101
1010
0101
,
0001
0100
0010
0000
1000
0100
0010
0000
,
0011
1100
0011
1100
,
1000
0000
0100
0000
0010
0000
0000
0000
0001
0000
0100
0000
0000
0100
0000
0000
,
0000
0110
1010
0101
,
0001
0100
0010
0000
1000
0100
0010
0000
,
1001
0000
1001
0000
,
1000
0000
0000
0100
0000
0000
0001
0000
0000
0010
0000
0000
1000
0000
0000
0000
,
1010
0101
1010
0101
,
0001
0100
1000
0000
1000
0100
0001
0000
,
0011
1100
0011
1100
,
1000
0100
0001
0000
0001
0100
1000
0000
,
0000
0000
1100
0000
1000
0100
0010
0000
,
0011
0000
0001
0100
0010
1000
0001
0000
,
1001
0000
1001
0000
,
1000
0000
0000
0100
0000
0000
0001
0000
0000
0010
0000
0000
1000
0000
0000
0000
,
0002
0000
0000
0023
0000
0000
0230
0000
0000
0000
0000
0000
0000
0000
0000
0000
,
1300
0001
0100
0010
1000
0010
0100
0001
,
2000
0000
0000
3200
0000
0000
0320
0000
0000
0000
0000
0000
0000
0000
0000
0000
,
0031
1000
0010
0100
0001
0100
0010
1000
,
0001
0010
0000
0010
0000
0010
0000
0010
,
0001
1000
0010
0100
0001
1000
0100
0010
,
0001
1000
0000
1000
0000
1000
0000
1000
,
0010
0100
0001
1000
0100
1000
0001
0100
,
0010
0000
0000
0010
0000
0000
0010
0000
1000
0000
0000
1000
0000
0000
1000
0000
,
0100
0000
0000
0100
0000
0000
0100
0000
0010
0000
0000
0010
0000
0000
0020
0000
,
0031
0000
0000
0001
0000
0000
0001
0000
0100
0000
0000
0100
0000
0000
0100
0000
,
0010
0000
0000
0010
0000
0000
0010
0000
1000
0000
0000
0000
1001
0000
0000
0000
,
0001
0010
0100
1000
0001
0010
0100
0000
,
1000
0010
0100
0001
1000
0010
0100
0000
,
0110
0000
0000
0001
0000
0000
0010
0000
0110
0000
0000
1000
0000
0000
0010
0000
,
0200
0000
0000
0000
0310
0100
0100
0000
,
0001
0100
0010
0000
1000
0100
0010
0000
,
0001
0100
0010
0000
1000
0100
0001
0000
,
0100
0100
1000
1000
,
0001
0001
0100
0020
,
2030
0000
3001
0000
1000
0100
0010
0000
,
0001
0100
0010
0000
0001
1000
0100
0001
,
1000
0000
0110
0000
,
0001
0000
0000
0001
0000
0000
0001
0000
0011
0000
0000
0000
1100
0000
0000
0000
,
0001
0010
0100
0000
1000
0010
0100
0000
,
0001
0010
0100
0000
1000
0010
0001
0000
,
0010
0010
1000
1000
,
0001
0001
0010
0200
,
2300
0000
3001
0100
0001
0100
0010
0000
,
1010
0000
1000
0100
0010
0001
1000
0100
,
0001
0000
0110
0000
,
1000
0000
0000
1000
0000
0000
1000
0000
1010
0000
0000
0000
0101
0000
0000
0000
,
1001
0000
1000
0100
1000
0100
1000
0100
,
2000
3001
0100
0100
,
1001
0000
0001
0100
0001
0100
0001
0100
,
0002
0000
0000
0000
1003
0000
0000
0000
0100
0000
0010
0000
0000
0010
0000
0000
,
0000
0000
0001
0010
0001
0010
0001
0010
,
0002
1003
0010
0010
,
1001
0000
1001
0000
,
1000
0000
0000
0100
0000
0000
0001
0000
0000
0010
0000
0000
1000
0000
0000
0000
,
1001
0000
0000
0000
;

//---------------dance-single - Talkion-DSP----------------
#NOTES:
     dance-single:
     Talkion:
     Medium:
     14:
     0.660416,0.714227,0.790868,0.269058,0.456584,567,470,97,33,0,0,0.660416,0.714227,0.790868,0.269058,0.456584,567,470,97,33,0,0:
0000
0000
0000
0000
,
0000
0000
0000
0000
,
0000
0000
0000
0000
,
0000
0000
0000
0000
,
0000
0000
0000
0000
,
0020
0030
1001
0000
0100
0000
0100
0000
,
0100
0000
0000
0001
0000
0000
0001
0000
0000
0000
1001
0000
0000
1100
0000
0000
,
0011
0000
0000
0001
0000
0000
0001
0000
1001
0000
0000
0000
0010
0000
0000
0000
,
1010
0000
0000
0011
0000
0000
0101
0000
0000
1100
0000
0000
1001
0000
0000
0000
,
0110
0000
0000
0001
0000
0000
0001
0000
1000
0000
0000
0010
0000
0000
0010
0000
,
0001
0000
0000
0010
0000
0000
0010
0000
1000
0000
1010
0000
0000
0101
0000
0000
,
0110
0000
0000
1000
0000
0000
1000
0000
0001
0000
0000
0010
0000
0000
0010
0000
,
1000
0000
0000
0010
0000
0000
0010
0000
0001
0000
0011
0000
0000
2100
0000
0000
,
3000
0000
0000
0000
1001
0000
0000
0001
0000
0001
0100
0000
0010
0100
0000
0100
,
0001
1000
0001
0000
0010
0100
0000
0100
1000
0001
1000
0000
0000
0110
0000
0000
,
1001
0000
0000
0011
0000
0000
1000
0000
1100
0000
0000
0101
0000
0000
0002
0000
,
1000
1000
1000
1003
,
1100
0000
0101
0000
0010
0010
0010
0000
,
1000
0100
0000
1000
0100
0000
1000
0000
0010
0000
0010
0000
0010
0000
0000
0000
,
0101
0000
1100
0000
0010
0010
0010
0000
,
0001
0100
0000
0001
0100
0000
0002
0000
0013
0000
0100
0000
1100
0000
0000
0000
,
0010
0000
1001
0000
0100
0100
0100
0000
,
1000
0010
0000
1000
0010
0000
1000
0000
0100
0000
0100
0000
0100
0000
0000
0000
,
0011
0100
1010
0100
,
0011
0000
0000
1010
0000
0000
1100
0000
0000
0101
0000
0000
1001
0000
0000
0000
,
1010
0000
0011
0000
1000
1000
1000
0000
,
0010
0100
0000
0010
0100
0000
0010
0000
0001
0000
0001
0000
0001
0000
0000
0000
,
0011
0000
1010
0000
0001
0001
0001
0000
,
0010
0100
0000
0010
0100
0000
0020
0000
1030
0000
0010
0000
0001
0000
0000
0011
,
0000
0000
0000
0000
1100
0000
0000
1000
0100
1000
0100
0000
1000
0000
0001
0000
,
0100
0010
0000
0100
0010
0000
0100
0000
1000
0000
0100
0000
0002
0000
0000
0000
,
1003
0001
0110
1000
,
1100
0000
0000
0101
0000
0000
0011
0000
0000
1010
0000
0000
1001
0000
0000
0000
,
0002
0000
0000
0023
0000
0000
0230
0000
0000
0000
0000
0000
0000
0000
0000
0000
,
1300
0100
0001
0100
0010
0001
1000
0010
,
0200
0000
0000
0320
0000
0000
2030
0000
0000
0000
0000
0000
0000
0000
0000
0000
,
3001
0010
0100
0010
1000
0010
0100
1000
,
0002
0000
0103
0020
0100
0030
0002
0000
1003
0000
0100
0000
0010
0000
0001
0000
,
2000
0010
3020
0000
0031
0010
0020
0000
2030
0010
3020
0000
0031
0010
0020
0000
,
2030
0000
3100
0020
0100
0030
2000
0000
3001
0000
0100
0000
0010
0000
1000
0000
,
0002
0010
0023
0000
2030
0010
3020
0000
0031
0010
0020
0000
2030
0010
3020
0000
,
0031
0000
0000
0011
0000
0000
1000
0000
1100
0000
0000
1100
0000
0000
0001
0000
,
0101
0000
0000
0101
0000
0000
1000
0000
1100
0000
0000
1100
0000
0000
0200
0000
,
0301
0000
0000
0101
0000
0000
0100
0000
0110
0000
0000
0110
0000
0000
1000
0000
,
1001
0000
0000
1001
0000
0000
1001
0000
1001
0000
0000
0000
0110
0000
0000
0000
,
1000
0010
1000
0000
0001
0100
0000
0010
0100
0000
0001
0100
0000
0010
0100
0000
,
0001
0010
0001
0000
1000
0100
0000
0010
0100
0000
1000
0100
0000
0010
0100
0000
,
1100
0000
0000
1100
0000
0000
0001
0000
0101
0000
0000
0101
0000
0000
0100
0000
,
0010
0010
1000
0001
0010
0100
0100
0000
,
1000
0000
0100
0000
0001
0000
0100
0010
0000
0100
0010
0000
0001
0010
0001
0000
,
1000
0000
0010
0000
0001
0000
0010
0100
0000
0010
0100
0000
1000
0100
0010
0000
,
0110
0000
0000
1000
0000
0000
1000
0000
0001
0000
0010
0000
0100
0000
0000
0000
,
1000
0000
0000
1000
0000
0000
1000
0000
0001
0000
0100
0000
0010
0000
0000
0000
,
1000
0000
0010
0000
0001
0000
0010
0100
0000
0010
0100
0000
0001
0100
0001
0000
,
1000
0000
0100
0000
0001
0000
0100
0010
0000
0100
0010
0000
1000
0010
0001
0000
,
0011
0000
0000
1000
0000
0000
0010
0000
0110
0000
0000
0001
0000
0000
0010
0000
,
0110
0000
0000
0110
0000
0000
0110
0000
1001
0000
0100
0000
1001
0000
0000
0000
,
0001
0000
0100
0000
1000
0000
0100
0010
0000
0100
0010
0000
1000
0010
1000
0000
,
0001
0000
0010
0000
1000
0000
0010
0100
0000
0010
0100
0000
0001
0100
0010
0000
,
0110
0000
0000
0001
0000
0000
0001
0000
1000
0000
0010
0000
0100
0000
0000
0000
,
0001
0000
0000
0001
0000
0000
0001
0000
0101
0000
0000
0000
1010
0000
0000
0000
,
2000
0000
0000
0000
3010
0000
0100
0010
0000
0100
0010
0000
1000
0010
0100
0001
,
1000
0000
0000
0000
0100
0000
0010
0100
0000
0010
0100
0000
0001
0100
0010
0001
,
1000
0000
0000
0001
0000
0000
0010
0000
0110
0000
0000
1000
0000
0000
0010
0000
,
0110
0000
0000
0110
0000
0000
0110
0000
1001
0000
0100
0000
1001
0000
0000
0000
,
0110
0000
1000
0100
0001
0100
1000
0100
,
0001
0001
0001
0100
1000
0010
0110
0000
,
1001
0000
0001
0100
1000
0100
0001
0100
,
1000
1000
1000
0100
0001
0010
0110
0000
,
1001
0000
1000
0010
0001
0010
1000
0010
,
0001
0001
0001
0010
1000
0100
0110
0000
,
0011
0100
1010
0100
,
0011
0000
0000
1010
0000
0000
1100
0000
0000
0101
0000
0000
1001
0000
0000
0000
,
0110
0000
0000
0000
;

//---------------dance-single - Talkion-ESP----------------
#NOTES:
     dance-single:
     Talkion:
     Hard:
     16:
     0.830470,0.982063,0.839788,0.350591,0.913168,713,610,103,43,0,0,0.830470,0.982063,0.839788,0.350591,0.913168,713,610,103,43,0,0:
0000
0000
0000
0000
,
0000
0000
0000
0000
,
0000
0000
0000
0000
,
0000
0000
0000
0000
,
0000
0000
0000
0000
,
0001
0010
0100
1000
0001
0000
0000
0000
0100
0000
0000
0000
0100
0000
0000
0000
,
0010
0000
0000
1000
0000
0000
1000
0000
0000
0000
1001
0000
0000
0011
0000
0000
,
2100
0000
0000
3001
0000
0000
0001
0000
0101
0000
0000
0100
0010
1000
0010
1000
,
0001
0000
0000
0011
0000
0000
1010
0000
0000
1100
0000
0000
0101
0000
0000
0000
,
1001
0000
1000
0000
0001
0010
0000
0020
0000
0000
1030
0000
0001
0100
0000
0200
,
0000
0000
1300
0000
0001
0010
0000
0020
0000
0000
1030
0000
0000
0110
0000
0000
,
1001
0000
0001
0000
1000
0100
0000
0200
0000
0000
0301
0000
1000
0010
0000
0020
,
0000
0000
0031
0000
1000
0100
0000
0200
0000
0000
0301
0000
0000
0110
0000
1000
,
0002
0000
0000
0000
0013
0000
0000
0010
0001
0010
0001
0000
1000
0010
0100
0001
,
0010
0100
1000
0000
0001
0100
0010
0100
0001
1000
0010
1000
0001
0010
0100
1000
,
0010
0000
0000
0110
0000
0000
1000
0000
1100
0000
0000
0101
0000
0000
0002
0000
,
1000
1000
1000
1003
,
0101
0000
1100
0000
0201
0310
1100
0000
,
1000
0100
0000
0100
0001
0000
0010
0000
1100
0000
0001
0000
1001
0000
0000
0000
,
1100
0000
0101
0000
1200
0310
0101
0000
,
0001
0000
0000
0100
0000
0000
0000
0000
0000
0100
0000
0000
1000
0000
0000
0000
0000
0000
0001
0000
1000
0000
0001
0000
1000
0000
0000
0000
0000
0000
0010
0000
0000
0000
0000
0000
0200
0000
0000
0001
0000
0000
0000
0000
0000
0000
0000
0000
,
0310
0000
1001
0000
0201
0310
1100
0000
,
1000
0100
0000
0100
0001
0000
0010
0000
1100
0000
0001
0000
1001
0000
0000
0000
,
1010
0000
0000
0000
0100
0000
0000
0000
0011
0000
0000
0001
1000
0100
1000
0100
,
0010
0000
0000
0011
0000
0000
1010
0000
0000
0110
0000
0000
1001
0000
0000
0000
,
0011
0000
1010
0000
0021
0130
1010
0000
,
1000
0010
0000
0010
0001
0000
0100
0000
1010
0000
0001
0000
1001
0000
0000
0000
,
1010
0000
0011
0000
1020
0130
0011
0000
,
0001
0000
0000
0010
0000
0000
0000
0000
0000
0010
0000
0000
1000
0000
0000
0000
0000
0000
0001
0000
1000
0000
0001
0000
1000
0000
0000
0000
0000
0000
0100
0000
0000
0000
0000
0000
0010
0000
0000
0100
0000
0000
0000
0000
0000
0001
0000
0000
,
0100
0000
0000
0000
1100
0000
0000
0100
1000
0100
1000
0000
0001
0100
0010
1000
,
0100
0010
0000
0010
0001
1000
0010
0100
0001
1000
0010
1000
0001
0010
0100
1000
,
0001
0000
0000
0000
0100
0000
0000
0000
1010
0000
0000
1000
0001
0010
0001
0010
,
0100
0000
0000
1100
0000
0000
0101
0000
0000
0110
0000
0000
1001
0000
0000
0000
,
2000
0000
0000
3200
0000
0000
0320
0000
0000
0000
0000
0000
0000
0000
0000
0000
,
0031
0010
1000
0010
0100
1000
0001
0100
,
0020
0000
0000
0230
0000
0000
0302
0000
0000
0000
0000
0000
0000
0000
0000
0000
,
1003
0100
0010
0100
0001
0100
0010
0001
,
1000
0001
1000
0020
0000
0130
0002
0000
1003
0100
1000
0000
0001
0100
0001
0000
,
2000
0100
3200
0010
0320
0001
0032
1000
2003
0010
3020
0100
0230
0001
0302
1000
,
1003
0001
1000
0200
0000
0310
0002
0000
1003
0010
1000
0000
0001
0010
0001
0000
,
2000
0010
3020
0100
0230
0001
0302
1000
2003
0100
3200
0010
0320
0001
0032
1000
,
1003
0000
0000
1010
0000
0000
0001
0000
0101
0000
0000
1100
0000
0000
1000
0000
,
1100
0000
0000
0000
0000
0000
0000
0000
0000
0101
0000
0000
0000
0000
0000
0000
0000
0000
0001
0000
0000
0000
0000
0000
0011
0000
0000
0000
0000
0000
0000
0000
0000
1010
0000
0000
0000
0000
0000
0000
0000
0000
1000
0000
0001
0000
1000
0000
,
0100
0000
0000
0101
0000
0000
0001
0000
0011
0000
0000
1010
0000
0000
1000
0000
,
1010
0000
0000
0011
0000
0000
0001
0000
1001
0000
0000
1000
0001
0100
0010
1000
,
0100
0010
0001
1000
0100
1000
0001
0100
0001
1000
0100
1000
0001
0010
0100
1000
,
0010
0100
0001
1000
0010
1000
0001
0010
0001
1000
0010
1000
0001
0010
0100
1000
,
0010
0000
0000
0110
0000
0000
1000
0000
1100
0000
0000
0101
0000
0000
0001
0000
,
1001
0000
1000
0000
0100
1000
0100
1000
0001
0000
0010
0000
0010
0000
0000
0000
,
0001
0010
0100
1000
0001
0000
1000
0100
0000
0100
0001
1000
0010
0100
0010
1000
,
0001
0010
0100
1000
0001
0000
1000
0100
0000
0100
0001
1000
0010
0100
0001
0010
,
0100
0000
0000
0100
0000
0000
0100
0000
1000
0000
0001
0100
0001
0000
0100
0000
,
0010
0000
0000
0010
0000
0000
0010
0000
1000
0000
0001
0000
0020
0000
0000
0000
,
0130
1000
0001
0010
0100
0000
1000
0010
0000
0010
0001
1000
0100
0010
0100
1000
,
0001
0100
0010
1000
0001
0000
1000
0010
0000
0010
0001
1000
0010
0100
1000
0100
,
0001
0000
0001
0010
0000
0010
0100
0000
1001
0000
1000
0010
0000
0010
0100
0000
,
1001
0000
0100
0100
0000
0100
0100
0000
1001
0000
0110
0000
1001
0000
0000
0000
,
0001
0010
0100
0010
1000
0000
0010
0100
0000
0100
0001
1000
0100
0010
0100
1000
,
0001
0100
0010
0100
1000
0000
0100
0010
0000
0010
0001
1000
0010
0100
0001
0010
,
0100
0000
0000
0100
0000
0000
0100
0000
1000
0000
0001
0100
0001
0000
0100
0000
,
0010
0000
0000
0010
0000
0000
0010
0000
1010
0000
0000
0000
0101
0000
0000
0000
,
0001
0100
0010
1000
0100
0000
1000
0100
0010
0100
0010
0001
1000
0100
0010
0001
,
0100
0000
0001
0100
0010
1000
0001
1000
0010
0100
0001
1000
0100
0010
1000
0010
,
0001
0000
0001
0010
0000
0010
0100
0000
1001
0000
1000
0010
0000
0010
0100
0000
,
1001
0000
0100
0100
0000
0100
0100
0000
1001
0000
0110
0000
1001
0000
0000
0000
,
0011
0000
1100
0100
0101
0100
1100
0100
,
0010
0100
1000
0010
0001
0000
0010
0000
0110
0000
1000
0000
1001
0000
0000
0000
,
0101
0000
1010
0010
0011
0010
1010
0010
,
0100
0010
1000
0100
0001
0000
0100
0000
0110
0000
0010
0000
0002
1000
0000
0000
,
0013
0000
1100
0100
0101
0100
1100
0100
,
0010
0100
1000
0010
0001
0000
0010
0000
0110
0000
0100
0000
0001
1000
0000
0000
,
1010
0000
0000
0000
0100
0000
0000
0000
0011
0000
0000
0001
1000
0100
1000
0100
,
0010
0000
0000
0011
0000
0000
1010
0000
0000
0110
0000
0000
1001
0000
0000
0000
,
0110
0000
0000
0000
;

//---------------dance-double - Talkion-BDP----------------
#NOTES:
     dance-double:
     Talkion:
     Easy:
     11:
     0.449595,0.535671,0.407664,0.146759,0.126376,386,336,50,18,0,0,0.449595,0.535671,0.407664,0.146759,0.126376,386,336,50,18,0,0:
00000000
00000000
00000000
00000000
,
00000000
00000000
00000000
00000000
,
00000000
00000000
00000000
00000000
,
00000000
00000000
00000000
00000000
,
00000000
00000000
00000000
00000000
,
00000000
00011000
00010000
00010000
,
00000100
00000000
00000000
00000100
00000000
00000000
00000100
00000000
00000000
00000000
00000010
00000000
00000000
00000010
00000000
00000000
,
00000110
00000000
00011000
00000000
,
00010000
00000000
00000000
01000000
00000000
00000000
10000000
00000000
00000000
00100000
00000000
00000000
00010000
00000000
00000000
00000000
,
00011000
00001000
01000000
00100000
,
10000000
00000000
00000000
00000000
01000000
00000000
00000000
00000000
00100000
00000000
00001000
00000000
00000000
00001000
00000000
00000000
,
00011000
00010000
00000010
00000100
,
00000001
00000000
00000000
00000000
00000010
00000000
00000000
00000000
00000100
00000000
00010000
00000000
00000000
00020000
00000000
00000000
,
00030000
00000000
00101000
00000000
00100000
00010000
10000000
00000000
,
10100000
00000000
00000000
00000000
00100000
00000000
01000000
00000000
00001000
00000000
00010000
00000000
00000000
00010000
00000000
00000000
,
00011000
00000000
00000000
00000010
00000000
00000000
00010000
00000000
00011000
00000000
00000000
00100000
00000000
00000000
02000000
00000000
,
00000000
00000000
00000000
03000000
,
11000000
01010000
11000000
01010000
,
00001000
00010000
00000010
00000000
00001000
00000010
00000100
00000000
,
00000101
00001100
00000101
00001100
,
00010000
00000000
00001000
00000000
00200000
00000000
00000000
00000000
01300000
00000000
10000000
00000000
00000000
10000000
00000000
00000000
,
00000000
00110000
10100000
00110000
,
00001000
00010000
00000100
00000000
00001000
00000100
00000010
00000000
,
00000011
00000000
00011000
00000000
,
00010000
00000000
00000000
01000000
00000000
00000000
10000000
00000000
00000000
00100000
00000000
00000000
00010000
00000000
00000000
00000000
,
10100000
00101000
10100000
00101000
,
00000010
00010000
00000010
00000000
00001000
00000001
00000010
00000000
,
00000011
00010010
00000011
00010010
,
00100000
00000000
00001000
00000000
00200000
00000000
00000000
00000000
00310000
00000000
10000000
00000000
00000000
10000000
00000000
00000000
,
00000000
00000000
10100000
00000000
00100000
00100000
01000000
00000000
,
01001000
00000000
00001000
00010000
00000100
00000010
00000001
00000000
,
00000011
00000000
00011000
00000000
,
00010000
00000000
00000000
01000000
00000000
00000000
10000000
00000000
00000000
00100000
00000000
00000000
00010000
00000000
00000000
00000000
,
00200000
00000000
00000000
02300000
00000000
00000000
03002000
00000000
00000000
00000000
00000000
00000000
00000000
00000000
00000000
00000000
,
00013000
00000100
00001000
00000000
00000100
00001000
00000001
00000000
,
00000200
00000000
00000000
00000320
00000000
00000000
00020030
00000000
00000000
00000000
00000000
00000000
00000000
00000000
00000000
00000000
,
00031000
00100000
00010000
00000000
00100000
00010000
10000000
00000000
,
00100000
01000000
00000000
01000000
00000000
01000000
00000000
01000000
,
00001000
00010000
00001000
00010000
00000010
00001000
00000001
00000000
,
00000010
00000100
00000000
00000100
00000000
00000100
00000000
00000100
,
00010000
00001000
00010000
00001000
00100000
00010000
10000000
00000000
,
00100000
00000000
00000000
00100000
00000000
00000000
01000000
00000000
00001000
00000000
00000000
00001000
00000000
00000000
00010000
00000000
,
00000100
00000000
00000000
00000100
00000000
00000000
00000010
00000000
00000002
00000000
00000000
00001003
00000000
00000000
00000100
00000000
,
00000010
00000000
00000000
00000010
00000000
00000000
00000100
00000000
00010000
00000000
00000000
00010000
00000000
00000000
00001000
00000000
,
01000000
00000000
00000000
01000000
00000000
00000000
00100000
00000000
10000000
00000000
00000000
00000000
10020000
00000000
00000000
00000000
,
00130000
00001000
01000000
00010000
00100000
00001000
01000000
00010000
,
00100000
00001000
00010000
00000010
00001000
00000100
00000010
00000001
,
00001001
00000000
00000000
00001000
00000000
00000000
00000100
00000000
00010100
00000000
00000000
00001000
00000000
00000000
00000010
00000000
,
00010020
00000000
00001000
00000000
00001030
00000010
00010000
00000000
,
00001000
01000000
00100000
00000000
10000000
01000000
00100000
00000000
,
00001000
01000000
00100000
00000000
00010000
00100000
10000000
00000000
,
00010000
00010000
00100000
00100000
,
00001000
00001000
00010000
00010000
,
00000020
00000000
00001030
00000000
00000001
00000100
00000010
00000000
,
00010000
00000100
00000010
00000000
00001000
00000010
00000001
00001000
,
00000100
00000000
00011000
00000000
,
01000000
00000000
00000000
01000000
00000000
00000000
01000000
00000000
00100000
00000000
00000000
00000000
01100000
00000000
00000000
00000000
,
00001000
00100000
01000000
10000000
00100000
01000000
00010000
00000000
,
10000000
01000000
00100000
01000000
00010000
00001000
00000010
00000000
,
00000001
00000001
00001000
00001000
,
00000100
00000100
00011000
00011000
,
00000000
00000000
00100000
00010000
00100000
00010000
10000000
00000000
,
10100000
00000000
00100000
01000000
00001000
00010000
00000020
00000000
,
00000130
00000000
00011000
00000000
,
01000000
00000000
00000000
01000000
00000000
00000000
01000000
00000000
01000000
00000000
00000000
00000000
01100000
00000000
00000000
00000000
,
10010000
00000000
10000000
01000000
10000000
01000000
10000000
01000000
,
00020000
00000000
00031000
00000000
00000010
00000100
00000010
00000000
,
00001001
00000000
00000001
00000100
00000001
00000100
00000001
00000100
,
00002000
00000000
00000000
00000000
00013000
00000000
00000000
00000000
00100000
00000000
01000000
00000000
00000000
01000000
00000000
00000000
,
00000000
00000000
00001000
00010000
00001000
00010000
00001000
00010000
,
00000200
00000000
00000310
00000000
00001000
00000010
00000001
00000000
,
00000011
00000000
00011000
00000000
,
00010000
00000000
00000000
01000000
00000000
00000000
10000000
00000000
00000000
00100000
00000000
00000000
00010000
00000000
00000000
00000000
,
00011000
00000000
00000000
00000000
;

//---------------dance-double - Talkion-DDP----------------
#NOTES:
     dance-double:
     Talkion:
     Medium:
     14:
     0.620814,0.684468,0.578883,0.244598,0.436201,533,462,71,30,0,0,0.620814,0.684468,0.578883,0.244598,0.436201,533,462,71,30,0,0:
00000000
00000000
00000000
00000000
,
00000000
00000000
00000000
00000000
,
00000000
00000000
00000000
00000000
,
00000000
00000000
00000000
00000000
,
00000000
00000000
00000000
00000000
,
00200000
00300000
00011000
00000000
00000010
00000000
00000010
00000000
,
00000010
00000000
00000000
00000100
00000000
00000000
00000100
00000000
00000000
00000000
00001001
00000000
00000000
00000011
00000000
00000000
,
00001100
00000000
00000000
00000100
00000000
00000000
00000100
00000000
00011000
00000000
00000000
00000000
01000000
00000000
00000000
00000000
,
01010000
00000000
00000000
11000000
00000000
00000000
10100000
00000000
00000000
00110000
00000000
00000000
01100000
00000000
00000000
00000000
,
00021000
00000000
00000000
00030100
00000000
00000000
00000100
00000000
00000001
00000000
00000000
00000100
00000000
00000000
00000100
00000000
,
00001000
00000000
00000000
00000100
00000000
00000000
00000100
00000000
00000000
00000000
00000110
00000000
00000000
00010100
00000000
00000000
,
00012000
00000000
00000000
01003000
00000000
00000000
01000000
00000000
10000000
00000000
00000000
01000000
00000000
00000000
01000000
00000000
,
00010000
00000000
00000000
01000000
00000000
00000000
01000000
00000000
00000000
00000000
01100000
00000000
00000000
01002000
00000000
00000000
,
00003000
00000000
00000000
00000000
00011000
00000000
00000000
00010000
00000000
00010000
00000100
00000000
00001000
00000100
00000000
00000100
,
00000010
00000000
00000001
00000000
00001000
00000010
00000000
00000010
00000100
00000000
00000010
00000000
00000000
00010010
00000000
00000000
,
00011000
00000000
00000000
01001000
00000000
00000000
01000000
00000000
01100000
00000000
00000000
10010000
00000000
00000000
20000000
00000000
,
01000000
01000000
01000000
31000000
,
11000000
00000000
01010000
00000000
01000000
01000000
01000000
00000000
,
00001000
00010000
00000000
00001000
00010000
00000000
00000010
00000000
00000100
00000000
00000100
00000000
00000100
00000000
00000000
00000000
,
00000101
00000000
00001100
00000000
00000100
00000100
00000100
00000000
,
00010000
00001000
00000000
00010000
00001000
00000000
02000000
00000000
03100000
00000000
20000000
00000000
00000000
30010000
00000000
00000000
,
00100000
00000000
10010000
00000000
00100000
00100000
00100000
00000000
,
00001000
00010000
00000000
00001000
00010000
00000000
00000100
00000000
00000010
00000000
00000010
00000000
00000010
00000000
00000000
00000000
,
00000011
00000100
00011000
01000000
,
01010000
00000000
00000000
11000000
00000000
00000000
10100000
00000000
00000000
00110000
00000000
00000000
01100000
00000000
00000000
00000000
,
11000000
00000000
01001000
00000000
00001000
00001000
00001000
00000000
,
00010000
00001000
00000000
00010000
00001000
00000000
00000010
00000000
00000001
00000000
00000001
00000000
00000001
00000000
00000000
00000000
,
00000101
00000000
00010100
00000000
00010000
00010000
00010000
00000000
,
00001000
00010000
00000000
00001000
00010000
00000000
00200000
00000000
10300000
00000000
00020000
00000000
00000000
00130000
00000000
00000000
,
00001000
00000000
00011000
00000000
00010000
00010000
00010000
00000010
,
00001000
00000001
00000000
00001000
00000001
00000000
00000010
00000000
00001000
00000000
00010000
00000000
00020000
00000000
00000000
00000000
,
00030100
00000010
00011000
00100000
,
00110000
00000000
00000000
10100000
00000000
00000000
11000000
00000000
00000000
01010000
00000000
00000000
01100000
00000000
00000000
00000000
,
20000000
00000000
00000000
30200000
00000000
00000000
02300000
00000000
00000000
00000000
00000000
00000000
00000000
00000000
00000000
00000000
,
03001000
00010000
00000100
00000010
00000001
00000100
00000010
00001000
,
00000002
00000000
00000000
00000023
00000000
00000000
00000230
00000000
00000000
00000000
00000000
00000000
00000000
00000000
00000000
00000000
,
00010300
00001000
01000000
00100000
10000000
01000000
00100000
00010000
,
10000000
00000000
00100000
01000000
00100000
00000000
00010000
00000000
00001000
00000000
00010000
00000000
01000000
00000000
10000000
00000000
,
00100000
01000000
00001000
00000000
00100000
00010000
01000000
00000000
00100000
01000000
00001000
00000000
00010000
00000100
00001000
00000000
,
00000001
00000000
00000010
00000100
00000010
00000000
00001000
00000000
00010000
00000000
00001000
00000000
00000100
00000000
00000001
00000000
,
00000010
00000100
00010000
00000000
00000010
00001000
00000100
00000000
00000010
00000100
00010000
00000000
00001000
01000000
00010000
00000000
,
10000000
00000000
00000000
11000000
00000000
00000000
01000000
00000000
00010000
00000000
00000000
00011000
00000000
00000000
00001000
00000000
,
00000010
00000000
00000000
00000011
00000000
00000000
00000001
00000000
00000100
00000000
00000000
00000110
00000000
00000000
00002000
00000000
,
00003001
00000000
00000000
00000101
00000000
00000000
00000100
00000000
00001000
00000000
00000000
00011000
00000000
00000000
00010000
00000000
,
00100000
00000000
00000000
10100000
00000000
00000000
10000000
00000000
10000000
00000000
00000000
00010000
00100000
00000000
01000000
00000000
,
20000000
00000000
00000000
30020000
00000000
00000000
00032000
00000000
00000000
00003002
00000000
00000000
00000103
00000000
00000100
00000000
,
00000002
00000000
00000000
00002003
00000000
00000000
00023000
00000000
00000000
20030000
00000000
00000000
31000000
00000000
01000000
00000000
,
00010000
00000000
00000000
00010000
00000000
00000000
00001000
00000000
00000010
00000000
00000000
00000010
00000000
00000000
00000001
00000000
,
00001000
00001000
00000100
00010000
00001000
01000000
00100000
00000000
,
10000000
00000000
00100000
00000000
00010000
00000000
00001000
00010000
00000000
00001000
00010000
00000000
01000000
00100000
00010000
00000000
,
10000000
00000000
00100000
00000000
00010000
00000000
00001000
00010000
00000000
00001000
00010000
00000000
00000010
00000100
00000001
00000000
,
00001000
00000000
00000000
00000100
00000000
00000000
00000100
00000000
00010000
00000000
00001000
00000000
01000000
00000000
00100000
00000000
,
10000000
00000000
00000000
00010000
00000000
00000000
00010000
00000000
00100000
00000000
00001000
00000000
00010000
00000000
00000100
00000000
,
00000020
00000000
00000000
00000000
00001030
00000000
00010000
00001000
00000000
00010000
00001000
00000000
00000100
00000010
00001000
00000000
,
00000001
00000000
00000010
00000000
00001000
00000000
00010000
00001000
00000000
00010000
00001000
00000000
01000000
00100000
01000000
00000000
,
10000000
00000000
00000000
01000000
00000000
00000000
01000000
00000000
00001000
00000000
00000000
00010000
00000000
00000000
00010000
00000000
,
00010100
00000000
00000000
00000110
00000000
00000000
00000021
00000000
00000130
00000000
00001000
00000000
00001001
00000000
00000000
00000000
,
00000001
00000000
00000100
00001000
00000100
00000000
00001000
00010000
00000000
00010000
00001000
00000000
00000010
00000100
00001000
00000000
,
00000001
00000000
00000100
00001000
00000100
00000000
00001000
00010000
00000000
00010000
00001000
00000000
00100000
01000000
10000000
00000000
,
00010000
00000000
00000000
00100000
00000000
00000000
00100000
00000000
00001000
00000000
00010000
00000000
00000010
00000000
00000100
00000000
,
00000001
00000000
00000000
00001000
00000000
00000000
00001000
00000000
00000100
00000000
00010000
00000000
00001000
00000000
00100000
00000000
,
02000000
00000000
00000000
00000000
03010000
00000000
00001000
00010000
00000000
00010000
00001000
00000000
00010000
00000100
00010000
00000100
,
00001000
00000000
00000000
00000000
00000001
00000000
00000100
00000010
00000000
00000010
00000100
00000000
00000010
00010000
00000010
00010000
,
00001000
00000000
00000000
01000000
00000000
00000000
01000000
00000000
10000000
00000000
00000000
01000000
00000000
00000000
01000000
00000000
,
01100000
00000000
00000000
10100000
00000000
00000000
01002000
00000000
00013000
00000000
00000100
00000000
00000110
00000000
00000000
00000000
,
00001001
00000000
00000001
00000100
00010000
00000100
00000001
00000100
,
00010000
00000100
00000010
00010000
00001000
00100000
01000000
00000000
,
10010000
00000000
10000000
01000000
00001000
01000000
10000000
01000000
,
00001000
00000000
01000000
00000000
00100000
00000000
00001000
00000000
00010000
00000000
00000020
00000000
00000000
00000130
00000000
00000000
,
00000001
00000000
00000101
00000100
00010000
00000100
00000001
00000100
,
00010000
00000100
00000010
00010000
00001000
00100000
01000000
00000000
,
11000000
00100000
00011000
00000010
,
00001010
00000000
00000000
00000011
00000000
00000000
00000101
00000000
00000000
00001100
00000000
00000000
00000110
00000000
00000000
00000000
,
00001001
00000000
00000000
00000000
;

//---------------dance-double - Talkion-EDP----------------
#NOTES:
     dance-double:
     Talkion:
     Hard:
     17:
     0.752431,0.863025,0.513657,0.220139,0.835711,646,583,63,27,0,0,0.752431,0.863025,0.513657,0.220139,0.835711,646,583,63,27,0,0:
// measure 0
00000000
00000000
00000000
00000000
,  // measure 1
00000000
00000000
00000000
00000000
,  // measure 2
00000000
00000000
00000000
00000000
,  // measure 3
00000000
00000000
00000000
00000000
,  // measure 4
00000000
00000000
00000000
00000000
,  // measure 5
00010000
00001000
00010000
00001000
00100000
00000000
00000000
00000000
01000000
00000000
00000000
00000000
10000000
00000000
00000000
00000000
,  // measure 6
00010000
00000000
00000000
01000000
00000000
00000000
01000000
00000000
00000000
00000000
01001000
00000000
00000000
00011000
00000000
00000000
,  // measure 7
00010200
00000000
00000000
00000310
00000000
00000000
00000010
00000000
00000110
00000000
00000000
00000001
00001000
00000100
00001000
00000100
,  // measure 8
00010000
00000000
00000000
01000000
00000000
00000000
10000000
00000000
00000000
00100000
00000000
00000000
00010000
00000000
00000000
00000000
,  // measure 9
00011000
00000000
00001000
00000000
00010000
00000100
00000000
00000200
00000000
00000000
00000301
00000000
00001000
00000010
00000000
00000020
,  // measure 10
00000000
00000000
00000031
00000000
00001000
00000100
00000000
00000200
00000000
00000000
00000301
00000000
00000000
00000110
00000000
00000000
,  // measure 11
00010100
00000000
00010000
00000000
00001000
01000000
00000000
02000000
00000000
00000000
13000000
00000000
00010000
00100000
00000000
00200000
,  // measure 12
00000000
00000000
10300000
00000000
00010000
01000000
00000000
02000000
00000000
00000000
13000000
00000000
00000000
01100000
00000000
01000000
,  // measure 13
00002000
00000000
00000000
00000000
00013000
00000000
00000000
00010000
00000100
00010000
00000100
00000000
00001000
00000100
00000010
00000001
,  // measure 14
00000100
00000010
00001000
00000000
00000010
00010000
00000010
00010000
00001000
00100000
00010000
10000000
00100000
10000000
00010000
00100000
,  // measure 15
01000000
00000000
00000000
01010000
00000000
00000000
00010000
00000000
00001000
00000000
00000000
00001010
00000000
00000000
00000020
00000000
,  // measure 16
00000100
00000100
00000100
00000130
,  // measure 17
00001001
00000000
00010100
00000000
00000001
00000100
00001000
00000000
,  // measure 18
00010000
00001000
00000000
00010000
00001000
00000000
01000000
00000000
20010000
00000000
31000000
00000000
00110000
00000000
00000000
00000000
,  // measure 19
10010000
00000000
01001000
00000000
10000000
01000000
00010000
00000000
,  // measure 20
00001000
00000000
00000000
00010000
00000000
00000000
00000000
00000000
00000000
00001000
00000000
00000000
00010000
00000000
00000000
00000000
00000000
00000000
00000010
00000000
00001000
00000000
00000010
00000000
00001000
00000000
00000000
00000000
00000000
00000000
00000001
00000000
00000000
00000000
00000000
00000000
00000200
00000000
00000000
00000010
00000000
00000000
00000000
00000000
00000000
00000000
00000000
00000000
,  // measure 21
00001300
00000000
00010010
00000000
00000001
00000010
00001000
00000000
,  // measure 22
00010000
00001000
00000000
00010000
00001000
00000000
00100000
00000000
20010000
00000000
30100000
00000000
01010000
00000000
00000000
00000000
,  // measure 23
10010000
00000000
00000000
00000000
01000000
00000000
00000000
00000000
00011000
00000000
00000000
00010000
00000100
00001000
00000100
00001000
,  // measure 24
00000001
00000000
00000000
00000100
00000000
00000000
00001000
00000000
00000000
00010000
00000000
00000000
00100000
00000000
00000000
00000000
,  // measure 25
10010000
00000000
00011000
00000000
10000000
00010000
00001000
00000000
,  // measure 26
00000010
00000100
00000000
00000010
00000100
00000000
00000010
00000000
00001002
00000000
00000013
00000000
00001100
00000000
00000000
00000000
,  // measure 27
00001001
00000000
00011000
00000000
00000001
00001000
00010000
00000000
,  // measure 28
00100000
00000000
00000000
01000000
00000000
00000000
00000000
00000000
00000000
00100000
00000000
00000000
01000000
00000000
00000000
00000000
00000000
00000000
10000000
00000000
00010000
00000000
10000000
00000000
00010000
00000000
00000000
00000000
00000000
00000000
01000000
00000000
00000000
00000000
00000000
00000000
00001000
00000000
00000000
00010000
00000000
00000000
00000000
00000000
00000000
00000100
00000000
00000000
,  // measure 29
00001000
00000000
00000000
00000000
00001001
00000000
00000000
00000001
00000100
00000001
00000100
00000000
00000001
00001000
00000010
00001000
,  // measure 30
00000100
00010000
00000000
00010000
00001000
00100000
00001000
00100000
00010000
10000000
01000000
10000000
00010000
01000000
00001000
00010000
,  // measure 31
00000010
00000000
00000000
00000000
00000100
00000000
00000000
00000000
00011000
00000000
00000000
00001000
01000000
00010000
01000000
00010000
,  // measure 32
10000000
00000000
00000000
01000000
00000000
00000000
00010000
00000000
00000000
00001000
00000000
00000000
00000010
00000000
00000000
00000000
,  // measure 33
00000002
00000000
00000000
00000023
00000000
00000000
00000230
00000000
00000000
00000000
00000000
00000000
00000000
00000000
00000000
00000000
,  // measure 34
00010300
00001000
00000010
00000100
00010000
00001000
01000000
00010000
,  // measure 35
20000000
00000000
00000000
30200000
00000000
00000000
02300000
00000000
00000000
00000000
00000000
00000000
00000000
00000000
00000000
00000000
,  // measure 36
03001000
00010000
00000100
00000010
00000001
00001000
00000010
00000100
,  // measure 37
00000001
00001000
00000001
00000020
00000000
00000100
00000230
00000000
00010000
00000000
00000010
00000000
00001000
00000000
00000010
00000000
,  // measure 38
00010300
00010000
00001000
01000000
00100000
00100000
00010000
00100000
01000000
01000000
00001000
00010000
00001000
00001000
00100000
01000000
,  // measure 39
10000000
00010000
10000000
00200000
00000000
01000000
02300000
00000000
00001000
00000000
00100000
00000000
00010000
00000000
00100000
00000000
,  // measure 40
03001000
00001000
00010000
00000100
00000010
00000010
00000001
00000100
00000010
00000010
00001000
00000100
00010000
00010000
00001000
00000000
,  // measure 41
00011000
00000000
00000000
00011000
00000000
00000000
00010000
00000000
01010000
00000000
00000000
01010000
00000000
00000000
01000000
00000000
,  // measure 42
11000000
00000000
00000000
00000000
00000000
00000000
00000000
00000000
00000000
11000000
00000000
00000000
00000000
00000000
00000000
00000000
00000000
00000000
10000000
00000000
00000000
00000000
00000000
00000000
10010000
00000000
00000000
00000000
00000000
00000000
00000000
00000000
00000000
10010000
00000000
00000000
00000000
00000000
00000000
00000000
00000000
00000000
00100000
00000000
00001000
00000000
00100000
00000000
,  // measure 43
00001000
00000000
00000000
00011000
00000000
00000000
00001000
00000000
00001010
00000000
00000000
00001010
00000000
00000000
00000010
00000000
,  // measure 44
00000011
00000000
00000000
00000011
00000000
00000000
00000001
00000000
00001001
00000000
00000000
00001000
00000100
00000010
00000001
00001000
,  // measure 45
00000100
00000000
00010000
00001000
00000000
01000000
00100000
00000000
10000000
00100000
01000000
00010000
10000000
01000000
10000000
00010000
,  // measure 46
00100000
00000000
00001000
00010000
00000000
00000010
00000100
00000000
00000001
00000100
00000010
00001000
00000001
00000010
00000100
00010000
,  // measure 47
00001000
00000000
00000000
00011000
00000000
00000000
01000000
00000000
00100000
00000000
00000000
01100000
00000000
00000000
10000000
00000000
,  // measure 48
10010000
00000000
00010000
00000000
00100000
00001000
00100000
00001000
00010000
00000000
00000010
00000000
00000010
00000000
00000000
00000000
,  // measure 49
00001000
00000010
00000100
00000001
00001000
00000000
00000100
00001000
00000000
00001000
00010000
00000000
00001000
01000000
00100000
10000000
,  // measure 50
00010000
00100000
01000000
10000000
00010000
00000000
01000000
00010000
00000000
00010000
00001000
00000000
00010000
00000100
00000010
00000100
,  // measure 51
00000001
00000000
00000000
00000100
00000000
00000000
00000100
00000000
00010000
00000000
00001000
00010000
00001000
00000000
01000000
00000000
,  // measure 52
00100000
00000000
00000000
10000000
00000000
00000000
10000000
00000000
00010000
00000000
00100000
00000000
02000000
00000000
00000000
00000000
,  // measure 53
23000000
00000000
00000000
00000000
30010000
00000000
00100000
00010000
00000000
00010000
00001000
00000000
00010000
00000010
00000100
00000001
,  // measure 54
00001000
00000100
00000010
00000001
00001000
00000000
00000010
00001000
00000000
00001000
00010000
00000000
00001000
00010000
01000000
00100000
,  // measure 55
00010000
00000000
00000000
10000000
00000000
01000000
00100000
00000000
01100000
00000000
00000000
00010000
00000000
01000000
00100000
00000000
,  // measure 56
01100000
00000000
01000000
00001000
00000000
00010000
00000010
00000000
00001010
00000000
00000100
00000000
00001001
00000000
00000000
00000000
,  // measure 57
00000001
00000010
00000100
00000010
00001000
00000000
00010000
00001000
00000000
00001000
00000010
00000000
00010000
00001000
01000000
00010000
,  // measure 58
10000000
00100000
01000000
00100000
00010000
00000000
00001000
00010000
00000000
00010000
00100000
00000000
00001000
01000000
00100000
01000000
,  // measure 59
10000000
00000000
00000000
01000000
00000000
00000000
01000000
00000000
00001000
00000000
00010000
00001000
00010000
00000000
00000100
00000000
,  // measure 60
00000010
00000000
00000000
00000001
00000000
00000000
00000001
00000000
00001010
00000000
00000000
00000000
00000201
00000000
00000000
00000000
,  // measure 61
00000320
00000000
00000000
00000000
00010030
00000000
00001000
00100000
00010000
10000000
00100000
10000000
00010000
00100000
01000000
10000000
,  // measure 62
00100000
00000000
01000000
00001000
00010000
00000100
00001000
00000001
00000100
00000001
00001000
00000100
00000010
00001000
00010000
00000000
,  // measure 63
00011000
00000000
00000000
00000010
00000000
00010000
00001000
00000000
00011000
00000000
00000000
00100000
00000000
00001000
00010000
00000000
,  // measure 64
00011000
00000000
00001000
01000000
00000000
00100000
10000000
00000000
10010000
00000000
00100000
00000000
01010000
00000000
00000000
00000000
,  // measure 65
10010000
00000000
10000000
00010000
00001000
00010000
10000000
01000000
,  // measure 66
00010000
00001000
00010000
00001000
00010000
00000000
00100000
00000000
10000000
00000000
01000000
00000000
00010000
00001000
00000000
00000000
,  // measure 67
00001010
00000000
00000001
00001000
00010000
00001000
00000001
00000100
,  // measure 68
00001000
00010000
00001000
00010000
00001000
00000000
00000010
00000000
00000001
00000000
00000100
00000000
00001000
00010000
00000000
00000000
,  // measure 69
00110000
00000000
10000000
00010000
00001000
00010000
10000000
01000000
,  // measure 70
00010000
00001000
00010000
00001000
00010000
00000000
00001000
00000000
00000010
00000000
00000001
00000000
00000100
00001000
00000000
00000000
,  // measure 71
00011000
00000000
00000000
00000000
01000000
00000000
00000000
00000000
10010000
00000000
00000000
00010000
00100000
00001000
00100000
00001000
,  // measure 72
00010000
00000000
00000000
01000000
00000000
00000000
10000000
00000000
00000000
00100000
00000000
00000000
00010000
00000000
00000000
00000000
,  // measure 73
00011000
00000000
00000000
00000000
;
