#VERSION:0.83;
#TITLE:Hunny Bunny;
#ARTIST:U1 overground;
#BANNER:Hunny Bunny.png;
#BACKGROUND:Hunny Bunny-bg.png;
#JACKET:Hunny Bunny-jacket.png;
#MUSIC:Hunny Bunny.ogg;
#OFFSET:1.5;
#SAMPLESTART:24;
#SAMPLELENGTH:15;
#BPMS:0=160;
#STOPS:63.750=1.500,187.750=1.500;

//---------------dance-single - Talkion-bSP----------------
#NOTEDATA:;
#CHARTNAME:Talkion-bSP;
#STEPSTYPE:dance-single;
#DESCRIPTION:Talkion-bSP;
#DIFFICULTY:Beginner;
#METER:5;
#RADARVALUES:0.203495,0.282681,0.097324,0.256580,0,161,150,11,29,0,0,0,0,0,0.203495,0.282681,0.097324,0.256580,0,161,150,11,29,0,0,0,0,0;
#CREDIT:Talkion;
#NOTES:
0000
0000
0000
0000
,
0000
0000
0000
0000
,
0000
0000
0000
0000
,
0000
0000
0000
0000
,
0000
0000
0000
0000
,
0002
0000
0003
0000
,
2000
0000
3000
0000
,
0001
0000
0001
0000
,
1000
1000
1000
0000
,
0010
0000
0010
0000
,
0200
0000
0301
0000
,
0010
0000
0010
0000
,
0200
0000
1300
0000
,
0001
0000
0001
0000
,
0200
0000
0310
0000
,
1000
1000
0001
0001
,
0100
0000
0110
0000
,
1000
1000
1000
0000
,
0010
0000
0110
0000
,
0001
0001
0001
0000
,
1000
0000
0100
0100
,
0100
0000
1001
0000
,
0002
0003
0200
0300
,
2000
3000
0020
0030
,
0002
0000
0010
0000
,
1000
0000
0013
0000
,
2000
0000
0010
0000
,
0001
0000
3010
0000
,
0002
0000
0100
0000
,
0010
0000
0103
0000
,
2000
0000
0100
0000
,
0010
0000
3100
0000
,
0001
0000
1001
0000
,
0100
0100
0100
0000
,
1000
0000
1001
0000
,
0100
0100
0100
0000
,
0001
0000
0010
0010
,
0010
0000
0110
0000
,
2000
3000
0020
0030
,
0002
0003
0200
0300
,
1000
0000
1000
0000
,
0010
0000
0010
0000
,
0100
0000
0100
0000
,
0001
0000
0001
0000
,
2000
0000
0010
0010
,
0000
0001
3001
0000
,
0002
0000
0100
0103
,
2000
0000
0000
0000
,
3000
0000
0000
0000
,
0002
0000
0000
0000
,
0003
0000
0000
0000
,
1000
0000
1001
0000
,
0001
0000
1001
0000
,
0100
0100
0100
0000
,
0220
0000
0330
0000
,
1000
1000
1000
0000
,
0001
0001
0001
0000
,
0100
0100
0100
0000
,
0010
0010
0010
0000
,
1000
1000
0100
0000
,
0001
0001
0100
0000
,
1000
1000
0010
0000
,
0001
0001
0010
0000
,
2000
0000
3100
0000
,
0220
0330
0001
0000
,
0002
0000
0103
0000
,
0220
0330
1000
0000
,
0001
0001
0001
0000
,
1000
1000
1000
0000
,
0010
0100
0010
0100
,
0010
0100
0010
0100
,
0010
0000
0000
0000
;

//---------------dance-single - Talkion-BSP----------------
#NOTEDATA:;
#CHARTNAME:Talkion-BSP;
#STEPSTYPE:dance-single;
#DESCRIPTION:Talkion-BSP;
#DIFFICULTY:Easy;
#METER:11;
#RADARVALUES:0.471451,0.541473,0.194647,0.371599,0,373,351,22,42,0,0,0,0,0,0.471451,0.541473,0.194647,0.371599,0,373,351,22,42,0,0,0,0,0;
#CREDIT:Talkion;
#NOTES:
0000
0000
0000
0000
,
0000
0000
0000
0000
,
0000
0000
0000
0000
,
0000
0000
0000
0000
,
0000
0000
0000
0000
,
1000
0000
1000
0000
0010
1000
0100
0000
,
0010
0000
0010
0000
0001
0100
0010
0000
,
1000
0100
1000
0000
0001
0100
0001
0000
,
1000
0100
1000
0100
0010
0001
0010
0001
,
2000
0000
0010
0000
3100
0010
0100
0000
,
0020
0001
0130
1001
,
0002
0000
0010
0000
0103
0010
0100
0000
,
0020
1000
0130
1001
,
2000
0000
0001
0000
3010
0100
0001
0000
,
0200
0010
0301
1001
,
1000
0001
1000
0001
1000
0001
0100
0010
,
1000
0100
1000
0000
0100
0010
0001
0000
,
0010
0000
0001
0100
0010
0100
0101
0000
,
0001
0010
0001
0000
0010
0100
1000
0000
,
0100
0000
1000
0010
0100
0010
1010
0000
,
1000
0100
1000
0000
0001
0100
1000
0000
,
0001
0000
1000
0100
0001
1000
0110
0000
,
0002
0000
0013
0200
0000
1300
0020
0000
,
0130
0002
0000
1003
0100
0010
0001
0000
,
2000
0000
0010
3020
0000
0001
0032
0000
,
0100
0203
0000
1000
1300
0001
0100
0000
,
0002
0000
0010
0023
0000
1000
2030
0000
,
0100
3200
0000
0001
0301
1000
0100
0000
,
0020
0000
0031
0020
0000
1030
0020
0000
,
0031
0200
0000
1300
0100
0010
1000
0000
,
0200
0000
1300
0200
0000
0301
0200
0000
,
1300
0020
0000
0031
0010
0100
0001
0000
,
0010
0001
0010
0000
0100
1000
0010
0000
,
0100
0000
0010
1000
0100
0010
0011
0000
,
0100
1000
0100
0000
0010
0001
0100
0000
,
0010
0000
0100
0001
0010
0100
1100
0000
,
0001
0010
0001
0000
1000
0010
0001
0000
,
1000
0000
0001
0010
1000
0001
0110
0000
,
2000
0000
3010
0200
0000
0301
0020
0000
,
0130
2000
0000
3001
0100
0010
1000
0000
,
0001
0001
1000
1000
,
0010
0001
0100
0000
1010
0000
0011
0000
,
1000
1000
0001
0001
,
0100
1000
0010
0000
0101
0000
1100
0000
,
0002
0000
0010
0010
0000
1000
1000
0000
,
0100
0100
0000
0010
0013
0000
1001
0000
,
2000
0000
0010
0010
0000
0001
0002
3003
,
2000
0000
0000
0000
,
0020
3000
0000
0000
,
0200
0030
0000
0000
,
0002
0300
0000
0000
,
1003
0000
1010
0000
,
0001
0000
0011
0000
,
1000
0110
0001
0110
,
2000
3000
0200
0300
0002
0003
0020
0030
,
1000
0001
1000
0000
0010
0001
0010
0000
,
1000
0001
1000
0000
0100
0001
0100
0000
,
1000
0010
0100
0000
0001
0010
0001
0000
,
0100
0010
1000
0000
0001
0010
0001
0000
,
1000
0100
0001
0000
1000
0010
1000
0000
,
0001
0100
1000
0000
0001
0010
0001
0000
,
1000
0010
1000
0010
1000
0010
0100
0001
,
0010
0100
0010
0100
0010
0100
1000
0001
,
0100
0000
1001
0000
1000
0100
0001
0100
,
1000
0000
0010
0100
0001
0100
0110
0000
,
0010
0000
1001
0000
0001
0010
1000
0010
,
0001
0000
0100
0010
1000
0010
0110
0000
,
0001
0010
1000
0000
1000
0010
0001
0000
,
1000
0010
0001
0000
1000
0100
0001
0000
,
1000
0100
1000
0100
0010
0001
0010
0001
,
1000
0010
1000
0010
0100
0001
1000
0100
,
0002
0000
0000
0000
,
0003
0000
0000
0000
;

//---------------dance-single - Talkion-DSP----------------
#NOTEDATA:;
#CHARTNAME:Talkion-DSP;
#STEPSTYPE:dance-single;
#DESCRIPTION:Talkion-DSP;
#DIFFICULTY:Medium;
#METER:14;
#RADARVALUES:0.668626,0.796284,0.265428,0.451228,0.185800,529,499,30,51,0,0,0,0,0,0.668626,0.796284,0.265428,0.451228,0.185800,529,499,30,51,0,0,0,0,0;
#CREDIT:Talkion;
#NOTES:
0000
0000
0000
0000
,
0000
0000
0000
0000
,
0000
0000
0000
0000
,
0000
0000
0000
0000
,
0000
0000
0000
0000
,
0100
0001
0100
1000
0100
0010
2000
0000
,
3010
0001
0010
1000
0010
0100
0002
0000
,
1003
1000
0001
0001
0020
0130
0200
0310
,
0001
0100
0001
0000
0100
0010
0100
0000
0010
1000
0010
0000
1000
0001
1000
0000
,
0100
0010
0002
0000
0103
0010
1000
0010
,
0200
0000
0301
1000
0100
0100
0110
0000
,
0010
0100
2000
0000
3010
0100
0001
0100
,
0020
0000
1030
0001
0010
0010
0110
0000
,
1000
0001
0200
0000
0310
0100
0001
1000
,
0200
0000
0310
0100
1000
1000
1001
0000
,
0001
0100
0000
0001
0100
0000
0010
1000
0000
0010
1000
0000
0001
0000
0010
0000
,
0100
1000
1010
0010
0100
0001
0011
0100
,
1000
0000
0001
0100
0001
0000
1000
0000
0200
0000
0010
0000
0310
0000
0000
0000
,
0010
0001
0101
0100
0010
1000
1100
0010
,
0001
0000
1000
0010
1000
0000
0001
0000
0020
0000
0100
0000
0130
0000
0000
0000
,
0100
1000
0002
0100
0100
0100
0100
0103
,
0010
0000
1000
0001
1000
0000
0100
0000
0010
0000
0001
0000
1001
0000
0000
0000
,
1000
0010
0200
0301
0010
0200
1300
0001
,
0020
0031
1000
0020
0130
0001
1001
0000
,
1000
0100
0001
0001
0100
1000
1000
0010
,
0001
0001
0010
1000
0001
0010
0011
0000
,
0001
0010
1000
1000
0010
0001
0001
0100
,
1000
1000
0100
0001
1000
0100
1100
0000
,
0001
0010
0100
0001
0010
0100
0001
1000
,
0010
0001
0100
1000
0001
0010
0110
0000
,
1000
0100
0010
1000
0100
0010
1000
0001
,
0100
1000
0010
0001
1000
0100
0110
0000
,
0001
0100
1100
1000
0100
0010
0110
0100
,
0001
0000
0010
0100
0010
0000
0001
0000
2000
0000
0010
0000
3010
0000
0000
0000
,
1000
0010
0011
0001
0010
0100
0110
0010
,
1000
0000
0100
0010
0100
0000
1000
0000
0002
0000
0100
0000
0103
0000
0000
0000
,
0010
1000
0200
0010
0010
0320
0001
0001
,
0031
0000
1000
0010
1000
0000
0001
0000
0010
0000
0100
0000
0110
0000
0000
0000
,
1000
0010
0002
1003
0100
0020
1030
0100
,
0020
1030
0010
0002
1003
0010
0110
0000
,
0100
0001
0100
1000
0001
1000
0100
0001
,
0010
0100
0011
1010
,
0010
1000
0010
0001
1000
0001
0010
1000
,
0100
0010
1100
0101
,
0002
0010
0013
2000
0010
3010
0002
0100
,
0103
2000
0100
3100
0002
0013
0020
0031
,
2000
0010
3010
0002
0010
0013
2000
3100
,
0020
0001
0000
0031
,
0200
0000
0020
0330
,
2000
0100
0000
3100
,
0020
0000
0002
0033
,
1000
0010
0001
0000
0110
0000
0000
0000
,
0001
0100
1000
0000
0110
0000
0000
0000
,
0001
0001
1000
1000
0010
0100
0001
0100
,
0020
0030
0200
0300
0022
0033
2020
3030
,
0001
0000
0010
0000
0001
0010
0001
0000
1000
0000
0010
0100
0010
0000
1000
0000
,
0100
0000
0010
0000
0100
0010
0100
0000
0010
0000
0001
0100
0001
0000
0010
0000
,
0100
0000
1000
0000
0010
1000
0010
0000
1000
0000
0001
0100
0001
0000
1000
0000
,
0100
0100
0010
0010
0001
1000
1001
0000
,
1000
0000
0010
0000
0100
0001
0100
0000
0001
0000
1000
0100
0010
0000
0100
0000
,
1000
0000
0100
0000
0010
0001
0010
0000
0001
0000
1000
0010
0100
0000
0010
0000
,
1000
1000
0001
0001
0200
0310
0020
0130
,
0001
0010
0001
0000
1000
0010
1000
0000
0001
1000
0100
0000
1000
0001
0100
0000
,
0010
0000
1000
0000
0200
0000
0000
0000
0301
0000
0100
0010
0001
0000
1000
0000
,
0010
0100
1000
0100
0010
1000
1001
0000
,
0100
0000
0001
0000
0020
0000
0000
0000
1030
0000
0010
0100
1000
0000
0001
0000
,
0100
0010
0001
0010
0100
0001
1001
0000
,
1000
0100
1000
0100
1000
0000
0010
0000
0100
0000
0100
0000
0001
0000
0001
0000
,
0010
0100
0010
0100
0010
0000
0001
0000
0100
0000
0100
0000
0010
0000
0010
0000
,
1000
0100
1000
0000
0100
0010
0100
0000
0010
0001
0010
0000
0001
0100
0001
0000
,
1000
0010
0100
0000
0001
0010
0100
0000
0010
0001
0100
0000
0010
1000
0100
0000
,
0020
0000
0000
0000
,
0030
0000
0000
0000
;

//---------------dance-single - Talkion-ESP----------------
#NOTEDATA:;
#CHARTNAME:Talkion-ESP;
#STEPSTYPE:dance-single;
#DESCRIPTION:Talkion-ESP;
#DIFFICULTY:Hard;
#METER:16;
#RADARVALUES:0.821563,0.923689,0.256580,0.291971,0.628180,650,621,29,33,0,0,0,0,0,0.821563,0.923689,0.256580,0.291971,0.628180,650,621,29,33,0,0,0,0,0;
#CREDIT:Talkion;
#NOTES:
0000
0000
0000
0000
,
0000
0000
0000
0000
,
0000
0000
0000
0000
,
0000
0000
0000
0000
,
0000
0000
0000
0000
,
0010
0000
0001
0000
0100
0001
0100
0000
0010
1000
0010
1000
0200
0000
0000
0000
,
0310
0000
0100
0000
1000
0010
1000
0000
0001
0100
0001
0100
0020
0000
0000
0000
,
1030
0100
1000
0000
0100
0010
0100
0000
0010
0001
0010
0000
0001
0100
0001
0000
,
1000
0010
1000
0010
0100
0001
0100
0001
1000
0100
0010
0001
1000
0010
0100
0010
,
1000
0000
0100
0000
0020
0000
0000
0000
0031
0000
0100
0010
0100
0000
1000
0000
,
0100
0000
0010
0000
0100
0000
0100
0000
1000
0100
0010
0000
0001
0000
1000
0000
,
0001
0000
0100
0000
0020
0000
0000
0000
1030
0000
0100
0010
0100
0000
0001
0000
,
0100
0000
0010
0000
0100
0000
0100
0000
0001
0100
0010
0000
1000
0000
0001
0000
,
1000
0000
0100
0000
0020
0000
0000
0000
1030
0000
0010
0100
0010
0000
0100
0000
,
1000
0000
0001
0000
0100
0000
0100
0000
1000
0001
0010
0000
0100
0000
1000
0000
,
0001
0100
0001
0000
1000
0100
1000
0000
0001
0100
0001
0100
0010
1000
0001
0100
,
0010
0000
1000
0001
1000
0000
0100
0000
0100
0000
0001
1000
0001
0000
0010
0000
,
0010
0000
1000
0100
0010
0000
1000
0000
0010
0100
1000
0000
0011
0000
0000
0000
,
0010
0000
0001
1000
0001
0000
0100
0000
0100
0000
1000
0001
1000
0000
0010
0000
,
0010
0000
0001
0100
0010
0000
0001
0000
0010
0100
0001
0000
1010
0000
0000
0000
,
1000
0000
0100
0001
0200
0000
0010
0000
0010
0000
0010
0000
0010
0000
0310
0000
,
0001
0000
0100
1000
0100
0000
0010
0000
0100
1000
0100
0000
0001
0000
0010
0000
,
0100
1000
1010
0100
0001
0011
0100
1000
,
1010
0001
0010
0110
1000
0001
1001
0000
,
1000
0000
1000
0010
1000
0000
0010
0000
0010
0001
0010
0000
0001
0000
0001
0100
,
0001
0000
0100
0000
0100
1000
0100
0000
0011
0000
0100
0000
1001
0000
0000
0000
,
0001
0000
0001
0100
0001
0000
0100
0000
0100
1000
0100
0000
1000
0000
1000
0010
,
1000
0000
0010
0000
0010
0001
0010
0000
1100
0000
0010
0000
1001
0000
0000
0000
,
0001
0000
0001
0100
0010
0000
0010
0000
0010
1000
0100
0000
0100
0000
0100
0010
,
0001
0000
0001
0000
0001
0100
0010
0000
1100
0000
0001
0000
0110
0000
0000
0000
,
1000
0000
1000
0010
0100
0000
0100
0000
0100
0001
0010
0000
0010
0000
0010
0100
,
1000
0000
1000
0000
1000
0010
0100
0000
0011
0000
1000
0000
0110
0000
0000
0000
,
0001
0000
0100
0001
0010
0000
0100
0000
0100
0000
0010
1000
0100
0000
0010
0000
,
0010
0000
1000
0010
0001
0000
0010
0000
0001
0010
1000
0000
0011
0000
0000
0000
,
1000
0000
0100
1000
0010
0000
0100
0000
0100
0000
0010
0001
0100
0000
0010
0000
,
0010
0000
0001
0010
1000
0000
0001
0000
1000
0010
0001
0000
1010
0000
0000
0000
,
0001
0000
0100
1000
0100
0000
0020
0000
1000
0000
2030
0000
0100
0000
3100
0000
,
0010
0000
0100
0001
0100
0000
0010
0000
0100
1000
0100
0000
0010
0000
0001
0000
,
1000
0010
0101
0001
0010
1100
0001
0100
,
1010
1000
0100
0011
1000
0001
1001
0000
,
0100
0000
0001
0000
0100
0000
1000
0000
0100
0000
0001
0010
0001
0000
0100
0000
,
0010
1010
2000
0000
3100
0000
1000
0100
,
0010
0000
0001
0000
0010
0000
1000
0000
0010
0000
0001
0100
0001
0000
0010
0000
,
0100
1100
2000
0000
3010
0000
1000
0010
,
0200
0001
0001
0302
0010
0010
0023
1000
,
1000
2030
0100
0100
3200
0001
0302
0010
,
0023
0000
0100
0000
0100
0000
0230
0000
1000
0000
1000
0000
2300
0000
0002
3003
,
0020
0100
0000
0100
,
0032
0000
0100
0103
,
0200
0010
0000
0010
,
0302
0000
0010
0013
,
0100
1000
0010
0001
0100
0000
1001
0000
,
0100
0001
0010
1000
0100
0000
1001
0000
,
0010
1000
0010
1000
0010
0000
0100
0000
0001
0000
1000
0000
1001
0000
0000
0000
,
0020
0030
0200
0300
0022
0033
2020
3030
,
0001
0000
0010
0000
0100
1000
0100
0000
0001
0100
0001
0100
0010
0001
1000
0000
,
0001
0000
0100
0000
0010
1000
0010
0000
0001
0010
0001
0010
0100
0001
1000
0000
,
0100
0000
0010
0000
0100
1000
0100
0000
0010
1000
0010
1000
0010
0100
1000
0000
,
0001
0100
0001
0000
0100
1000
0100
0000
0001
0010
0001
0000
0100
1000
0100
0000
,
0001
0000
0010
0000
0100
1000
0100
0000
1000
0010
1000
0010
0001
0010
0100
0000
,
0001
0000
0100
0000
0010
1000
0010
0000
1000
0100
1000
0100
0001
0100
0010
0000
,
0001
0100
0010
0000
1000
0100
0010
0000
0001
1000
0010
0000
1000
0001
0010
0000
,
0100
1000
0100
1000
0001
0100
0001
0100
0010
1000
0100
0010
0001
1000
0010
1000
,
0100
0000
0010
0000
0002
0000
0000
0000
0103
0000
1000
0100
1000
0000
0100
0000
,
0010
1000
0010
1000
0100
0010
0001
0000
1000
0010
1000
0010
0100
0000
0001
0000
,
0010
0000
0100
0000
2000
0000
0000
0000
3010
0000
0001
0010
0001
0000
0010
0000
,
0100
0001
0100
0001
0010
0100
1000
0000
0001
0100
0001
0100
0010
0000
1000
0000
,
0001
0010
0001
0010
0100
0000
0100
0000
0001
0100
1000
0100
0001
1000
0100
0000
,
1000
0010
1000
0010
0100
0000
0100
0000
1000
0100
0001
0100
1000
0001
0100
0000
,
0010
1000
0100
0000
0010
0001
0100
0000
0010
0100
0001
0000
0010
0100
1000
0000
,
0001
0100
0001
0100
0010
1000
0010
1000
0001
0010
0100
1000
0100
0010
0001
0100
,
2000
0000
0000
0000
,
3000
0000
0000
0000
;

//---------------dance-double - Talkion-BDP----------------
#NOTEDATA:;
#CHARTNAME:Talkion-BDP;
#STEPSTYPE:dance-double;
#DESCRIPTION:Talkion-BDP;
#DIFFICULTY:Easy;
#METER:10;
#RADARVALUES:0.371599,0.477770,0.194647,0.336209,0,294,272,22,38,0,0,0,0,0,0.371599,0.477770,0.194647,0.336209,0,294,272,22,38,0,0,0,0,0;
#CREDIT:Talkion;
#NOTES:
00000000
00000000
00000000
00000000
,
00000000
00000000
00000000
00000000
,
00000000
00000000
00000000
00000000
,
00000000
00000000
00000000
00000000
,
00000000
00000000
00000000
00000000
,
10000000
01000000
00100000
00010000
,
00001000
00000100
00000010
00000001
,
00000100
00000100
00001000
00001000
,
00010000
00010000
01000000
01000000
,
20000000
00100000
00000000
00100000
,
31000000
00000000
00010000
00000000
00001000
00010000
00001000
00000000
,
00000200
00000001
00000000
00000001
,
00000310
00000000
00001000
00000000
00000100
00010000
00000100
00000000
,
00020000
00001000
00000000
00001000
,
01030000
00000000
00100000
00000000
00010000
10000000
00010000
00000000
,
20000000
00000000
30200000
00000000
00320000
00000000
00002000
00033000
,
00010000
00000100
00001000
00000000
00000001
00000000
00000100
00000000
,
00001000
00000000
00010000
00000000
00001000
00100000
00101000
00000000
,
00001000
01000000
00010000
00000000
10000000
00000000
01000000
00000000
,
00010000
00000000
00001000
00000000
00010000
00000010
00010010
00000000
,
00010000
00000100
00001000
00000000
00000001
00000000
00000100
00000000
,
00001000
00000000
00010000
00000000
01000000
10000000
01000000
00000000
,
00200000
00000000
00000000
00320000
00000000
00000000
00032000
00000000
,
00000000
00003200
00000000
00000000
00010300
00000000
00011000
00000000
,
00001000
00000000
00000010
00000001
00000010
00000000
00001000
00000000
,
00010000
00001000
00010000
00000000
00100000
00000000
01100000
00000000
,
10000000
00000000
00100000
00010000
00100000
00000000
00010000
00000000
,
00001000
00010000
00001000
00000000
00000010
00000000
00000110
00000000
,
00000001
00000000
00000100
00001000
00000100
00000000
00000010
00000000
,
00010000
00001000
00010000
00000000
01000000
00000000
01100000
00000000
,
10000000
00000000
01000000
00010000
01000000
00000000
00100000
00000000
,
00001000
00010000
00001000
00000000
00000100
00000000
00000110
00000000
,
00000001
00001000
00000100
00000000
00010000
00000000
00001000
00000000
,
00100000
00000000
10000000
00000000
00100000
00010000
10010000
00000000
,
10000000
00010000
01000000
00000000
00001000
00000000
00010000
00000000
,
00000010
00000000
00000001
00000000
00000010
00001000
00001001
00000000
,
00000001
00000010
00000100
00000000
00010000
00000000
00001000
00000000
,
00100000
00000000
01000000
00000000
10000000
00010000
10000000
00000000
,
02000000
00000000
00000000
03020000
00000000
00000000
00032000
00000000
,
00000000
00003020
00000000
00000000
00001030
00000000
00011000
00000000
,
00010000
00010000
01000000
01000000
,
10000000
00100000
00020000
00030000
,
00001000
00001000
00000010
00000010
,
00000001
00000100
00002000
00003000
,
00020000
00000000
00000000
20030000
00000000
00000000
30020000
00000000
,
00000000
00032000
00000000
00000000
00003002
00000000
00001003
00000000
,
00020000
00000000
00000000
02030000
00000000
00000000
13000000
00000000
,
20020000
00000000
00000000
00000000
,
30030000
00000000
00000000
00000000
,
00002002
00000000
00000000
00000000
,
00003003
00000000
00000000
00000000
,
10010000
01000000
00100000
00000000
,
00001001
00000100
00000010
00000000
,
10010000
10000000
01000000
00010000
,
00002000
00003000
00020000
00030000
00002200
00003300
00000022
00000033
,
00000001
00000000
00000100
00000000
00000010
00001000
00000010
00000000
,
00010000
00000000
00001000
00000000
00100000
00001000
00100000
00000000
,
00010000
00000000
10000000
00000000
00100000
10000000
00100000
00000000
,
01000000
00010000
00100000
00001000
,
00010000
00000000
00000100
00000000
00001000
00000100
00001000
00000000
,
00000001
00000000
00000100
00000000
00000010
00000100
00000010
00000000
,
00010000
00001000
00011000
00011000
,
00010000
01000000
00010000
00000000
01000000
10000000
01000000
00000000
,
00200000
00010000
00000000
00010000
,
00301000
00000000
00010000
00000000
00000100
00001000
00000001
00000000
,
00000200
00001000
00000000
00001000
,
00000310
00000000
00001000
00000000
00000100
00010000
00001000
00000000
,
00010000
00000000
01000000
00000000
10000000
01000000
00010000
00000000
,
00001000
00000000
00000100
00000000
00000001
00000100
00001000
00000000
,
00010000
00101000
00010000
01100000
,
10000000
01000000
10000000
01000000
00100000
00010000
01000000
00000000
,
00022000
00000000
00000000
00000000
,
00033000
00000000
00000000
00000000
;

//---------------dance-double - Talkion-DDP----------------
#NOTEDATA:;
#CHARTNAME:Talkion-DDP;
#STEPSTYPE:dance-double;
#DESCRIPTION:Talkion-DDP;
#DIFFICULTY:Medium;
#METER:14;
#RADARVALUES:0.629444,0.668879,0.150409,0.513161,0.106171,498,481,17,58,0,0,0,0,0,0.629444,0.668879,0.150409,0.513161,0.106171,498,481,17,58,0,0,0,0,0;
#CREDIT:Talkion;
#NOTES:
00000000
00000000
00000000
00000000
,
00000000
00000000
00000000
00000000
,
00000000
00000000
00000000
00000000
,
00000000
00000000
00000000
00000000
,
00000000
00000000
00000000
00000000
,
00000001
00000100
00001000
00000100
00000010
00010000
00002000
00000000
,
00013000
01000000
10000000
01000000
00100000
00010000
20000000
00000000
,
30100000
01000000
00010000
00100000
00001000
00010000
00000100
00001000
,
00000010
00000000
00000100
00000001
00000100
00000000
00000001
00000010
00000001
00000000
00001000
00000001
00001000
00000000
00000100
00000000
,
00020000
00000000
02030000
00000000
03100000
00010000
01000000
00010000
,
00100000
00001000
00010000
00001000
00000100
00001000
00020000
00000000
,
00032000
00000000
00003020
00000000
00000130
00001000
00000010
00001000
,
00000100
00010000
00001000
00010000
00100000
00010000
00002000
00000000
,
00023000
00000000
02030000
00000000
03100000
00010000
01000000
00100000
,
00010000
00001000
00010000
00100000
01000000
00001000
00020000
00000000
,
00030100
00000000
00001000
00000001
00000000
00001000
00000001
00000000
00000100
00000010
00000000
00001000
00000100
00000000
00010000
00000000
,
00001000
00010000
01010000
01000000
10000000
00100000
00110000
00010000
,
00100000
01000000
00001000
00010000
01000000
00010000
00002000
00000000
,
00013000
00001000
00001100
00000100
00000001
00000010
00001010
00001000
,
00000010
00000100
00010000
00001000
00000100
00001000
00020000
00000000
,
00031000
00010000
02000000
00100000
00100000
03200000
00010000
00310000
,
01000000
00100000
00010000
00001000
00000100
00000010
00010000
00001000
,
00010000
01000000
00100000
00001000
00000100
00000010
00010000
01000000
,
00100000
00001000
00000100
00000010
00010000
00001000
00011000
00000000
,
00010000
01000000
10000000
00100000
00010000
00001000
00000010
00000001
,
00000100
00001000
00010000
01000000
00100000
00001000
00020000
00000000
,
00031000
00000100
00000001
00000010
00001000
00010000
00100000
10000000
,
01000000
00010000
00001000
00000100
00000010
00010000
00002000
00000000
,
00013000
01000000
10000000
00010000
00001000
00010000
01000000
00001000
,
00010000
00000100
00001000
00000001
00000100
00001000
00020000
00000000
,
00031000
00000100
00000001
00001000
00010000
00001000
00000100
00010000
,
00001000
01000000
00010000
10000000
01000000
00010000
00002000
00000000
,
00013000
01000000
11000000
10000000
00100000
00010000
00011000
00001000
,
00000010
00000001
00000010
00001000
00010000
00100000
02000000
00000000
,
03001000
00000100
00000101
00000001
00000010
00001000
00011000
00010000
,
00100000
10000000
00100000
00010000
00001000
00000010
00000200
00000000
,
00010300
00001000
02000000
00010000
00010000
03020000
10000000
10030000
,
01000000
00100000
00010000
00001000
00000100
00000010
00000001
00001000
,
00000100
00000010
00001000
01000000
00100000
00010000
00000100
00000010
,
00001000
01000000
00100000
00010000
00001000
00010000
00011000
00000000
,
00001000
00000100
00000001
00000000
00000001
00000100
00001000
00000000
,
00010000
00100000
20000000
00000000
32000000
00000000
03010000
00000000
,
00010000
01000000
10000000
00000000
10000000
01000000
00010000
00000000
,
00001000
00000010
00000002
00000000
00000203
00000000
00001300
00000000
,
00002000
00100000
00103000
00200000
00010000
00310000
00020000
01000000
,
01030000
02000000
00100000
03100000
00020000
00031000
00002000
00013000
,
00020000
00000000
00000100
00000000
00030100
00000000
00000200
00000000
00001000
00000000
00001300
00000000
00002000
00000000
00000020
00003030
,
00000002
00002003
00000000
00023000
,
00230000
00000000
20000000
30300000
,
20000000
30020000
00000000
00032000
,
00003200
00000000
00000002
00000303
,
00000100
00001000
00000010
00000000
00011000
00000000
00000000
00000000
,
01000000
00010000
00100000
00000000
00011000
00000000
00000000
00000000
,
00000010
00000010
00000001
00000001
00000100
00001000
00010000
01000000
,
20000000
30000000
00200000
00300000
02020000
03030000
00202000
00303000
,
00010000
00000000
00000100
00000000
00001000
00000100
00001000
00000000
00000001
00000000
00000100
00000000
00001000
00000000
00010000
00000000
,
00001000
00000000
00100000
00000000
00010000
00100000
00010000
00000000
10000000
00000000
00100000
00000000
00010000
00000000
00001000
00000000
,
00010000
00000000
00000100
00000000
00001000
00000100
00001000
00000000
00000001
00000000
00000100
00000000
00001000
00000000
00010000
00000000
,
00001000
00100000
00100000
00010000
00010000
10000000
10010000
00000000
,
10000000
00000000
00100000
00000000
01000000
00100000
01000000
00000000
00001000
00000000
00010000
00000000
00000100
00000000
00000010
00000000
,
00000001
00000000
00000100
00000000
00000010
00000100
00000010
00000000
00010000
00000000
00001000
00000000
00100000
00000000
01000000
00000000
,
10000000
10000000
00010000
00010000
00200000
00301000
00002000
00013000
,
00000100
00000000
00001000
00000001
00000100
00000000
00000010
00001000
00000100
00000000
00010000
00001000
00100000
00000000
00010000
00000000
,
10000000
00000000
01000000
00000000
00020000
00000000
00000000
00000000
01030000
00000000
00100000
00010000
00100000
00000000
00001000
00000000
,
00010000
00000100
00001000
00000010
00000100
00001000
00011000
00000000
,
00001000
00000000
00000100
00000000
00000002
00000000
00000000
00000000
00000103
00000000
00000010
00001000
00000010
00000000
00010000
00000000
,
00001000
01000000
00010000
00100000
01000000
00010000
00011000
00000000
,
00010000
00001000
00010000
00001000
00010000
00000000
00001000
00000000
01000000
00000000
00010000
00000000
00100000
00000000
01000000
00000000
,
10000000
00010000
10000000
00010000
10000000
00000000
00100000
00000000
01000000
00000000
00010000
00000000
00100000
00000000
00001000
00000000
,
00010000
00010000
00000100
00000100
00001000
00001000
00000001
00000001
,
00000100
00000000
00001000
00010000
00001000
00000000
00010000
01000000
10000000
00000000
00010000
10000000
00010000
00000000
01000000
00000000
,
00200000
00000000
00000000
00000000
,
00300000
00000000
00000000
00000000
;

//---------------dance-double - Talkion-EDP----------------
#NOTEDATA:;
#CHARTNAME:Talkion-EDP;
#STEPSTYPE:dance-double;
#DESCRIPTION:Talkion-EDP;
#DIFFICULTY:Hard;
#METER:16;
#RADARVALUES:0.808923,0.923689,0.168104,0.336209,0.632603,640,621,19,38,0,0,0,0,0,0.808923,0.923689,0.168104,0.336209,0.632603,640,621,19,38,0,0,0,0,0;
#CREDIT:Talkion;
#NOTES:
// measure 0
00000000
00000000
00000000
00000000
,  // measure 1
00000000
00000000
00000000
00000000
,  // measure 2
00000000
00000000
00000000
00000000
,  // measure 3
00000000
00000000
00000000
00000000
,  // measure 4
00000000
00000000
00000000
00000000
,  // measure 5
10000000
01000000
00100000
00000000
01000000
00100000
00010000
00000000
00100000
00001000
00100000
00001000
00020000
00000000
00000000
00030000
,  // measure 6
00001000
00000100
00000010
00000000
00000100
00000001
00001000
00000000
00000001
00001000
00000001
00001000
00000100
00000000
00000010
00000000
,  // measure 7
00000001
00000100
00000001
00000000
00000100
00000010
00000100
00000000
00000010
00001000
00000100
00000000
00010000
00000100
00001000
00000000
,  // measure 8
00000100
00010000
00000100
00010000
00001000
00010000
00001000
00010000
00001000
00100000
00001000
00100000
00010000
10000000
00100000
10000000
,  // measure 9
01000000
00000000
00100000
00000000
00002000
00000000
00000000
00000000
00013000
00000000
00000100
00001000
00000100
00000000
00010000
00000000
,  // measure 10
00001000
00000000
00000100
00000000
00000010
00000000
00000010
00000000
00000001
00000100
00000001
00000000
00000010
00000000
00000100
00000000
,  // measure 11
00010000
00000000
00000010
00000000
00002000
00000000
00000000
00000000
00003100
00000000
00010000
00001000
00010000
00000000
00000100
00000000
,  // measure 12
00001000
00000000
00010000
00000000
00100000
00000000
00100000
00000000
10000000
01000000
10000000
00000000
00100000
00000000
01000000
00000000
,  // measure 13
00001000
00000000
00100000
00000000
00020000
00000000
00000000
00000000
01030000
00000000
00001000
00010000
00001000
00000000
01000000
00000000
,  // measure 14
00010000
00000000
00001000
00000000
00000100
00000000
00000100
00000000
00000001
00000010
00000001
00000000
00001000
00000000
00000010
00000000
,  // measure 15
00010000
00001000
00100000
00000000
00010000
01000000
00100000
00000000
10000000
01000000
10000000
01000000
00100000
00010000
00100000
00010000
,  // measure 16
10000000
00000000
00100000
01000000
00100000
00000000
00010000
00000000
00001000
00000000
00000100
00000010
00000100
00000000
00000001
00000000
,  // measure 17
00000010
00000000
00000100
00010000
00001000
00000000
00010000
00000000
00001000
00010000
00000100
00000000
00000020
00000000
00000000
00000000
,  // measure 18
00000031
00000000
00000100
00000010
00000100
00000000
00001000
00000000
00010000
00000000
00100000
01000000
00100000
00000000
10000000
00000000
,  // measure 19
00100000
00000000
01000000
00001000
00010000
00000000
00001000
00000000
00010000
00001000
01000000
00000000
00200000
00000000
00000000
00000000
,  // measure 20
10300000
00000000
01000000
00010000
01000000
00000000
00200000
00000000
00001000
00000000
00001000
00000000
00001000
00000000
00001000
00000000
,  // measure 21
00301000
00000000
00010000
00001000
00000100
00000000
00001000
00000000
00000100
00000001
00000010
00000000
00000100
00000000
00000010
00000000
,  // measure 22
00000001
00000100
00001100
00001000
00010000
01010000
01000000
10000000
,  // measure 23
01100000
00010000
00001000
00000110
00000001
00000010
00001001
00000000
,  // measure 24
00000001
00000000
00000001
00000100
00001000
00000000
00001000
00000000
00001000
00010000
00000100
00000000
00000100
00000000
00000100
00010000
,  // measure 25
00001000
00000000
00001000
00000000
00001000
00010000
01000000
00000000
01000000
00000000
00100000
00000000
10010000
00000000
00000000
00000000
,  // measure 26
10000000
00000000
10000000
00100000
00010000
00000000
00010000
00000000
00010000
00001000
00100000
00000000
00100000
00000000
00100000
00001000
,  // measure 27
00010000
00000000
00010000
00000000
00010000
00001000
00000010
00000000
00000010
00000000
00000100
00000000
00001001
00000000
00000000
00000000
,  // measure 28
00000001
00000000
00000001
00000100
00001000
00000000
00010000
00000000
00010000
00100000
10000000
00000000
01000000
00000000
01000000
00100000
,  // measure 29
00010000
00000000
00001000
00000000
00001000
00010000
00100000
00000000
01000000
00000000
10000000
00000000
10010000
00000000
00000000
00000000
,  // measure 30
10000000
00000000
10000000
00100000
00010000
00000000
00001000
00000000
00001000
00000100
00000001
00000000
00000010
00000000
00000010
00000100
,  // measure 31
00001000
00000000
00010000
00000000
00010000
00001000
00000100
00000000
00000010
00000000
00000001
00000000
00001001
00000000
00000000
00000000
,  // measure 32
00000001
00000000
00000100
00001000
00000100
00000000
00001000
00000000
00010000
00000000
01000000
00010000
01000000
00000000
10000000
00000000
,  // measure 33
00010000
00000000
01000000
00100000
00010000
00000000
00100000
00000000
00010000
00100000
01000000
00000000
00020000
00000000
00000000
00000000
,  // measure 34
10030000
00000000
01000000
00010000
01000000
00000000
00010000
00000000
00001000
00000000
00000100
00001000
00000100
00000000
00000001
00000000
,  // measure 35
00001000
00000000
00000100
00000010
00001000
00000000
00000010
00000000
00001000
00000010
00000100
00000000
00002000
00000000
00000000
00000000
,  // measure 36
00003001
00000000
00000010
00001000
00000010
00000000
00000200
00000000
00010000
00000000
00010000
00000000
00020300
00000000
00001000
00000000
,  // measure 37
00031000
00000000
01000000
00010000
00100000
00000000
00010000
00000000
00100000
00010000
01000000
00000000
00100000
00000000
10000000
00000000
,  // measure 38
01000000
00100000
00011000
00000100
00000010
00001001
00000010
00000100
,  // measure 39
00011000
00100000
01000000
10010000
01000000
00100000
01100000
00000000
,  // measure 40
10000000
00000000
00100000
00000000
00010000
00000000
00001000
00000000
00000010
00000000
00000001
00001000
00000001
00000000
00000010
00000000
,  // measure 41
00001000
00011000
00020000
00000000
02030000
00000000
13000000
00000000
,  // measure 42
10000000
00000000
01000000
00000000
00010000
00000000
00001000
00000000
00000100
00000000
00000001
00001000
00000001
00000000
00000010
00000000
,  // measure 43
00001000
00011000
00020000
00000000
00230000
00000000
10300000
00000000
,  // measure 44
00020000
01000000
01030000
02000000
00001000
03001000
00002000
00000100
,  // measure 45
00003100
00000200
00000001
00000301
00000200
00001300
00000200
00000301
,  // measure 46
00000200
00000000
00001000
00000000
00001300
00000000
00002000
00000000
00010000
00000000
00013000
00000000
00020000
00000000
02000000
03030000
,  // measure 47
20000000
00100000
00000000
00100000
,  // measure 48
30020000
00000000
00001000
00031000
,  // measure 49
00000002
00000010
00000000
00000010
,  // measure 50
00002003
00000000
00010000
00013000
,  // measure 51
10000000
00100000
00010000
01000000
10000000
00000000
00010000
00000000
,  // measure 52
00001000
00000100
00000001
00000010
00001000
00000000
00010000
00000000
,  // measure 53
01000000
00100000
01000000
00100000
10000000
00000000
00010000
00000000
01000000
00000000
00001000
00000000
00011000
00000000
00000000
00000000
,  // measure 54
00000200
00000300
00000020
00000030
00000202
00000303
00002200
00003300
,  // measure 55
00000001
00000000
00000010
00000000
00000100
00010000
00000100
00000000
00010000
00001000
01000000
00010000
01000000
00001000
00010000
00001000
,  // measure 56
01000000
00000000
00100000
00000000
10000000
01000000
10000000
00000000
00100000
01000000
00001000
00010000
00001000
01000000
00010000
01000000
,  // measure 57
00001000
00000000
00010000
00000000
00000100
00001000
00000100
00000000
00001000
00000001
00000100
00000001
00001000
00000100
00001000
00000001
,  // measure 58
00000100
00000000
00000010
00001000
00000100
00010000
00001000
00000000
00010000
00000000
00001000
01000000
00010000
00100000
01000000
00000000
,  // measure 59
10000000
00000000
01000000
00000000
00100000
00001000
00100000
00000000
00001000
00010000
00000010
00001000
00000100
00001000
00000010
00000000
,  // measure 60
00000100
00000000
00000001
00000000
00001000
00000100
00001000
00000000
00000010
00000100
00000001
00000100
00000010
00001000
00000100
00000000
,  // measure 61
00010000
00001000
00010000
00000000
01000000
00010000
01000000
00000000
00100000
00010000
01000000
00000000
00100000
10000000
01000000
00000000
,  // measure 62
00100000
00010000
00100000
00010000
01000000
00001000
01000000
00001000
00010000
00000100
00010000
00000100
00001000
00000001
00000100
00000010
,  // measure 63
00001000
00000000
00000100
00000000
00020000
00000000
00000000
00000000
00031000
00000000
01000000
00010000
01000000
00000000
00100000
00000000
,  // measure 64
00010000
00100000
00010000
00100000
01000000
00000000
01000000
00000000
10000000
01000000
10000000
01000000
00100000
00000000
00010000
00000000
,  // measure 65
01000000
00000000
00001000
00000000
00020000
00000000
00000000
00000000
00031000
00000000
00010000
00000100
00010000
00000000
00001000
00000000
,  // measure 66
00000100
00000010
00000100
00000010
00001000
00000000
00001000
00000000
00010000
00000100
00010000
00000100
00001000
00000000
00000001
00000000
,  // measure 67
00000100
00000010
00000100
00000010
00001000
00000000
00000100
00000000
00010000
00001000
00100000
00010000
01000000
00000000
00100000
00000000
,  // measure 68
10000000
01000000
10000000
01000000
00100000
00000000
00010000
00000000
01000000
00010000
00100000
00001000
00010000
00000000
00000100
00000000
,  // measure 69
00001000
00000001
00000100
00000000
00001000
00010000
00001000
00000000
00010000
01000000
10000000
00000000
00010000
10000000
00010000
00000000
,  // measure 70
10000000
00100000
01000000
00010000
00100000
00001000
00010000
00000100
00001000
00000010
00000100
00000001
00000010
00001000
00000010
00000001
,  // measure 71
00000200
00000000
00000000
00000000
,  // measure 72
00000300
00000000
00000000
00000000
;
