#TITLE:How Long;
#ARTIST:Charlie Puth;
#BANNER:How Long.png;
#BACKGROUND:How Long-bg.png;
#MUSIC:How Long.ogg;
#OFFSET:0.002;
#SAMPLESTART:42.828;
#SAMPLELENGTH:15;
#BPMS:0=109.97;
#BGCHANGES:-0.25=How Long.avi=1=0=0=0=StretchNoLoop====,99999=-nosongbg-=1=0=0=0 // don't automatically add -songbackground-;

//---------------dance-single - RIME-bSP----------------
#NOTES:
     dance-single:
     RIME:
     Beginner:
     2:
     0.064207,0.134836,0.020430,0.122578,0,44,42,2,12,0,0,0.064207,0.134836,0.020430,0.122578,0,44,42,2,12,0,0:
0000
0000
0000
0000
,
0000
0000
0000
0000
,
0000
0000
0000
0000
,
0000
0000
0000
0000
,
1000
0000
0000
0000
,
1000
0000
0000
0000
,
0001
0000
0000
0000
,
0001
0000
0000
0000
,
0100
0000
0000
0000
,
0010
0000
0000
0000
,
0100
0000
0000
0000
,
0010
0000
0000
0000
,
2000
0000
0000
0000
,
3000
0000
0000
0000
,
0200
0000
0000
0000
,
0300
0000
0000
0000
,
0020
0000
0000
0000
,
0030
0000
0000
0000
,
0002
0000
0000
0000
,
0003
0000
0000
0000
,
1000
0000
1000
0000
,
1000
0000
0000
1001
,
0001
0000
0000
0000
,
0001
0000
0000
0000
,
0010
0000
0010
0000
,
0010
0000
0000
0000
,
0100
0000
0000
0000
,
0100
0000
0000
0000
,
2000
0000
0000
0000
,
3002
0000
0000
0000
,
0023
0000
0000
0000
,
0230
0000
0000
0000
,
2300
0000
0000
0000
,
3020
0000
0000
0000
,
0230
0000
0000
0000
,
0302
0000
0000
0000
,
1003
0000
1000
0000
,
1000
0000
0000
0000
,
0010
0000
0000
0000
,
0010
0000
0000
0000
,
0100
0000
0100
0000
,
0100
0000
0000
0000
,
0001
0000
0000
0000
,
0001
0000
0000
0000
,
1001
0000
0000
0000
;

//---------------dance-single - RIME-BSP----------------
#NOTES:
     dance-single:
     RIME:
     Easy:
     6:
     0.201378,0.247199,0.061289,0.316659,0.061289,138,132,6,31,0,0,0.201378,0.247199,0.061289,0.316659,0.061289,138,132,6,31,0,0:
0000
0000
0000
0000
,
0000
0000
0000
0000
,
0000
0000
0000
0000
,
0000
0000
0000
0000
,
0000
0001
0000
1001
,
0000
0001
0010
0100
,
0010
0001
1000
0010
,
0200
0000
0000
0301
,
0000
0100
0000
0110
,
0000
0010
1000
0100
,
0010
0001
1000
0010
,
0200
0000
0000
0301
,
0000
0100
0000
0100
0000
0000
0000
0010
,
0000
0010
0000
0010
0000
0000
0000
1000
,
0000
0000
0000
0000
0001
0000
0000
0010
0000
0000
0000
0100
0000
0000
0000
2000
,
0000
0000
0000
0000
0000
3001
0000
0000
,
0000
1000
0000
1000
0000
0000
0000
0010
,
0000
0010
0000
0010
0000
0000
0000
0100
,
0000
0000
0000
0000
0010
0000
0000
1000
0000
0000
0000
0001
0000
0000
0000
0020
,
0000
0000
0000
0000
0000
0230
0000
0000
,
0310
0010
0100
0100
,
2000
0000
0000
0000
3002
0000
0000
1003
0000
0000
0000
0000
1001
0000
0000
0000
,
0002
0000
0000
0020
0033
0000
0001
0000
,
2000
0000
0000
0020
3030
0000
1000
0000
,
0100
0110
0010
0110
,
0020
0000
0000
0000
0032
0000
0000
1003
0000
0000
0000
0000
0001
0000
0000
0000
,
0020
0000
0000
0200
0330
0000
0100
0000
,
2000
0000
0000
0002
3003
0000
1000
0000
,
0020
0100
0001
0130
,
0010
1000
0001
0000
,
0020
0100
1000
0130
,
0010
0001
1000
0010
,
0200
0001
0010
0301
,
0100
0001
1000
0000
,
0200
1000
0010
1300
,
0100
1000
0001
1001
,
0001
0001
0100
0100
,
0002
0000
0000
0000
2003
0000
0000
3001
0000
0000
0000
0000
1000
0000
0000
0000
,
0020
0000
0000
0200
0330
0000
0100
0000
,
0001
0000
0000
0010
0000
0000
0000
0100
0000
0000
2000
0000
0000
0000
0000
0000
,
3001
0001
1000
1000
,
0010
0000
0000
0000
0200
0000
0000
0310
0000
0000
0000
0000
0100
0000
0000
0000
,
0002
0000
0000
0020
0033
0000
0001
0000
,
2000
0000
0000
0020
3030
0000
1000
0000
,
0100
0000
0000
0000
;

//---------------dance-single - RIME-DSP----------------
#NOTES:
     dance-single:
     RIME:
     Medium:
     9:
     0.331252,0.359562,0.091933,0.592459,0.163437,227,218,9,58,0,0,0.331252,0.359562,0.091933,0.592459,0.163437,227,218,9,58,0,0:
0000
0000
0000
0000
,
0000
0000
0000
0000
,
0000
0000
0000
0000
,
0000
0000
0000
0000
,
0000
0100
1000
0000
0000
0001
0100
0000
,
0000
0000
0010
0000
0000
1000
0000
0000
0002
0000
0000
0000
0013
0000
0000
0000
,
0001
0010
0100
1000
0001
1000
0010
0000
,
0200
0001
0010
0301
,
0000
0100
0001
0000
0000
1000
0100
0000
,
0000
0000
0010
0000
0000
0100
0000
0000
2000
0000
0000
0000
3010
0000
0000
0000
,
1000
0010
0100
0001
1000
0001
0010
0000
,
0200
1000
0010
1300
,
0000
0200
0000
0320
0000
0032
0000
2003
,
0000
3020
0000
0032
0000
0023
0000
0130
,
0000
0000
0000
0000
0010
0000
0000
1000
0000
1000
0000
0001
0000
0010
0000
0002
,
0000
1000
0100
1003
,
0000
0002
0000
0023
0000
0032
0000
2003
,
0000
3200
0000
0302
0000
0203
0000
0310
,
0000
0000
0000
0000
0100
0000
0000
1000
0000
1000
0000
0001
0000
0100
0000
0002
,
0000
0000
1000
0000
0013
0002
0000
0103
,
0001
0001
1000
1000
,
0200
0000
0000
0000
0010
0000
0000
1300
0000
0000
0000
0000
1100
0000
0100
0000
,
1000
1000
0000
0001
0100
0000
0010
0000
,
1000
1000
0000
0001
0100
0000
0002
0013
,
0001
1000
0001
0000
1000
0001
1000
0000
,
0100
0000
0010
0000
0100
0000
0000
1000
0000
0000
0001
0000
1000
0000
0010
0000
,
0100
0100
0000
0001
0010
0000
0100
0000
,
0010
0010
0000
0001
0100
0000
0010
1000
,
0000
0002
2003
3020
0230
0301
0100
0000
,
0000
0002
0023
0230
1300
0100
0110
0000
,
0000
0020
0032
0203
0320
1030
0010
2000
,
3001
0000
0000
1000
0000
1000
0000
0001
0000
0100
0000
1000
0000
0100
0000
0001
,
0000
0020
0230
2300
3020
0130
0010
0000
,
0200
0000
0320
0000
2030
0000
3002
0000
0013
0000
0000
0001
0000
0000
1000
0000
,
0002
0203
0320
0032
0023
1030
0010
0200
,
0301
0000
0100
0020
1030
0000
0010
0100
,
0001
1001
1000
1100
,
0200
0000
0000
0000
0320
0000
0000
0031
0000
0000
0000
0000
0011
0000
0001
0000
,
1000
1000
0000
0010
0100
0000
0001
0010
,
0100
0000
0000
1000
0000
0010
0000
0001
0000
0010
0000
0100
0000
0001
0000
1000
,
0000
1000
1001
0000
0001
0000
0011
0000
,
0020
0000
0000
0000
0230
0000
0000
0020
0330
0000
0000
0220
0330
0000
0010
0000
,
0001
0001
0000
1000
0010
0020
0130
0010
,
1000
1000
0000
0001
0010
0100
1000
0001
,
1001
0000
0000
0000
;

//---------------dance-single - RIME-ESP----------------
#NOTES:
     dance-single:
     RIME:
     Hard:
     13:
     0.566193,0.610208,0.224726,0.806971,0.495419,388,366,22,79,0,0,0.566193,0.610208,0.224726,0.806971,0.495419,388,366,22,79,0,0:
// measure 0
0000
0000
0000
0000
,  // measure 1
0000
0000
0000
0000
,  // measure 2
0000
0000
0000
0000
,  // measure 3
0000
0000
0000
0000
0000
1010
2000
0000
,  // measure 4
3001
0000
1000
0001
0010
0000
0100
0000
1000
0000
0001
1000
0010
0000
0100
0000
,  // measure 5
0001
0000
0010
0100
0000
0100
1000
0000
0020
0000
0031
0000
0002
0000
0000
0000
,  // measure 6
0023
2030
3200
0302
0203
0320
0032
2003
,  // measure 7
3010
1000
0001
1000
0100
0110
0010
0001
,  // measure 8
1000
0000
0001
1000
0010
0000
0100
0000
0001
0000
1000
0001
0010
0000
0100
0000
,  // measure 9
0010
0000
0001
0100
0000
0100
0010
0000
2000
0000
3100
0000
0200
0000
0000
0000
,  // measure 10
0320
0230
2300
3002
0203
2300
3200
0320
,  // measure 11
1030
0000
0010
0000
0100
0000
0010
0000
1000
0000
0001
0010
0200
0000
0000
0000
,  // measure 12
0310
0200
1300
1100
0000
2000
3001
1001
,  // measure 13
0102
0010
1000
0203
0000
0320
0000
1030
,  // measure 14
2010
0000
0000
0000
3001
1000
0000
0100
0000
0100
0000
0010
0000
0001
0000
2000
,  // measure 15
0000
3010
1000
0000
0001
0000
0010
0000
0210
0000
1300
0100
0010
0100
1000
0000
,  // measure 16
0001
1002
0100
0013
0000
0002
0013
0001
,  // measure 17
2001
0010
0100
0001
0000
3020
0100
0130
,  // measure 18
0120
0000
0000
0000
1030
0010
0000
0001
0000
0010
0000
0100
0001
1000
0000
0200
,  // measure 19
0000
1300
0100
0000
0000
0000
0020
0000
0000
0000
0032
0000
0000
1003
0001
0010
,  // measure 20
0100
0100
1000
1000
,  // measure 21
0020
0000
0000
0000
0230
0000
0000
0301
0000
0000
0100
0000
0101
0000
0001
0000
,  // measure 22
1000
0100
1000
1000
0001
0000
0200
0310
0100
0000
0001
0000
0010
0000
0100
0000
,  // measure 23
1000
0010
1000
1000
0100
0000
0020
0130
0010
0000
0001
0000
1000
0010
0100
0001
,  // measure 24
1000
1100
0100
0000
0010
0011
0001
0000
,  // measure 25
1000
0000
1001
0000
0001
0000
0100
0001
1000
0010
0100
0000
0002
0000
0010
0000
,  // measure 26
1003
0001
1000
1000
0100
0000
0020
0130
0010
0000
0001
0000
1000
0000
0010
0000
,  // measure 27
0100
0001
0100
0100
0010
0000
2000
3001
1000
0000
0100
0000
1000
0100
0010
0001
,  // measure 28
0200
0000
2300
0000
3100
1000
0200
0000
0320
0000
2030
0000
3001
0000
0000
0000
,  // measure 29
2000
0000
3200
0000
0301
0100
1000
0100
0020
0000
0001
0000
0130
0000
0000
0000
,  // measure 30
0020
0000
0032
0000
1003
0010
2000
0000
3020
0000
0032
0000
0023
0000
0130
0010
,  // measure 31
0100
0100
0000
0001
0000
1000
0000
1100
0000
0110
0000
0011
0000
0101
0000
0120
,  // measure 32
0000
0000
2030
0000
3001
1000
0002
0000
0203
0000
2300
0000
3100
0000
0000
0000
,  // measure 33
0200
0000
0320
0000
1030
0010
0000
0010
0100
0100
0001
1000
0000
1000
0100
0000
,  // measure 34
0020
0000
0032
0000
1003
0010
2000
0000
3200
0000
0302
0000
2003
0000
3010
0001
,  // measure 35
0010
0000
0000
0000
0110
0000
0100
1000
0100
0000
0000
0000
1000
0100
0010
0001
,  // measure 36
0100
0000
0001
0000
1000
0001
1000
0000
0100
0000
0010
0000
0100
0000
1000
0000
,  // measure 37
0020
0000
0100
0000
1030
0010
0000
0010
0100
0000
0001
0000
1001
0000
1000
0000
,  // measure 38
0100
1000
0010
1000
0100
0000
0010
0100
0010
0000
0001
0000
1000
0000
0010
0000
,  // measure 39
0100
0001
0010
0001
1000
0001
0000
1000
0001
1000
0020
1030
1000
0010
0100
0002
,  // measure 40
1000
0000
1003
0000
0001
0010
0001
0000
0010
0000
0100
0000
2100
0000
3001
0000
,  // measure 41
1000
0000
0010
0000
0100
0010
0000
0010
1000
0001
0010
0100
0000
0010
0001
0000
,  // measure 42
0100
0010
0100
0100
0001
0000
2000
0000
3100
0000
2000
0000
3001
0000
1000
0000
,  // measure 43
0010
0100
0001
0100
0010
0000
1000
0001
1000
0000
0001
0000
0010
0001
1000
0100
,  // measure 44
0020
0030
0000
0000
;

//---------------dance-double - NewbStepper-EDP----------------
#NOTES:
     dance-double:
     NewbStepper:
     Hard:
     12:
     0.513659,0.516870,0.173652,0.469882,0.429022,352,335,17,46,0,0,0.513659,0.516870,0.173652,0.469882,0.429022,352,335,17,46,0,0:
00000000
00000000
00000000
00000000
,
00000000
00000000
00000000
00000000
,
00000000
00000000
00000000
00000000
,
00000000
00000000
00000000
00000000
00000000
00000000
00000000
00000000
00000000
00000000
00001000
00010000
00002000
00000000
00000000
00000000
,
00103000
00000000
01000000
10000000
00010000
00000000
10000000
00000000
01000000
00000000
00100000
00010000
00001000
00000000
00000100
00000000
,
00010000
00000000
00001000
00000100
00000000
00000100
00000001
00000000
00000010
00000000
00000001
00000000
00001001
00000000
00000000
00000000
,
00000020
00000032
00000203
00002300
00023000
00230000
20300000
30020000
,
10030000
00000000
00000000
00000000
11000000
00000000
00000000
01000000
00010000
00001000
00010000
00000000
00011000
00000000
00000000
00000000
,
00000010
00000000
00000100
00000001
00001000
00000000
00000001
00000000
00000100
00000000
00000010
00001000
00010000
00000000
01000000
00000000
,
00001000
00000000
00010000
01000000
00000000
01000000
10000000
00000000
00100000
00000000
10000000
00000000
10010000
00000000
00000000
00000000
,
00200000
20300000
32000000
03020000
00032000
00003020
00000032
00002003
,
00003001
00000000
00000000
00000000
00000101
00000000
00000000
00000100
00001000
00010000
00001000
00000000
00011000
00000000
00000000
00000000
,
00100000
00000000
10000000
00010000
00000000
00010000
01000000
00000000
00100000
00000000
00010000
00001000
00000000
00001000
00000010
00000000
,
00000001
00000100
00001000
00010000
00001000
00000010
00000001
00000100
,
00000101
00000000
00000000
00000000
00000010
00000001
00000000
00000100
00000000
00000100
00000000
00001000
00000000
00010000
00000000
02000000
,
00000000
03000000
10000000
00000000
01000000
00000000
00010000
00000000
00001000
00000000
00000100
00000000
00000001
00000000
00000000
00000000
,
00000010
00000002
00000000
00000203
00000000
00000320
00000000
00002030
,
00000000
00023000
00000000
02030000
00000000
03200000
00000000
10300000
,
10010000
00000000
00000000
00000000
00100000
10000000
00000000
01000000
00000000
01000000
00000000
00010000
00000000
00001000
00000000
00000100
,
00000002
00000000
00000000
00000000
00000003
00000000
00002000
00000000
00000000
00000000
00003001
00000000
00000000
00000010
00000000
00000000
,
00000100
00000100
00001000
00001000
,
00020000
00000000
00000000
00000000
02030000
00000000
00000000
03100000
00000000
00000000
00000000
00000000
10100000
00000000
00000000
00000000
,
10000000
01000000
10000000
00000000
00100000
00000000
00010000
00000000
00001000
00000000
00000010
00000000
00000011
00000000
00000000
00000000
,
00000001
00000100
00000001
00000000
00000010
00000000
00001000
00000000
00010000
00000000
00100000
00000000
10000000
01000000
00100000
00010000
,
20000000
31000000
00020000
00031000
00000020
00000031
00000200
00001300
,
00020000
00130000
20000000
31000000
00020000
01030000
11000000
00000000
,
10000000
00100000
10000000
00000000
01000000
00000000
00010000
00000000
00001000
00000000
00000100
00000000
00000101
00000000
00000000
00000000
,
00000001
00000010
00000001
00000000
00000100
00000000
00001000
00000000
00010000
00000000
01000000
00000000
10000000
00100000
01000000
00010000
,
10000000
00000000
00100000
01000000
00100000
01000000
00002000
00000000
00023000
00000000
00130000
00000000
00110000
00000000
00000000
00000000
,
00010000
00000000
00001000
00000000
00000100
00000001
00000000
00000001
00000010
00000000
00000100
00000000
00001001
00000000
00000000
00000000
,
00000001
00000000
00000100
00000010
00000100
00000010
00020000
00000000
00032000
00000000
00003200
00000000
00001300
00000000
00010000
00000000
,
00100000
10000000
00000000
00010000
00000000
10000000
00000000
00100000
00000000
00010000
00000000
00001000
00000000
00000010
00000001
00001000
,
00000001
00000000
00000010
00000100
00000010
00000100
00020000
00000000
00032000
00000000
00003010
00000000
00001010
00000000
00000000
00000000
,
00001000
00000000
00010000
00000000
01000000
10000000
00000000
10000000
00100000
00000000
01000000
00000000
10010000
00000000
00000000
00000000
,
10000000
00000000
01000000
00100000
01000000
00100000
00002000
00000000
00023000
00000000
02030000
00000000
03010000
00000000
00001000
00000000
,
00000010
00000000
00000001
00000100
00000001
00000100
00000010
00000000
00010000
00000000
00001000
00000000
00011000
00000000
00000000
00000000
,
00100000
00000000
10000000
01000000
10000000
01000000
00100000
00010000
00100000
00000000
00001000
00000000
00010000
00000000
00000100
00000000
,
00000010
00000000
00000001
00000000
00000100
00000010
00000000
00000010
00001000
00000000
00000100
00000000
00000001
00000000
00000100
00000000
,
00001000
00000010
00001000
00000000
00000001
00000000
00000100
00000000
00001000
00000000
00010000
00000000
01000000
00000000
00000000
00000000
,
10000000
00100000
00000000
10000000
00000000
01000000
00000000
00010000
00000000
00001000
00000000
00000100
00000000
00000001
00001000
00000100
,
00000010
00000000
00000001
00000100
00000001
00000100
00000010
00001000
00000010
00000000
00010000
00000000
00001000
00000000
01000000
00000000
,
00100000
00000000
10000000
00000000
01000000
00100000
00000000
00100000
00010000
00000000
01000000
00000000
10000000
00000000
01000000
00000000
,
00010000
00100000
00010000
00000000
10000000
00000000
01000000
00000000
00010000
00000000
00001000
00000000
00000100
00000000
00000001
00000000
,
00001000
00000010
00001000
00000000
00000001
00000000
00000100
00000000
00001000
00000000
00010000
00000000
01000000
10000000
01000000
00100000
,
00010000
00000000
00000000
00000000
;

//---------------dance-double - NewbStepper-DDP----------------
#NOTES:
     dance-double:
     NewbStepper:
     Medium:
     9:
     0.337089,0.359562,0.091933,0.143007,0.071504,231,222,9,14,0,0,0.337089,0.359562,0.091933,0.143007,0.071504,231,222,9,14,0,0:
00000000
00000000
00000000
00000000
,
00000000
00000000
00000000
00000000
,
00000000
00000000
00000000
00000000
,
00000000
00000000
00000000
00000000
,
00000000
01000000
10000000
00000000
00000000
01000000
00010000
00000000
,
00000000
00001000
00000100
00000001
00002000
00000000
00003010
00000000
,
00000100
00000001
00001000
00000100
00010000
00001000
00100000
00010000
,
10000000
00100000
00010000
00001000
,
00000000
00000100
00000001
00000000
00000000
00000100
00001000
00000000
,
00000000
00010000
01000000
10000000
00020000
00000000
00130000
00000000
,
01000000
10000000
00010000
01000000
00001000
00010000
00000010
00001000
,
00000001
00000010
00001000
00010000
,
00100000
10000000
01000000
00000000
00100000
00010000
01000000
00000000
,
00001000
00010000
00000100
00000000
00000010
00000001
00000100
00000000
,
00001000
00000000
00010000
00000000
01000000
00000000
00000000
10000000
00000000
10000000
00000000
00010000
00000000
00100000
00000000
00020000
,
00000000
01000000
10000000
00130000
,
00010000
20000000
00000000
32000000
00000000
03200000
00000000
00320000
,
00000000
00032000
00000000
00003200
00000000
00000320
00000000
00000031
,
00000000
00000000
00000000
00000000
00000100
00000000
00000000
00000001
00000000
00000001
00000000
00001000
00000000
00000010
00000000
00002000
,
00000000
00000000
00000000
00003000
,
00000001
00000001
00001000
00001000
,
00000200
00000000
00000000
00000000
00000010
00000000
00000000
00010300
00000000
00000000
00000000
00000000
00011000
00000000
00000000
00000000
,
00100000
00100000
10000000
01000000
00010000
00000000
00011000
00000000
,
00000010
00000010
00000001
00000100
00001000
00000000
00011000
00000000
,
10000000
01000000
10000000
00000000
00010000
01000000
00010000
00000000
,
00100000
00000000
00001000
00000000
00010000
00000000
00000000
00001000
00000000
00000000
00000000
00000000
00011000
00000000
00000000
00000000
,
00000100
00000100
00000001
00000010
00001000
00000000
00011000
00000000
,
01000000
01000000
10000000
00100000
00010000
00000000
00001000
00000100
,
00000001
00000000
00000010
00000001
00000100
00000010
00001000
00000000
,
00000001
00000100
00001000
00000000
00010000
01000000
10000000
00000000
,
00100000
01000000
00010000
10000000
01000000
10000000
00100000
01000000
,
00020000
01000000
10000000
01000000
,
10030000
00000000
00100000
10000000
01000000
00100000
00010000
00000000
,
10000000
01000000
00010000
00000000
00001000
00000100
00000001
00000000
,
00000010
00000100
00001000
00000001
00000100
00000001
00000010
00000100
,
00002000
00000100
00000001
00000100
,
00003001
00000010
00000001
00000000
00001000
00000010
00001000
00000000
,
00000100
00000000
00010000
00000000
00001000
00000000
00000000
00010000
00000000
00000000
00000000
00000000
00011000
00000000
00000000
00000000
,
00100000
00100000
10000000
01000000
00010000
00000000
00011000
00000000
,
00000100
00000001
00000010
00001000
00010000
01000000
10000000
00100000
,
10000000
00100000
10000000
00000000
00010000
00100000
00010000
00000000
,
01000000
00000000
00001000
00000000
00010000
00000000
00000000
00001000
00000000
00000000
00000000
00000000
00011000
00000000
00000000
00000000
,
00000010
00000010
00000001
00000100
00001000
00000000
00011000
00000000
,
00100000
00100000
10000000
01000000
00010000
00000000
00001000
00000010
,
00000001
00000000
00000000
00000000
;

//---------------dance-double - NewbStepper-BDP----------------
#NOTES:
     dance-double:
     NewbStepper:
     Easy:
     6:
     0.217430,0.224726,0.081719,0.234941,0.020430,149,141,8,23,0,0,0.217430,0.224726,0.081719,0.234941,0.020430,149,141,8,23,0,0:
00000000
00000000
00000000
00000000
,
00000000
00000000
00000000
00000000
,
00000000
00000000
00000000
00000000
,
00000000
00000000
00000000
00000000
,
00000000
00010000
00000000
00001000
,
00000000
00010000
00100000
10000000
,
01000000
00010000
00001000
00000100
,
00002000
00010000
00000000
00013000
,
00000000
00001000
00000000
00010000
,
00000000
00001000
00000010
00000001
,
00000100
00001000
00010000
01000000
,
00020000
00001000
00000000
00031000
,
00000000
00100000
00000000
00100000
00000000
00010000
00000000
10000000
,
00000000
10000000
00000000
10000000
00000000
01000000
00000000
00100000
,
00000000
01000000
00010000
00001000
,
00000200
00000000
00000302
00000000
,
00002003
00000010
00000000
00000010
,
00003200
00010000
00000000
00010000
,
00002300
00000001
00000000
00000001
,
00003020
00000000
00000000
00020000
00000000
00000000
00030030
00000000
,
00001000
00001000
00010000
00010000
,
01000000
00000000
00000000
00000000
10000000
00000000
00000000
00010000
00000000
00000000
00000000
00000000
00020000
00000000
00000000
00000000
,
01000000
10000000
00100000
00032000
,
00000100
00000001
00003010
00001010
,
00010000
00010000
00001000
00001000
,
00000100
00000000
00000000
00000000
00000001
00000000
00000000
00001000
00000000
00000000
00000000
00000000
00002000
00000000
00000000
00000000
,
00000100
00000001
00000010
00023000
,
01000000
10000000
00130000
00110000
,
00002000
01000000
00010000
01003000
,
00200000
10000000
00010000
10300000
,
02000000
00010000
00100000
03010000
,
00011000
00000000
00001100
00000000
,
00020000
00000100
00001000
00030100
,
00000020
00000001
00001000
00000031
,
00000200
00001000
00010000
00001300
,
00011000
00000000
01010000
00000000
,
00001000
00001000
00010000
00010000
,
00100000
00000000
00000000
00000000
10000000
00000000
00000000
00010000
00000000
00000000
00000000
00000000
00020000
00000000
00000000
00000000
,
00100000
10000000
01000000
00032000
,
00000010
00000001
00003100
00001100
,
00010000
00010000
00001000
00001000
,
00000010
00000000
00000000
00000000
00000001
00000000
00000000
00001000
00000000
00000000
00000000
00000000
00002000
00000000
00000000
00000000
,
00000010
00000001
00000100
00023000
,
00100000
10000000
01030000
01010000
,
00001000
00000000
00000000
00000000
;
