#TITLE:Healing-D-Universe;
#ARTIST:LEE-STRAD;
#BANNER:Healing-D-Universe.png;
#BACKGROUND:Healing-D-Universe-bg.png;
#MUSIC:Healing-D-Universe.ogg;
#OFFSET:-9.602;
#SAMPLESTART:25.58;
#SAMPLELENGTH:15;
#BPMS:0=150,32=75,36=150,132=75,164=150,196=200;

//---------------dance-single - RGTM-bSP----------------
#NOTES:
     dance-single:
     RGTM:
     Beginner:
     6:
     :
0000
0000
0000
0000
,
0000
0000
0000
0000
,
2000
0000
0000
3000
0000
0000
0000
0000
,
1000
0000
0000
1000
0000
0000
0000
0000
,
0002
0000
0000
0003
0000
0000
0000
0000
,
0000
0001
0000
0000
1001
0000
1000
0000
,
0200
0000
0000
0000
,
0000
0000
0000
0000
,
0310
0000
0000
0000
,
1001
0000
0000
0001
0000
0000
0000
0000
,
1000
0000
0000
1000
0000
0000
0000
0000
,
0001
0000
0000
0001
0000
0000
0000
0000
,
0010
0010
0100
0100
,
1000
0000
0000
1000
0000
0000
0000
0000
,
0001
0000
0000
0001
0000
0000
0000
0000
,
0000
1000
1000
0000
,
0000
0010
0010
0100
,
0100
0001
1000
0000
,
1000
1000
0001
0000
,
0001
1000
0001
0000
,
0010
0010
0100
0100
,
0000
1000
1000
0000
0001
0000
0000
0000
,
0001
0001
1000
0000
,
0010
0000
0100
0000
0010
0000
1000
1000
,
0000
2000
0000
0000
,
3001
0001
0001
0001
,
0010
0010
0010
0010
,
0100
0100
0100
0100
,
1000
1000
1000
1000
,
0001
0001
1000
1000
,
0010
0010
0100
0100
,
0001
1000
0100
0010
,
0000
0000
0000
0110
,
1001
0000
1000
1000
0000
0010
0010
0000
,
0000
0000
0100
0000
0100
0100
0100
0000
,
0001
0001
0001
0000
0000
0010
0010
0000
,
0100
0100
0100
0000
0100
0100
0000
1000
,
1000
1000
0001
0001
0001
0000
0100
0000
,
0000
0100
0010
0000
0010
0000
1000
0001
,
1000
0000
0001
0010
0010
0100
0100
0000
,
1000
0001
1000
0000
0010
0100
0010
0000
,
1001
1000
1000
1000
,
0010
0010
0010
0010
,
0001
0001
0001
0001
,
0100
0100
0100
0100
,
1000
1000
0010
0010
,
0001
0001
0100
0100
,
1000
1000
0100
0100
,
0020
0000
0030
1001
,
1000
0000
1000
0001
,
0000
0001
1000
0000
,
1000
0010
0000
0010
,
0100
0000
0100
0001
,
0000
0001
1000
0000
,
0000
1001
0000
1000
,
0010
0000
0010
0001
,
0000
0001
0100
0000
,
0100
1000
0000
0001
,
0000
0000
0010
0000
0000
0010
0000
0000
0020
0000
0000
0000
,
0000
0000
0000
0000
0000
0000
0000
0000
0030
0000
0000
0000
;

//---------------dance-single - RGTM-BSP----------------
#NOTES:
     dance-single:
     RGTM:
     Easy:
     9:
     :
0000
0000
0000
0000
,
0000
0000
0000
0000
,
2000
0000
3000
2000
0000
3000
0000
0000
,
1000
0000
0000
1000
0000
0000
2000
0000
0000
0000
3000
0000
0000
0000
0000
0000
,
0002
0000
0003
0002
0000
0003
0000
0000
,
0000
0000
0001
0000
0000
0001
0000
0000
0110
0000
0000
0000
1000
0000
0001
0000
,
0020
0000
0000
0000
,
0000
0000
0000
0000
,
0130
0000
0000
0000
,
1001
0000
1000
0010
1000
0000
0100
0000
,
0010
0000
0001
0010
0001
0000
1000
0000
,
0010
0000
0100
0010
0100
0000
0001
0000
,
2000
3200
0302
0023
,
1030
0000
0001
0010
0001
0000
0100
0000
,
0010
0000
1000
0010
1000
0000
0001
0000
,
0020
0000
0130
0010
0100
0000
1000
0000
,
0001
0000
0100
0010
0100
0001
1000
0000
,
1000
0001
0010
0100
1000
0000
0101
0000
,
1100
0000
0001
0010
0100
0000
1010
0000
,
0011
0000
1000
0100
0010
0000
1001
0000
,
0002
0023
2030
3200
,
0300
0001
1000
0100
0010
0000
0101
0000
,
1000
0010
0001
0010
1000
0000
0011
0000
,
1010
0000
0001
0100
1000
0100
0001
0010
,
0000
0100
0000
0000
0210
0000
0000
0000
0000
0000
0000
0000
0000
0000
0000
0000
,
1300
1000
0001
0001
,
1000
1000
0001
0001
,
0100
0100
0010
0010
,
0100
0100
0010
0010
,
1000
0100
1000
0100
1000
0100
1000
0000
,
0001
0100
0001
0100
0001
0100
0001
0000
,
1000
0010
1000
0001
0010
0001
1000
0020
,
0000
0000
0000
0130
,
0010
0110
1001
2000
0000
0000
3200
0320
,
0032
0000
0103
0010
1000
0001
0010
0110
,
1001
0001
0100
0120
0000
2030
3002
0000
,
0023
0000
0130
0000
0110
0000
0000
0010
0000
0000
1001
0000
0000
0001
0001
0000
,
0011
0000
1100
0000
0001
1000
0002
0000
0000
0003
0000
0100
0200
0000
0000
0000
,
0000
0000
0000
0010
0320
0000
0000
1000
0000
1000
0030
1000
0001
0000
2000
0000
,
3010
0000
0000
0000
1010
0000
0102
0000
2003
0000
3100
0010
0200
0000
0000
0000
,
0300
0000
0110
0000
1001
0000
0000
1000
2000
0000
3020
0000
0000
0000
0030
0000
,
0010
1000
0001
0010
,
0100
1000
0001
0100
,
0010
1000
0100
0010
,
0001
0100
0010
1000
,
0001
0010
0001
0010
0001
0010
0001
0000
,
1000
0010
1000
0010
1000
0010
1000
0000
,
0001
0100
0001
1000
0100
1000
0001
0100
,
0020
0000
0030
1001
,
1000
0010
0110
0001
,
0101
1100
0001
0010
,
0110
1000
1100
0101
,
1000
0100
0110
0001
,
0011
1010
0001
0100
,
0110
1001
0100
1010
,
1001
0100
0011
1001
,
0010
0101
1001
0010
,
1100
0110
0001
0110
,
0000
0000
1000
0000
0000
0001
0000
0000
2002
0000
0000
0000
,
0000
0000
0000
0000
0000
0000
0000
0000
3003
0000
0000
0000
;

//---------------dance-single - RGTM-DSP----------------
#NOTES:
     dance-single:
     RGTM:
     Medium:
     12:
     :
0000
0000
0000
0000
,
0000
0000
0000
0000
,
0202
0000
0303
2200
0000
3300
0000
0000
,
0101
0000
0000
1100
0000
0000
0202
0000
0000
0000
0303
0000
0000
0000
0000
0000
,
2020
0000
3030
0022
0000
0033
0000
0000
,
0000
0000
1010
0000
0000
0011
0000
0000
0110
0000
0000
0000
1000
0000
0001
0000
,
0200
0000
0000
0000
,
0000
0000
0000
0000
,
0310
0000
0000
0000
,
2100
0000
0000
0000
3100
1000
0100
0000
1000
0000
0000
0000
0010
0000
0000
0000
,
0102
0000
0000
0000
0103
0001
0100
0000
0001
0000
0000
0000
1000
0000
0000
0000
,
2010
0000
0000
0000
3010
1000
0010
0000
1000
0000
0000
0000
0100
0000
0000
0000
,
1002
0023
2030
3200
,
0302
0000
0000
0000
0103
0001
0100
0000
0001
0000
0000
0000
0010
0000
0000
0000
,
2100
0000
0000
0000
3100
1000
0100
0000
1000
0000
0000
0000
0001
0000
0000
0000
,
0010
0000
0000
0000
0021
0000
0000
0031
1000
0000
0000
0000
0001
0000
0000
0000
,
0100
0000
0000
0000
1020
0000
0000
1030
0001
0000
0000
0000
0020
0000
0000
0000
,
0130
0110
1001
0001
0100
0010
0001
0010
,
2000
0000
0000
0000
3100
1000
0100
0000
0010
0000
1000
0000
0010
0000
0001
0000
,
0200
0000
0000
0000
0310
0100
0010
0000
1000
0000
0001
0000
0010
0000
0100
0000
,
0020
0000
0032
0000
0203
0000
2300
3100
,
0000
0010
0100
0000
0001
1000
0001
0000
0010
0000
0100
0000
1000
0000
2000
0000
,
3002
0000
0000
0000
0103
0001
0100
0000
0010
0000
0001
0000
0010
0000
1000
0000
,
0100
0000
0020
0000
0031
0000
1000
0001
1000
0000
0010
0000
0100
0000
0101
0000
,
0000
1100
0000
0000
0220
0000
0000
0000
0000
0000
0000
0000
0000
0000
0330
0000
,
1001
1000
0010
0001
,
0100
0001
0010
1000
,
0001
0001
0010
1000
,
0100
1000
0010
0001
,
1001
1000
0010
0100
0010
0100
0001
1000
,
0100
0010
0100
0010
0001
1000
0010
0100
,
0001
0010
1000
0100
1000
0010
0001
0200
,
0000
0000
0000
0310
,
1010
0000
0101
0000
1001
1000
0002
0023
0230
2300
3002
0103
0200
0320
2030
3200
,
0320
0032
2003
3010
0020
0230
0302
0013
0020
0130
0200
1300
1001
0000
0001
0000
,
0101
0000
1010
0000
1001
0001
0020
0230
2300
3002
0203
0310
0020
2030
3002
0023
,
0230
0000
0000
0000
1300
0000
0000
0000
1100
0000
0000
1100
0000
0000
1001
0000
0002
0000
0013
0000
0011
0000
0000
1010
0000
0000
1001
0000
0010
0000
0000
0000
,
0110
0000
0110
0000
1001
0001
0200
0000
0300
0000
0000
0100
0020
2030
3200
0302
,
0203
2300
3020
0130
0200
2300
3200
0301
0002
0013
0020
0130
0110
0000
1000
0000
,
2200
0000
3300
0000
0102
0000
0023
0000
0230
0000
2300
0010
3020
0032
0023
2030
,
3200
0000
0310
0000
0120
0000
0000
0031
0002
0103
0120
0000
2030
0000
3000
0000
,
1001
0000
0000
0001
0000
0000
0010
0000
0000
0100
0000
0000
0001
0000
0000
0100
,
0000
0000
1000
0000
0000
0010
0000
0000
0001
0000
0000
0010
0000
0000
1000
0000
,
0000
0100
0000
0000
0001
0000
0000
0100
0000
0000
1000
0000
0000
0001
0000
0000
,
0100
0000
0000
0010
0000
0000
1000
0000
0000
0100
0000
0000
0010
0000
0000
0010
,
0001
0010
0100
0010
0001
1000
0100
1000
,
0001
0100
0010
0100
0001
1000
0010
1000
,
0001
0010
0001
0000
1000
0100
1000
0000
0001
0100
0001
0000
1000
0010
1000
0000
,
0200
0000
0000
0310
,
0001
0000
0000
0010
0000
0001
0010
0000
0000
0100
0000
0000
,
1000
2100
3001
0102
,
0103
0010
0100
0010
0000
0000
1000
0000
0001
1000
0000
0000
,
1100
0000
0100
0010
0000
0000
0001
0000
0000
1000
0000
0000
,
1020
0000
0000
0130
0000
0100
0002
0000
0000
1003
0000
0000
,
1200
0000
0310
0001
0000
0100
0010
0000
0000
2010
0000
0000
,
3100
0000
0000
0110
0000
0000
0011
0000
1000
0100
0000
0000
,
1010
0000
0001
0100
0000
0000
1100
0000
0000
0101
0000
0000
,
0110
0000
0000
1000
0000
1000
0100
0000
0100
0010
0000
0010
,
0001
0000
0011
0000
0000
1010
0000
0000
0202
0000
0000
0000
,
0000
0000
0000
0000
0000
0000
0000
0000
0303
0000
0000
0000
;

//---------------dance-single - RGTM-ESP----------------
#NOTES:
     dance-single:
     RGTM:
     Hard:
     15:
     :
0000
0000
0000
0000
,
0000
0000
0000
0000
,
0022
0000
0033
2200
0000
3300
0000
0000
,
1010
0000
0000
0101
0000
0000
1010
0000
0000
0000
0000
0000
0000
0000
0000
0000
,
2200
0000
3300
0022
0000
0033
0000
0000
,
0000
0000
0101
0000
0000
1010
0000
0000
0110
0000
0000
1000
0001
1000
0001
1000
,
0200
0000
0000
0000
,
0000
0000
0000
0000
,
0310
0000
0000
0000
,
0201
0000
0000
0000
1300
0100
0002
0000
1003
0001
0000
0010
0000
0100
0000
1000
,
0200
0000
0000
0000
0301
0100
1000
0000
0001
0100
0010
1000
0100
0000
0010
0000
,
0021
0000
0000
0000
1030
0010
0002
0000
0103
0010
1000
0100
0010
0000
0000
0000
,
0200
1000
0000
0000
0320
0001
0000
0000
0032
0100
0000
0000
2003
0100
0000
0000
,
3020
0000
0000
0000
0031
0010
2000
0000
3010
0000
0100
0000
0001
1000
0002
0000
,
0023
0000
0000
0000
1030
0010
0001
0000
0100
0010
1000
0001
0010
0000
0000
0000
,
0001
0000
1000
0000
1020
0000
0000
0031
0010
0100
0001
1000
0100
0000
0000
0000
,
1000
0000
0010
0000
0210
0000
0301
0010
0000
1000
0010
0001
0200
0000
0000
0000
,
0310
0000
0120
0000
0031
0010
2000
0000
3100
0010
0000
0001
0000
1000
0000
0010
,
0200
0000
0000
0000
1300
0100
0002
0000
0013
0100
1000
0001
0100
0000
0000
0000
,
1020
0000
0000
0000
0031
0010
2000
0000
3100
0010
0001
0100
0010
0000
0000
0000
,
0200
0001
0000
0000
0320
1000
0000
0000
2030
0100
0000
0000
3002
0100
0000
0203
,
0000
1300
0100
0001
0010
0100
1000
0000
0010
0000
0100
0000
0001
1000
0200
0000
,
0320
0000
0000
0000
1030
0010
0002
0000
0103
0010
1000
0100
0010
0000
0000
0000
,
0001
0000
0200
0000
0320
0000
0000
0031
0010
1000
0001
0010
0100
0000
1100
0000
,
0000
0011
0000
0000
0102
0000
0000
0000
0000
0000
0000
0000
0000
0000
0000
0000
,
1003
0100
1000
0010
0001
0100
0001
0010
,
1000
0100
0001
0010
0001
0100
1000
0010
,
1000
0100
1000
0010
0001
0100
0001
0010
,
1000
0100
0001
0010
0001
0100
1000
0010
,
0110
0100
0001
0001
0010
0010
0100
0100
,
1000
1000
0001
0001
0100
0100
0010
0010
,
1010
1010
1001
1001
0011
0011
0110
0210
,
0000
0000
0000
0310
,
0011
0000
0000
0000
1010
0000
0000
0000
1100
0000
0100
0000
0010
0001
1000
0001
0100
0001
0100
0001
0100
0001
0100
0001
1000
0001
0100
0001
0100
0001
1000
0001
,
1000
0010
1000
0010
1000
0010
0100
0010
1000
0010
1000
0010
1000
0010
0100
0000
0002
0000
0103
0000
0010
0100
0010
0000
1001
0000
0000
0000
2000
0000
0000
3000
,
1100
0000
0000
0000
0011
0000
0000
0000
1001
0000
1000
0000
0001
0010
0001
0010
0100
0010
0100
0010
0100
0010
0001
0010
0100
0010
0100
1000
0100
1000
0100
1000
,
0200
0000
0000
0000
0320
0000
0000
0030
0011
0000
0000
1010
0000
0000
0110
0000
0002
0000
1003
0000
1100
0000
0000
0101
0000
0000
0110
0000
2000
0000
0000
3000
,
1010
0000
0000
0000
0000
0000
0011
0000
0000
0000
0000
0000
0101
0000
0000
1100
0000
0000
0002
0000
0000
0000
0000
0000
0003
0000
0000
0000
0000
0000
0000
0000
0000
1000
0000
0000
0002
0000
0023
0000
0230
0000
0320
0000
0032
0000
0023
0000
,
0230
0000
2300
0000
3002
0000
2003
0000
3200
0000
0320
0000
0032
0000
0203
0000
0320
0000
2030
0000
3020
0000
0230
0000
0320
0000
2030
0000
3002
0000
2003
0000
0000
3100
0000
0000
0110
0000
0000
0000
0000
0000
0002
0000
0000
0000
0003
0000
,
2002
0000
0000
0000
3003
0000
0000
0000
0120
0000
0230
0000
0320
0000
0000
0000
0230
0000
0000
0000
0310
0000
0110
0000
0001
1000
0100
0010
0100
0010
0100
0010
,
0002
0000
0000
0000
0000
0000
0000
0000
0000
0000
0000
0000
0203
0000
0000
0000
0000
0000
0310
0000
0000
0000
0000
0000
0220
0000
0000
0000
0000
0000
0000
0000
0000
0000
0000
0000
0330
0000
0000
0000
0000
0000
1001
0000
0000
0000
0000
0000
2000
0000
0000
0000
0000
0000
0000
0000
0000
3000
0000
0000
1200
0000
0000
0000
0000
0000
0000
0000
0000
0000
0000
0000
0310
0000
0000
0100
0000
0000
0010
0000
0000
0100
0000
0000
0020
0000
0000
0000
0000
0000
0000
0000
0030
0000
0000
0000
,
0011
0000
0000
0010
0000
0000
1000
0000
0000
0001
0000
0000
1000
0000
0000
0010
,
0000
0000
0001
0000
0000
0100
0000
0000
1000
0000
0000
0001
0000
0000
0010
0000
,
0000
0001
0000
0000
1000
0000
0000
0100
0000
0000
0001
0000
0000
0010
0000
0000
,
0100
0000
0000
1000
0000
0000
0001
0000
0000
1000
0000
0000
0010
0000
0000
0100
,
0001
0001
0010
0010
1000
1000
0100
0100
,
1000
1000
0010
0010
0001
0001
0100
0100
,
0010
1000
0010
1000
0001
0010
0001
0010
0100
1000
0100
1000
0001
0100
0001
0100
,
0020
1000
0000
0130
,
1002
0000
0000
1003
0100
0010
0200
0000
0000
0310
0001
0100
,
0010
1000
0001
0020
0000
0000
0130
0000
1000
0002
0000
0000
,
0103
0010
0100
0010
0000
0000
1000
0000
1000
0002
0000
0000
,
0013
0001
0100
0010
0000
0000
0010
1000
0000
1000
0100
0000
,
0200
0010
0000
1300
0000
1000
0020
0000
0000
0130
0010
0100
,
0010
0000
0000
0000
0000
0000
0000
0000
0000
0000
0000
0000
0000
0000
0000
0000
0000
0000
0000
0000
0000
0000
0000
0000
1002
0000
0000
0000
0000
0000
0000
0000
0000
0000
0000
0000
0000
0000
0000
0000
1000
0000
0000
0003
0000
0000
0000
0000
0001
0000
0000
0000
0000
0000
0000
0000
0010
0000
0000
0000
0000
0000
0000
0000
0100
0000
0000
0000
0000
0000
0000
0000
2000
0000
0000
0000
0000
0000
0000
0000
0000
0000
0000
0000
0000
0000
0000
0000
3001
0000
0000
0000
0000
0000
0000
0000
,
0100
0010
1000
0010
0100
0001
1000
0100
0010
0002
0000
1003
,
0001
0000
0100
0000
0010
0000
2000
0000
0000
0000
0001
3000
1000
0000
0010
0000
0100
0000
0010
0000
1000
0000
0100
0000
,
0010
0000
0010
0001
0100
0010
1000
0010
1000
0100
0010
0001
,
0010
0001
0100
0000
0000
0011
0000
0000
2200
0000
0000
0000
,
0000
0000
0000
0000
0000
0000
0000
0000
3300
0000
0000
0000
;

//---------------dance-single - RGTM-CSP----------------
#NOTES:
     dance-single:
     RGTM:
     Challenge:
     18:
     :
0000
0000
0000
0000
,
0000
0000
0000
0000
,
2200
0000
3300
0202
0000
0303
0000
0000
,
0022
0000
0033
2200
0000
3300
2020
0000
0000
0000
3030
0000
0000
0000
0000
0000
,
0202
0000
0303
2200
0000
3300
0000
0000
,
0000
0000
2020
0000
3030
0202
0000
0303
0110
0000
1000
0100
0010
0001
1000
0010
,
0200
0000
0000
0000
0301
0100
0010
0100
0001
1000
0010
0100
0010
1000
0001
0010
,
0100
0000
0000
1000
0000
0000
0100
0000
0000
0010
0000
0000
0001
0000
0000
1000
0000
0000
0010
0000
0000
0100
0000
0000
0001
0000
0100
0000
0001
0000
0100
0000
0000
0010
0000
0000
1000
0000
0000
0001
0000
0000
1000
0000
0000
0100
0000
0000
,
0020
0000
0000
0000
0031
0000
0000
0010
0000
0000
0100
0000
0000
0010
0000
0000
0001
0000
0000
1000
0000
0000
0010
0000
1000
0000
0000
0000
0001
0000
0000
0000
,
0021
0000
0000
0000
0130
0100
0002
0000
1003
0100
0000
0010
0000
0001
0000
1000
,
0020
0000
0000
0000
0130
0100
2000
0000
3100
0001
0100
1000
0100
0001
0000
0000
,
0200
0000
0000
0000
0310
0010
2000
0000
3100
0001
1000
0010
0001
0000
0000
0000
,
0200
0000
0000
0000
0000
0000
0000
0000
0000
0000
0000
0000
0310
0000
0000
0010
0000
0000
0002
0000
0000
0000
0000
0000
1003
0000
0010
0000
0100
0000
0001
0000
1000
0000
0100
0000
0020
0000
0000
0000
0000
0000
0000
0000
0000
0000
0000
0000
,
0032
0000
0000
0000
0103
0100
2000
0000
3001
0000
0100
0000
1000
0100
0010
0000
,
2000
0000
0000
0000
3100
0100
0001
0000
0010
1000
0010
0001
0010
1000
0000
0000
,
0010
0000
0002
0000
2003
0000
0000
3010
0010
0001
0100
1000
0001
0000
0000
0000
,
0010
0000
1000
0000
0002
0000
0013
0010
1000
0001
0010
0100
0002
0000
0000
0000
,
0103
0000
0110
0000
1001
1000
0002
0000
0103
0010
0000
1000
0100
0010
0000
0001
,
2000
0000
0000
0000
3100
0100
0020
0000
0031
0010
1000
0100
0010
0001
0000
0000
,
0002
0000
0000
0000
0103
0100
0020
0000
1030
0010
0001
0100
0010
0000
0000
0000
,
2000
0000
0000
0000
0000
0000
0000
0000
0000
0000
0000
0000
3100
0000
0000
0100
0000
0000
0002
0000
0000
0000
0000
0000
0013
0000
0100
0000
1000
0000
0001
0000
0100
0000
0010
0000
1000
0000
0000
0000
0000
0000
1020
0000
0000
0000
0000
0000
,
0000
0130
0010
1000
1001
0001
0020
0000
0130
0000
1000
0000
0001
1000
0100
0000
,
2000
0000
0000
0000
3010
0010
0002
0000
0013
1000
0001
0100
0010
0001
0000
0000
,
0100
0000
0000
0000
0000
0000
0010
0000
1000
0000
0100
0000
0020
0000
0000
0000
0000
0000
0000
0000
0000
0130
0000
0000
0100
0000
0000
0001
0000
0000
1000
0000
0000
0100
0000
0000
0010
0000
0000
0000
0000
0000
0022
0000
0000
0000
0000
0000
,
0033
2020
0000
3030
0202
0000
0000
0000
0000
0000
0000
0000
0000
0000
0303
0000
,
0001
0001
0001
0001
,
1000
1000
1000
1000
,
0100
0100
0100
0100
,
0010
0010
0010
0010
,
0001
0010
0100
1000
0001
0010
0100
1000
,
0001
0100
0010
1000
0001
0100
0010
1000
,
1001
0001
0011
0010
0110
0100
1100
2000
,
0000
0000
0000
3010
,
0220
0000
0330
0000
0220
0000
0000
0330
1010
0000
0011
0000
1001
1000
0001
0010
0100
0010
0001
0010
0100
1000
0001
0100
1000
0100
0010
0100
0001
0010
0100
1000
,
0010
0000
0000
0100
0000
0000
0010
0000
0000
1000
0000
0000
0010
0000
0000
0100
0000
0000
0001
0000
0000
0010
0000
0000
1000
0000
0000
0010
0000
0000
0001
0000
0000
0010
0000
0000
0100
0000
0000
1000
0000
0000
0001
0000
0000
1000
0000
0000
0001
0000
0100
0000
0001
0000
0100
0000
0001
0000
0100
0000
0001
0000
0000
1000
0000
0000
0100
0000
0000
0000
0000
0000
0110
0000
0000
0000
0000
0000
0000
0000
0000
0000
0000
0000
0002
0000
0000
0000
0000
0000
0000
0000
0000
0003
0000
0000
,
2002
0000
3003
0000
2002
0000
0000
3003
0101
0000
1100
0000
1001
0001
0100
0010
0100
0001
0010
0100
0010
0001
1000
0010
0001
0010
1000
0100
0010
0100
1000
0001
,
0200
0000
0000
0000
0000
0000
0000
0000
0000
0000
0000
0000
0320
0000
0000
0000
0000
0000
0000
0000
0000
0030
0000
0000
2020
0000
0000
0000
0000
0000
3030
0000
0000
0022
0000
0000
0000
0000
0000
0033
0000
0000
2020
0000
0000
3030
0000
0000
0001
0000
0100
0000
0010
0000
1000
0000
0001
0000
0010
0000
0200
0000
0000
0000
0000
0000
0300
0000
0000
2200
0000
0000
0000
0000
0000
3300
0000
0000
0202
0000
0000
0303
0000
0000
2002
0000
0000
0000
0000
0000
3003
0000
0000
0000
0000
0000
,
0220
0000
0000
0000
0000
0000
0330
0000
0000
0000
0000
0000
0220
0000
0000
0000
0000
0000
0000
0000
0000
0330
0000
0000
1010
0000
0000
0000
0000
0000
0011
0000
0000
0000
0000
0000
2002
0000
0000
0000
0000
0000
0000
0000
0000
3003
0000
0000
0000
0000
0000
0000
0000
0000
0000
0000
0000
0000
0000
0000
0000
0000
0000
0000
0000
0000
1001
0000
0000
0000
0000
0000
0001
0000
0010
0000
0100
0000
0010
0000
0001
0000
0010
0000
0100
0000
1000
0000
0001
0000
1000
0000
0100
0000
0010
0000
,
0100
0000
1000
0000
0100
0000
0010
0000
0001
0000
1000
0000
0001
0000
0010
0000
0100
0000
1000
0000
0100
0000
0010
0000
0001
0000
1000
0000
0010
0000
0100
0000
0001
0000
0100
0000
0010
0000
1000
0000
0001
0000
1000
0000
0010
0000
0100
0000
0010
0000
1000
0000
0010
0000
0100
0000
0001
0000
1000
0000
0001
0000
0000
0000
0000
0000
0010
0000
0000
0000
0000
0000
0110
0000
0000
0000
0000
0000
0000
0000
0000
0000
0000
0000
2000
0000
0000
0000
0000
0000
0000
0000
0000
3000
0000
0000
,
2002
0000
0000
0000
3003
0000
0000
0000
0021
0000
0230
0000
2300
0000
0000
0000
3020
0000
0000
0000
0031
0000
0011
0000
0110
0100
1000
0100
0010
1000
0100
0001
,
0200
0000
0000
0000
0000
0000
0000
0000
0000
0300
0000
0000
2200
0000
0000
0000
0000
0000
0000
0000
0000
3300
0000
0000
2002
0000
0000
0000
0000
0000
0000
0000
0000
0000
0000
0000
3003
0000
0000
0000
0000
0000
1001
0000
0000
0000
0000
0000
0001
0000
0010
0000
0100
0000
1000
0000
0001
0000
0100
0000
0020
0000
0000
0000
0000
0000
0000
0000
0000
0130
0000
0000
0010
0000
0000
0100
0000
0000
0010
0000
0000
0100
0000
0000
0010
0000
0100
0000
0000
0000
0000
0000
0000
0000
0000
0000
,
0001
0001
1000
1000
,
0001
0001
1000
1000
,
0010
0010
0100
0100
,
0010
0000
0000
0000
0010
0000
0000
0000
0100
0000
0000
0000
0100
0000
0000
0100
,
0001
0100
0001
0100
1000
0100
1000
0100
,
0001
0010
0001
0010
1000
0010
1000
0010
,
0001
0100
1000
0100
0001
0010
1000
0010
0001
0100
1000
0100
0001
0010
1000
0010
,
0100
1000
0100
1000
0001
1000
0001
0100
0001
0100
0010
0100
0010
1000
0010
1000
0001
1000
0002
0000
0000
0000
0000
0000
,
0103
0000
0001
0100
0000
0100
0010
0000
0010
1000
0000
0000
,
0100
0000
1000
0100
0000
0100
0010
0000
0010
0001
0000
0000
,
0100
0000
0001
0100
0000
1000
0100
0000
0001
1000
0000
0000
,
0001
0100
0000
0010
1000
0000
1000
0100
0000
0010
0001
0000
,
0010
0000
0001
0010
0000
0010
0100
0000
0100
1000
0000
0000
,
0010
0000
1000
0010
0000
0010
0100
0000
0100
0001
0000
0000
,
0010
0000
0001
0010
0000
1000
0010
0000
0001
1000
0000
0000
,
0100
0000
0000
0010
0000
0000
0100
0000
1000
0100
0000
0001
,
0100
0000
0001
1000
0100
0001
0100
1000
0010
0001
0010
1000
,
0100
0000
0011
0000
0000
1010
0000
0000
0202
0000
0000
0000
,
0000
0000
0000
0000
0000
0000
0000
0000
0303
0000
0000
0000
;

//---------------dance-double - RGTM-BDP----------------
#NOTES:
     dance-double:
     RGTM:
     Easy:
     9:
     :
00000000
00000000
00000000
00000000
,
00000000
00000000
00000000
00000000
,
00000002
00000000
00000003
00000002
00000000
00000003
00000000
00000000
,
00000001
00000000
00000000
00000001
00000000
00000000
00000002
00000000
00000000
00000000
00000003
00000000
00000000
00000000
00000000
00000000
,
00002000
00000000
00003000
00002000
00000000
00003000
00000000
00000000
,
00000000
00000000
00001000
00000000
00000000
00001000
00000000
00000000
00000110
00000000
00000000
00000000
00010000
00000000
00001000
00000000
,
00020000
00000000
00000000
00000000
,
00000000
00000000
00000000
00000000
,
00130000
00000000
00000000
00000000
,
10010000
00000000
10000000
01000000
10000000
00000000
00100000
00000000
,
01000000
00000000
00001000
01000000
00001000
00000000
00010000
00000000
,
00000100
00000000
00000010
00000100
00000010
00000000
00000001
00000000
,
00000200
00000320
00020030
00032000
,
01003000
00000000
00100000
01000000
00100000
00000000
10000000
00000000
,
01000000
00000000
00100000
00001000
00100000
00000000
00001000
00000000
,
00010000
00000000
00000010
00001000
00000010
00000000
00000100
00000000
,
00000001
00000000
00000010
00000100
00010000
00001000
00100000
00000000
,
01100000
00000000
10010000
00000000
10000000
00100000
01000000
00000000
,
01001000
00000000
00011000
00000000
00010000
00000100
00000010
00000000
,
00000011
00000000
00001010
00000000
00001000
00000001
00000100
00000000
,
00000020
00000000
00020030
00000000
00032000
00000000
00103000
00100000
,
00000000
01000000
01000000
00000000
00110000
00000000
10100000
00000000
,
10000000
00000000
00100000
01000000
00001000
00000000
00011000
00000000
,
00010100
00000000
00000100
00000010
00000001
00001000
00000010
00000100
,
00000000
00000100
00000000
00000000
00002001
00000000
00000000
00000000
00000000
00000000
00000000
00000000
00000000
00000000
00000000
00000000
,
00003001
00000001
00000010
00000010
,
00001000
00001000
00010000
00001000
,
00010000
00010000
00100000
00100000
,
10000000
10000000
00010000
10000000
,
11000000
01100000
00110000
00011000
,
00001100
00000110
00000011
00001001
,
00001000
00000001
00001000
00000001
00000100
00000010
00000100
00000020
,
00000000
00000000
00000000
00010030
,
00001000
00010000
00011000
00002000
00000000
00000000
00203000
02300000
,
23000000
00000000
30100000
01000000
00001000
00010000
00000100
00000110
,
00001001
00000001
00000100
00000120
00000000
00020030
00032000
00000000
,
00103000
00000000
01000000
00000000
01100000
00000000
00000000
00100000
00000000
00000000
10010000
00000000
00000000
10000000
10000000
00000000
,
10100000
00000000
01010000
00000000
10000000
01000000
00200000
00000000
00000000
00000000
00000000
01300000
02000000
00000000
00000000
00000000
,
00000000
00000000
00000000
00010000
03020000
00000000
00000000
00001000
00000000
00001000
00000000
00031000
00010000
00000000
00002000
00000000
,
00003100
00000000
00000000
00000000
00000101
00000000
00002010
00000000
00003002
00000000
00000013
00000100
00000020
00000000
00000000
00000000
,
00000030
00000000
00000110
00000000
00001001
00000000
00000000
00000001
00000002
00000000
00000023
00000000
00000000
00000000
00000000
00000000
,
00000130
00000000
00000000
00010000
00000000
00000000
00001000
00000000
,
00000000
01000000
00000000
00000000
00100000
00000000
00000000
10000000
,
00000000
00000000
00010000
00000000
00000000
00100000
00000000
00000000
,
00001000
00000000
00000000
00010000
00000000
00000000
00000100
00000000
,
00000010
00000001
00000010
00000001
00000010
00000001
00000010
00000000
,
00000100
00010000
00000100
00010000
00000100
00010000
00000100
00000000
,
01000000
00001000
01000000
00001000
01000000
00001000
01000000
00001000
,
02000000
00000000
00000000
03100000
,
10010000
00000000
10000000
01000000
,
00100000
00101000
00001000
00010000
,
00010010
00000010
00000101
00001100
,
00000001
00000010
00000110
00000100
,
00010000
00011000
00101000
01100000
,
11000000
10010000
00010000
01010000
,
01100000
10000000
10100000
10010000
,
00010000
00110000
00101000
00100000
,
00011000
00010010
00000110
00000101
,
00000001
00000000
00000010
00000000
00000000
00000100
00000000
00000000
00000220
00000000
00000000
00000000
,
00000000
00000000
00000000
00000000
00000000
00000000
00000000
00000000
00000330
00000000
00000000
00000000
;

//---------------dance-double - RGTM-DDP----------------
#NOTES:
     dance-double:
     RGTM:
     Medium:
     12:
     :
00000000
00000000
00000000
00000000
,
00000000
00000000
00000000
00000000
,
22000000
00000000
33000000
02020000
00000000
03030000
00000000
00000000
,
00110000
00000000
00000000
00011000
00000000
00000000
00002020
00000000
00000000
00000000
00003030
00000000
00000000
00000000
00000000
00000000
,
00000202
00000000
00000303
00002200
00000000
00003300
00000000
00000000
,
00000000
00000000
00001010
00000000
00000000
00011000
00000000
00000000
00110000
00000000
00000000
00000000
01000000
00000000
10000000
00000000
,
00200000
00000000
00000000
00000000
,
00000000
00000000
00000000
00000000
,
01300000
00000000
00000000
00000000
,
21000000
00000000
00000000
00000000
31000000
10000000
01000000
00000000
10000000
00000000
00000000
00000000
00100000
00000000
00000000
00000000
,
01020000
00000000
00000000
00000000
01030000
00010000
01000000
00000000
00001000
00000000
00000000
00000000
00010000
00000000
00000000
00000000
,
00020100
00000000
00000000
00000000
00030100
00010000
00000100
00000000
00000010
00000000
00000000
00000000
00000001
00000000
00000000
00000000
,
00002001
00003002
00000023
00000230
,
00020300
00000000
00000000
00000000
00031000
00010000
00001000
00000000
01000000
00000000
00000000
00000000
00100000
00000000
00000000
00000000
,
10200000
00000000
00000000
00000000
10300000
00100000
10000000
00000000
01000000
00000000
00000000
00000000
00010000
00000000
00000000
00000000
,
00001000
00000000
00000000
00000000
00012000
00000000
00000000
00013000
00001000
00000000
00000000
00000000
00000100
00000000
00000000
00000000
,
00000010
00000000
00000000
00000000
00002001
00000000
00000000
00003001
00001000
00000000
00000000
00000000
00000200
00000000
00000000
00000000
,
00000310
00000110
00001001
00000001
00000100
00000010
00010000
00001000
,
00020000
00000000
00000000
00000000
00031000
00100000
00001000
00000000
00100000
00000000
01000000
00000000
10000000
00000000
00010000
00000000
,
02000000
00000000
00000000
00000000
03100000
10000000
00100000
00000000
10000000
00000000
01000000
00000000
00100000
00000000
00001000
00000000
,
00020000
00000000
00030020
00000000
00000230
00000000
00000302
00001003
,
00000000
00001000
00000100
00000000
00000010
00000100
00000010
00000000
00000001
00000000
00000010
00000000
00000100
00000000
00010000
00000000
,
00002000
00000000
00000000
00000000
00013000
00001000
00010000
00000000
00001000
00000000
01000000
00000000
00100000
00000000
10000000
00000000
,
00010000
00000000
00200000
00000000
01300000
00000000
00100000
01000000
00100000
00000000
00010000
00000000
10000000
00000000
10100000
00000000
,
00000000
00110000
00000000
00000000
00021000
00000000
00000000
00000000
00000000
00000000
00000000
00000000
00000000
00000000
00000000
00000000
,
00031000
00010000
00100000
01000000
,
00001000
00010000
00100000
10000000
,
01000000
00010000
00001000
00100000
,
01000000
00010000
00001000
00000100
,
00000001
00000100
00000001
00000000
00000010
00001000
00000010
00000000
,
00001000
00010000
00001000
00000000
00100000
01000000
00100000
00000000
,
00010000
00100000
01000000
00100000
00001000
00010000
00000100
00000020
,
00000000
00000000
00000000
00000130
,
00001100
00000000
00000101
00000000
00001001
00001000
00000020
00000000
00000230
00000000
00002300
00010000
00023000
00000000
00230000
00000000
,
02300000
00000000
03020000
00100000
00230000
00000000
02300000
00000000
13000000
00010000
00000000
10000000
01100000
00000000
00010000
00000000
,
00110000
00000000
10100000
00000000
10010000
00010000
02000000
00000000
03200000
00000000
00320000
00001000
00032000
00000000
00003200
00000000
,
00000320
00000000
00000000
00000000
00001000
00000000
00000000
00000000
00001030
00000000
00000000
00001010
00000000
00000000
00010010
00000000
00020000
00000000
00031000
00000000
00101000
00000000
00000000
00110000
00000000
00000000
10010000
00000000
01100000
00000000
00000000
00000000
,
11000000
00000000
01010000
00000000
10100000
10000000
00020000
00000000
00030000
00000000
00000000
00100000
00200000
00000000
02300000
00000000
,
23000000
00000000
00000000
00000000
30200000
00000000
00010000
00000000
00320000
00000000
00000000
00000000
00032000
00000000
00000010
00000000
00003020
00000000
00000001
00000000
00000032
00000000
00001000
00000003
00000110
00000000
00000000
00000000
00000200
00000000
00000000
00000300
,
00001001
00000000
00000000
00000000
00000110
00000000
00010000
00000000
00001000
00000000
00100000
01000000
20010000
00000000
30200000
00000000
,
02300000
00000000
00000000
00000000
00010000
00000000
03000000
00000000
01010000
00000000
00000000
00100000
00000000
00000000
00011000
00000000
00020000
00000000
00000000
00030000
00010200
00000000
00000000
00000000
00000320
00000000
00000000
00000000
00000000
00000000
00000000
00000000
,
00000031
00000000
00000000
00000010
00000000
00000000
00000100
00000000
00000000
00000010
00000000
00000000
00001000
00000000
00000000
00010000
,
00000000
00000000
00001000
00000000
00000000
01000000
00000000
00000000
00100000
00000000
00000000
10000000
00000000
00000000
00010000
00000000
,
00000000
10000000
00000000
00000000
01000000
00000000
00000000
00100000
00000000
00000000
00010000
00000000
00000000
00100000
00000000
00000000
,
00001000
00000000
00000000
00010000
00000000
00000000
00000010
00000000
00000000
00000100
00000000
00000000
00000001
00000000
00000000
00001000
,
00000001
00000010
00000100
00000010
00000001
00001000
00000100
00001000
,
00000010
00010000
00000010
00000100
00001000
00010000
00001000
00100000
,
01000000
01000000
10000000
10000000
00010000
00010000
01000000
01000000
,
00200000
00000000
00000000
01300000
,
01010000
00000000
00000000
00010000
00000000
00010000
10000000
00000000
00000000
01000000
00000000
00000000
,
00100000
00210000
00301000
00010020
,
00010030
00000000
00010000
00001000
00000000
00000000
00000100
00000000
00000010
00000100
00000000
00000000
,
00000001
00000000
00001000
00000001
00000000
00000000
00000010
00000000
00000000
00000100
00000000
00000000
,
00010200
00000000
00000000
00010300
00000000
00010000
00002000
00000000
00000000
01003000
00000000
00000000
,
01100000
00000000
00100000
10000000
00000000
10000000
00010000
00000000
00000000
00210000
00000000
00000000
,
01300000
00000000
00000000
11000000
00000000
00000000
10000000
00000000
00010000
01000000
00000000
00000000
,
00010000
00000000
00100000
00001000
00000000
00000000
00011000
00000000
00000000
00010010
00000000
00000000
,
00000110
00000000
00000000
00000001
00000000
00000001
00000010
00000000
00000010
00000100
00000000
00000100
,
00010000
00000000
00011000
00000000
00000000
01001000
00000000
00000000
02200000
00000000
00000000
00000000
,
00000000
00000000
00000000
00000000
00000000
00000000
00000000
00000000
03300000
00000000
00000000
00000000
;

//---------------dance-double - RGTM-EDP----------------
#NOTES:
     dance-double:
     RGTM:
     Hard:
     15:
     :
00000000
00000000
00000000
00000000
,
00000000
00000000
00000000
00000000
,
00220000
00000000
00330000
00002020
00000000
00003030
00000000
00000000
,
00001100
00000000
00000000
00000011
00000000
00000000
00002200
00000000
00000000
00000000
00003300
00000000
00000000
00000000
00000000
00000000
,
00002020
00000000
00003030
00220000
00000000
00330000
00000000
00000000
,
00000000
00000000
01010000
00000000
00000000
10100000
00000000
00000000
01100000
00000000
00000000
10000000
00010000
10000000
00010000
10000000
,
02000000
00000000
00000000
00000000
,
00000000
00000000
00000000
00000000
,
03100000
00000000
00000000
00000000
,
00120000
00000000
00000000
00000000
10030000
01000000
00200000
00000000
00010000
00300000
00000000
00100000
00000000
00001000
00000000
00010000
,
00000020
00000000
00000000
00000000
00001030
00000100
00000010
00000000
00000001
00000010
00000100
00001000
00000001
00000000
00000000
00000000
,
00002010
00000000
00000000
00000000
00003001
00000100
00000020
00000000
00010000
00000030
00000010
00010000
00001000
00000000
00000000
00000000
,
00002000
00100000
00000000
00000000
02003000
00010000
00000000
00000000
03020000
10000000
00000000
00000000
00230000
01000000
00000000
00000000
,
00320000
00000000
00000000
00000000
10030000
00100000
02000000
00000000
00010000
03000000
01000000
00000000
00100000
00010000
00001000
00000000
,
00021000
00000000
00000000
00000000
00030100
00001000
00000020
00000000
00000130
00000010
00001000
00000100
00000010
00000000
00000000
00000000
,
00000001
00000000
00000010
00000000
00000210
00000000
00000000
00001300
00000100
00000010
00000100
00010000
00001000
00000000
00000000
00000000
,
00010000
00000000
00100000
00000000
01100000
00000000
10000000
00010000
00000000
01000000
00100000
01000000
00001000
00000000
00000000
00000000
,
00011000
00000000
00010100
00000000
00000100
00001000
00000200
00000000
00000310
00000001
00000000
00000001
00001000
00000001
00000000
00001000
,
00000020
00000000
00000000
00000000
00000130
00000001
00000200
00000000
00000310
00000100
00000010
00010000
00001000
00000000
00000000
00000000
,
00201000
00000000
00000000
00000000
01300000
10000000
02000000
00000000
03100000
00001000
00010000
00001000
01000000
00000000
00000000
00000000
,
00200000
10000000
00000000
00000000
02300000
00010000
00000000
00000000
03002000
01000000
00000000
00000000
00023000
00001000
00000000
00030100
,
00000000
00010000
00000100
00000010
00000001
00001000
00000002
00000000
00000103
00000000
00000010
00000000
00010000
00001000
00010000
00000000
,
00012000
00000000
00000000
00000000
00103000
00001000
02000000
00000000
03100000
10000000
01000000
00100000
00010000
00000000
00000000
00000000
,
00100000
00000000
00002000
00000000
00013000
00000000
00000000
00010000
00001000
00010000
00000100
00000010
00000100
00000000
00001100
00000000
,
00000000
00000011
00000000
00000000
00000201
00000000
00000000
00000000
00000000
00000000
00000000
00000000
00000000
00000000
00000000
00000000
,
00000310
00000100
00000010
00001000
00000100
00000010
00000100
00010000
,
00001000
00010000
00100000
01000000
00010000
00100000
01000000
10000000
,
00100000
01000000
00100000
10000000
01000000
00100000
01000000
00010000
,
00001000
00000100
00000010
00001000
00000100
00000010
00000001
00001000
,
00001001
00000001
00000100
00000100
00000010
00000010
00010000
00010000
,
00001000
00001000
00100000
00100000
01000000
01000000
10000000
10000000
,
11000000
11000000
01010000
01010000
00011000
00011000
00010010
00010020
,
00000000
00000000
00000000
00000130
,
00000101
00000000
00000000
00000000
00001100
00000000
00000000
00000000
00001001
00000000
00000001
00000000
00000020
00000000
00000230
00000000
00002300
00000000
00003020
00000000
00000230
00000000
00001000
00000000
00002300
00000000
00023000
00000000
00130000
01000000
00100000
01000000
,
00010000
00100000
00010000
00100000
01000000
10000000
01000000
10000000
00010000
01000000
00010000
01000000
00001000
00010000
00002000
00000000
00000000
00000000
00003100
00000000
00000010
00000100
00000010
00000000
00001001
00000000
00000000
00000000
00000020
00000000
00000000
00000030
,
00000110
00000000
00000000
00000000
00011000
00000000
00000000
00000000
01100000
00000000
10010000
00000000
10000000
00010000
10000000
00010000
10000000
00010000
10000000
00010000
10000000
00010000
10000000
00010000
00100000
01000000
00100000
01000000
00100000
01000000
00100000
01000000
,
20000000
00000000
00000000
00000000
30200000
00000000
00000000
00300000
01100000
00000000
00000000
01001000
00000000
00000000
00011000
00000000
00010000
00000000
00000100
00000000
00000110
00000000
00000000
00000011
00000000
00000000
00001001
00000000
00000020
00000000
00000000
00000030
,
00000110
00000000
00000000
00000000
00000000
00000000
00001001
00000000
00000000
00000000
00000000
00000000
00000110
00000000
00000000
00001001
00000000
00000000
00000200
00000000
00000000
00000000
00000000
00000000
00000300
00000000
00000000
00000000
00000000
00000000
00000000
00000000
00000000
00000010
00000000
00000000
00001002
00000000
00000023
00000000
00000230
00000000
00002300
00000000
00003020
00000000
00000230
00000000
,
00002300
00000000
00000000
00000000
00023000
00000000
00000000
00000000
00230000
00000000
00000000
00000000
02300000
00000000
00000000
00000000
03020000
00000000
00000000
00000000
00230000
00000000
00000000
00000000
02300000
00000000
00000000
00000000
23000000
00000000
00000000
00000000
30200000
00000000
00000000
00000000
02300000
00000000
00000000
00000000
03020000
00000000
00000000
00000000
00230000
00000000
00000000
00000000
02300000
00000000
00000000
00000000
03020000
00000000
00000000
00000000
00032000
00000000
00000000
00000000
00003200
00000000
00000000
00000000
00000320
00000000
00000000
00000000
00002030
00000000
00000000
00000000
00003100
00000000
00000000
00000000
00000000
00000000
00000000
00000000
00000000
00000000
00000000
00000000
00000020
00000000
00000000
00000000
00000000
00000000
00000000
00000000
00000000
00000030
00000000
00000000
,
00002002
00000000
00000000
00000000
00003003
00000000
00000000
00000000
00000110
00000000
00000000
00000000
00002000
00000000
00000000
00000000
00003002
00000000
00000000
00000000
00000023
00000000
00000130
00000000
00001000
00000100
00001000
00000100
00001000
00000100
00001000
00000100
,
00020000
00000000
00000000
00000000
00000000
00000000
00000000
00000000
00000000
00000000
00000000
00000000
00000000
00000000
00000000
00000000
00000000
00000000
00000000
00000000
00000000
00000000
00000000
00000000
00032000
00000000
00000000
00000000
00000000
00000000
00000000
00000000
00000000
00000000
00000000
00000000
00000000
00000000
00000000
00000000
00000000
00000000
00003000
00000000
00000000
00000000
00000000
00000000
00022000
00000000
00000000
00000000
00000000
00000000
00000000
00000000
00000000
00000000
00000000
00000000
00000000
00000000
00000000
00000000
00000000
00000000
00000000
00000000
00000000
00000000
00000000
00000000
00033000
00000000
00000000
00000000
00000000
00000000
00000000
00000000
00000000
00000000
00000000
00000000
00110000
00000000
00000000
00000000
00000000
00000000
00000000
00000000
00000000
00000000
00000000
00000000
02000000
00000000
00000000
00000000
00000000
00000000
00000000
00000000
00000000
00000000
00000000
00000000
00000000
00000000
00000000
00000000
00000000
00000000
00000000
03000000
00000000
00000000
00000000
00000000
20010000
00000000
00000000
00000000
00000000
00000000
00000000
00000000
00000000
00000000
00000000
00000000
00000000
00000000
00000000
00000000
00000000
00000000
00000000
00000000
00000000
00000000
00000000
00000000
30200000
00000000
00000000
00000000
00000000
00000000
00000000
00000000
00000000
00000000
00000000
00000000
00000000
00000000
00000000
00000000
00000000
00000000
00000000
00000000
00000000
00000000
00000000
00000000
00000000
00000000
00000000
00000000
00000000
00000000
00000000
00000000
00000000
00000000
00000000
00000000
00000000
00000000
00000000
00000000
00000000
00000000
00000000
00000000
00000000
00000000
00000000
00000000
,
10300000
00000000
00000000
00100000
00000000
00000000
00010000
00000000
00000000
00100000
00000000
00000000
10000000
00000000
00000000
01000000
,
00000000
00000000
00001000
00000000
00000000
01000000
00000000
00000000
00100000
00000000
00000000
00001000
00000000
00000000
00010000
00000000
,
00000000
00001000
00000000
00000000
00000100
00000000
00000000
00000010
00000000
00000000
00001000
00000000
00000000
00000001
00000000
00000000
,
00000010
00000000
00000000
00010000
00000000
00000000
00000010
00000000
00000000
00000001
00000000
00000000
00000100
00000000
00000000
00000100
,
00000001
00000010
00000100
00001000
00000010
00000100
00001000
00010000
,
00001000
01000000
00100000
10000000
00010000
00100000
01000000
10000000
,
00100000
10000000
00100000
10000000
00010000
01000000
00010000
01000000
00001000
00010000
00001000
00010000
00000100
00001000
00000100
00001000
,
00000002
00000000
00000000
00000013
,
00002001
00000000
00000000
00003001
00000100
00000001
00000200
00000000
00000000
00000310
00000100
00000010
,
00010000
00001000
00010000
00002000
00000000
00000000
00103000
00000000
00100000
00020000
00000000
00000000
,
01030000
00100000
01000000
00100000
00000000
00000000
10000000
00000000
10000000
02000000
00000000
00000000
,
03010000
00001000
00010000
00001000
00000000
00000000
00000100
00000010
00000000
00001000
00000100
00000000
,
00000020
00000001
00000000
00000130
00000000
00001000
00000002
00000000
00000000
00000103
00000010
00000100
,
00000010
00000000
00000000
00001001
00000000
00001000
00000100
00000000
00000100
00000010
00000000
00000010
,
00001000
00000000
00001000
00010000
00000000
00010000
00100000
00000000
00100000
01000000
00000000
01000000
,
00010000
00000000
00010000
10000000
00000000
10000000
01000000
00000000
01000000
00100000
00000000
00100000
,
00001000
00000000
00001000
00010000
00000100
00010000
00000100
00000010
00000001
00001000
00000010
00000100
,
00000001
00000000
00000101
00000000
00000000
00010010
00000000
00000000
00202000
00000000
00000000
00000000
,
00000000
00000000
00000000
00000000
00000000
00000000
00000000
00000000
00303000
00000000
00000000
00000000
;

//---------------dance-double - RGTM-CDP----------------
#NOTES:
     dance-double:
     RGTM:
     Challenge:
     17:
     :
00000000
00000000
00000000
00000000
,
00000000
00000000
00000000
00000000
,
00000202
00000000
00000303
00020200
00000000
00030300
00000000
00000000
,
00202000
00000000
00303000
02020000
00000000
03030000
20200000
00000000
00000000
00000000
30300000
00000000
00000000
00000000
00000000
00000000
,
22000000
00000000
33000000
02002000
00000000
03003000
00000000
00000000
,
00000000
00000000
00020020
00000000
00030030
00002200
00000000
00003300
00000021
00000000
00000031
00000010
00000100
00000010
00000100
00001000
,
00000002
00000000
00000000
00000000
00000103
00000001
00000100
00000001
00000100
00000010
00000100
00000010
00010000
00000010
00010000
00000010
,
00010000
00000000
00000000
00001000
00000000
00000000
00010000
00000000
00000000
00001000
00000000
00000000
00100000
00000000
00000000
00001000
00000000
00000000
00100000
00000000
00000000
00001000
00000000
00000000
00100000
00000000
01000000
00000000
00100000
00000000
01000000
00000000
00000000
10000000
00000000
00000000
01000000
00000000
00000000
10000000
00000000
00000000
00010000
00000000
00000000
10000000
00000000
00000000
,
00020000
00000000
00000000
00000000
00130000
00000000
00000000
01000000
00000000
00000000
00100000
00000000
00000000
00001000
00000000
00000000
00010000
00000000
00000000
00001000
00000000
00000000
00000100
00000000
00000010
00000000
00000000
00000000
00000100
00000000
00000000
00000000
,
00001002
00000000
00000000
00000000
00000103
00000100
00001000
00000000
00000010
00000100
00000000
00001000
00000000
00010000
00000000
00100000
,
20000000
00000000
00000000
00000000
31000000
01000000
00010000
00000000
10000000
01000000
00100000
01000000
00010000
00001000
00000000
00000000
,
00000020
00000000
00000000
00000000
00000130
00000100
00000001
00000000
00000010
00000100
00010000
00001000
00000100
00000000
00000000
00000000
,
00002000
00000000
00000000
00000000
00000000
00000000
00000000
00000000
00000000
00000000
00000000
00000000
00013000
00000000
00000000
00010000
00000000
00000000
01000000
00000000
00000000
00000000
00000000
00000000
00100000
00000000
01000000
00000000
00100000
00000000
10000000
00000000
00010000
00000000
10000000
00000000
00200000
00000000
00000000
00000000
00000000
00000000
00000000
00000000
00000000
00000000
00000000
00000000
,
20300000
00000000
00000000
00000000
30100000
00100000
00010000
00000000
00100000
00000000
01000000
00000000
00010000
00001000
00000100
00000000
,
00000002
00000000
00000000
00000000
00000013
00000010
00001000
00000000
00000100
00000010
00001000
00010000
00000010
00000000
00000000
00000000
,
00000100
00000000
00002000
00000000
00023000
00000000
00000000
00130000
00100000
00010000
10000000
00100000
01000000
00000000
00000000
00000000
,
00010000
00000000
10000000
00000000
02000000
00000000
03100000
00100000
10000000
01000000
00100000
00001000
00020000
00000000
00000000
00000000
,
00030100
00000000
00000110
00000000
00001001
00000001
00000100
00000000
00000010
00010000
00000000
00010000
00100000
10000000
00000000
00010000
,
00200000
00000000
00000000
00000000
01300000
01000000
00010000
00000000
10000000
01000000
00100000
00001000
00010000
00000100
00000000
00000000
,
00000020
00000000
00000000
00000000
00000130
00000100
00000002
00000000
00000013
00001000
00010000
00100000
01000000
00000000
00000000
00000000
,
00020000
00000000
00000000
00000000
00000000
00000000
00000000
00000000
00000000
00000000
00000000
00000000
00130000
00000000
00000000
00100000
00000000
00000000
20000000
00000000
00000000
00000000
00000000
00000000
31000000
00000000
00100000
00000000
01000000
00000000
10000000
00000000
00010000
00000000
10000000
00000000
01000000
00000000
00000000
00000000
00000000
00000000
01200000
00000000
00000000
00000000
00000000
00000000
,
00000000
01300000
00100000
00001000
00010000
00001000
00000020
00000000
00000031
00000000
00000100
00000000
00001000
00010000
00000100
00000000
,
00002000
00000000
00000000
00000000
00003010
00000010
00000002
00000000
00000103
00001000
00010000
01000000
00100000
00000000
00000000
00000000
,
01000000
00000000
00000000
00000000
00000000
00000000
00001000
00000000
00010000
00000000
00001000
00000000
00020000
00000000
00000000
00000000
00000000
00000000
00000000
00000000
00000000
00030100
00000000
00000000
00000100
00000000
00000000
00000001
00000000
00000000
00001000
00000000
00000000
00000100
00000000
00000000
00000010
00000000
00000000
00000000
00000000
00000000
00000011
00000000
00000000
00000000
00000000
00000000
,
00000000
00010010
00000000
00000000
02002000
00000000
00000000
00000000
00000000
00000000
00000000
00000000
03003000
00000000
00000000
00000000
,
10000000
10000000
10000000
10000000
,
00010000
00010000
00010000
00010000
,
00100000
00100000
00100000
00100000
,
01000000
00000000
00000000
00000000
01000000
00000000
00000000
00000000
01000000
00000000
00000000
00000000
01000000
00000000
00000000
01000000
,
00010000
00001000
00000100
00000010
00001000
00000100
00000010
00000001
,
00000100
00000010
00010000
00001000
00000100
00000100
00001000
00010000
,
00100000
00100000
10000000
10000000
01000000
01000000
00010000
00020000
,
00000000
00000000
00000000
00031000
,
00022000
00000000
00033000
00000000
00000220
00000000
00000000
00000330
00001001
00000000
00001000
00000000
00000001
00001000
00000010
00001000
00000001
00001000
00000100
00001000
00000001
00001000
00000010
00010000
00001000
00100000
00001000
00010000
00001000
01000000
00001000
00010000
,
01000000
10000000
00010000
10000000
00100000
10000000
00010000
10000000
01000000
00100000
01000000
10000000
01000000
00100000
01000000
10000000
00020000
00000000
00000000
00000000
10030000
00100000
01000000
00000000
01100000
00000000
00000000
00000000
10000000
00000000
00000000
00000000
,
20020000
00000000
30030000
00000000
02200000
00000000
00000000
03300000
10010000
00000000
00010000
00000000
10000000
00100000
10000000
00010000
10000000
01000000
00100000
00001000
00010000
00001000
01000000
00001000
00010000
00000100
00010000
00001000
00010000
00000010
00000100
00000001
,
00002000
00000000
00000000
00000000
00000000
00000000
00000000
00000000
00003200
00000000
00000000
00000000
00000000
00000000
00000300
00000000
00000220
00000000
00000000
00000000
00000330
00000000
00000022
00000000
00000000
00000000
00000033
00000000
00001001
00000000
00000000
00000000
00002000
00000000
00000000
00000000
00003020
00000000
00000000
00000030
00000220
00000000
00000000
00000000
00000330
00000000
00020020
00000000
00000000
00000000
00030030
00000000
00021000
00000000
00000000
00000000
00032000
00000000
00000000
00000000
00203000
00000000
00300000
00000000
,
02200000
00000000
00000000
00000000
00000000
00000000
03300000
00000000
00000000
00000000
00000000
00000000
02200000
00000000
00000000
00000000
00000000
00000000
00000000
00000000
00000000
03300000
00000000
00000000
10010000
00000000
00000000
00000000
00000000
00000000
10000000
00000000
00000000
00000000
00000000
00000000
00200000
00000000
00000000
00000000
00000000
00000000
00000000
00000000
00000000
00000000
00000000
00000000
00300000
00000000
00000000
00000000
00000000
00000000
00000000
00000000
00000000
00000000
00000000
00000000
00000000
00000000
00000000
00000000
00000000
00000000
01100000
00000000
00000000
00000000
00000000
00000000
20000000
00000000
00000000
00000000
32000000
00000000
00000000
00000000
03020000
00000000
00000000
00000000
00032000
00000000
00000000
00000000
00003020
00000000
00000000
00000000
00000032
00000000
00000000
00000000
,
00000203
00000000
00000000
00000000
00002300
00000000
00000000
00000000
00023000
00000000
00000000
00000000
00230000
00000000
00000000
00000000
20300000
00000000
00000000
00000000
32000000
00000000
00000000
00000000
03020000
00000000
00000000
00000000
00032000
00000000
00000000
00000000
00003200
00000000
00000000
00000000
00000302
00000000
00000000
00000000
00000023
00000000
00000000
00000000
00002030
00000000
00000000
00000000
00023000
00000000
00000000
00000000
00230000
00000000
00000000
00000000
20300000
00000000
00000000
00000000
31000000
00000000
00000000
00000000
00000000
00000000
00100000
00000000
00000000
00000000
00000000
00000000
01100000
00000000
00000000
00000000
00000000
00000000
00000000
00000000
00000000
00000000
00000000
00000000
00002000
00000000
00000000
00000000
00000000
00000000
00000000
00000000
00000000
00003000
00000000
00000000
,
00022000
00000000
00000000
00000000
00033000
00000000
00000000
00000000
00002010
00000000
00003002
00000000
00000023
00000000
00000000
00000000
00000230
00000000
00000000
00000000
00020300
00000000
00031000
00000000
00001000
00010000
00001000
00010000
00001000
00010000
00001000
00010000
,
00002000
00000000
00000000
00000000
00000000
00000000
00000000
00000000
00000000
00000000
00000000
00000000
00000000
00000000
00000000
00000000
00000000
00000000
00000000
00000000
00000000
00000000
00000000
00000000
02003000
00000000
00000000
00000000
00000000
00000000
00000000
00000000
00000000
00000000
00000000
00000000
00000000
00000000
00000000
00000000
00000000
00000000
03000000
00000000
00000000
00000000
00000000
00000000
02200000
00000000
00000000
00000000
00000000
00000000
00000000
00000000
00000000
00000000
00000000
00000000
03300000
00000000
00000000
00000000
00000000
00000000
20200000
00000000
00000000
00000000
00000000
00000000
00000000
00000000
00000000
00000000
00000000
00000000
30300000
00000000
00000000
00000000
00000000
00000000
20020000
00000000
00000000
00000000
00000000
00000000
00000000
00000000
30030000
00000000
00000000
00000000
00020000
00000000
00000000
00000000
00000000
00000000
00000000
00000000
00000000
00000000
00000000
00000000
00230000
00000000
00000000
00000000
00000000
00000000
00000000
00000000
00000000
00300000
00000000
00000000
02100000
00000000
00000000
00000000
00000000
00000000
00000000
00000000
00000000
00000000
00000000
00000000
00000000
00000000
00000000
00000000
00000000
00000000
03100000
00000000
00000000
00000000
00000000
00000000
01000000
00000000
00000000
00000000
00000000
00000000
00100000
00000000
00000000
00000000
00000000
00000000
01000000
00000000
00000000
00000000
00000000
00000000
00100000
00000000
00000000
00000000
00000000
00000000
02000000
00000000
00000000
00000000
00000000
00000000
00000000
00000000
00000000
00000000
00000000
00000000
00000000
00000000
00000000
00000000
00000000
00000000
00000000
00000000
00000000
00000000
00000000
00000000
,
13000000
10000000
00100000
00100000
,
00010000
00010000
00001000
00001000
,
00000010
00000010
00000001
00000001
,
00000100
00000000
00000000
00000000
00000100
00000000
00000000
00000000
00001000
00000000
00010000
00000000
00100000
00000000
00000000
00100000
,
10000000
01000000
00010000
01000000
10000000
01000000
00010000
01000000
,
00010000
00001000
00000010
00001000
00010000
00001000
00000010
00001000
,
00000010
00000001
00000100
00000001
00000010
00000001
00000100
00000001
00000100
00001000
00010000
00001000
00000100
00001000
00010000
00001000
,
00010000
00100000
10000000
00100000
00010000
00100000
10000000
00100000
10000000
01000000
00010000
01000000
10000000
00000000
00000000
00000000
,
10000000
00000000
10000000
01000000
00000000
01000000
00010000
00000000
00010000
00001000
00000000
00000000
,
00000010
00000000
00000010
00001000
00000000
00001000
00010000
00000000
00010000
01000000
00000000
00000000
,
10000000
00000000
10000000
00100000
00000000
00100000
00010000
00000000
00010000
00001000
00000000
00000000
,
00000100
00001000
00010000
00100000
,
10000000
00000000
10000000
01000000
00000000
01000000
00010000
00000000
00010000
00001000
00000000
00000000
,
00000010
00000000
00000010
00000001
00000000
00000001
00000100
00000000
00000100
00001000
00000000
00000000
,
00010000
00000000
00010000
00001000
00000000
00001000
01000000
00000000
01000000
00100000
00000000
00000000
,
10000000
00000000
00000000
00010000
00000000
00000000
01000000
00000000
00100000
10000000
00000000
00010000
,
10000000
00000000
00010000
10000000
01000000
00010000
00001000
00100000
01000000
00010000
00001000
00000100
,
00000001
00000000
00000022
00000000
00000033
00020020
00000000
00030030
02002000
00000000
00000000
00000000
,
00000000
00000000
00000000
00000000
00000000
00000000
00000000
00000000
03003000
00000000
00000000
00000000
;
