#VERSION:0.83;
#TITLE:Healing Vision (GRIDLOK Mix);
#ARTIST:DE-SIRE;
#BANNER:Healing Vision (GRIDLOK Mix).png;
#BACKGROUND:Healing Vision (GRIDLOK Mix)-bg.png;
#JACKET:Healing Vision (GRIDLOK Mix)-jacket.png;
#MUSIC:Healing Vision (GRIDLOK Mix).ogg;
#SAMPLESTART:40.351;
#SAMPLELENGTH:15;
#BPMS:0=195.998;

//---------------dance-single - KONAMI-ESP----------------
#NOTEDATA:;
#CHARTNAME:KONAMI-ESP;
#STEPSTYPE:dance-single;
#DESCRIPTION:KONAMI-ESP;
#DIFFICULTY:Hard;
#METER:12;
#RADARVALUES:0.533656,0.685623,0.367134,0.137675,0.045892,407,367,40,15,0,0,0,0,0,0.533656,0.685623,0.367134,0.137675,0.045892,407,367,40,15,0,0,0,0,0;
#CREDIT:KONAMI;
#NOTES:
0000
0000
0000
0000
,
0000
0000
0000
0000
,
0000
0000
0000
0000
,
0000
0000
0000
0000
,
0000
0000
0000
0000
,
0100
1000
0001
0010
0100
0001
0000
1000
,
0100
1000
0001
0100
0010
0001
0000
0000
,
0100
0001
1000
0010
0100
1000
0000
0001
,
0100
0001
1000
0100
0010
1000
0000
0001
,
1000
0000
1000
0000
0001
0100
0010
0000
,
0010
0000
1000
0000
0010
1000
0100
0000
,
0100
1000
0001
0000
0100
0001
1000
0000
,
0001
1000
0100
0000
0001
0010
0001
0000
,
0010
0000
0010
0000
0010
1000
0100
0000
,
0001
0000
0100
0000
1000
0100
0010
0000
,
0001
0100
0010
0000
1000
0001
1000
0000
,
0100
0100
0000
0000
0010
0000
0001
0001
,
1000
2000
0000
0000
,
0000
0000
0000
0000
,
0000
0000
0000
0000
,
3020
0000
0230
0000
,
0302
0000
0000
2003
,
0000
0000
0000
0000
,
0000
0000
0000
3000
,
0010
0001
0010
1000
0100
0001
0100
1000
,
0001
0000
0100
0010
0000
0100
0010
0000
,
1000
0000
0100
0010
0000
0100
0010
0000
,
0001
1000
0001
0100
0000
0010
0100
0000
,
0001
1000
0001
0010
0000
0100
0010
0000
,
0100
0000
1000
0010
0000
1000
0010
0000
,
0100
0000
0001
0010
0000
0001
0010
0000
,
0100
1000
0001
0000
0001
1000
0000
0000
,
0010
0100
0000
0000
0001
0000
0001
0001
,
0010
0000
0010
0000
0010
0001
0100
0000
,
1000
0000
1000
0000
1000
0001
0100
0000
,
0010
0100
0001
0000
0010
0100
1000
0000
,
0001
1000
0100
1000
0001
1000
0010
0000
,
0100
0001
0010
0000
0010
0000
0010
0000
,
0100
1000
0001
0000
0001
0000
0001
0000
,
0100
0010
1000
0000
0100
0010
0001
0000
,
1000
0001
0010
0001
1000
0001
0100
0000
,
0001
0000
0001
0000
0100
0001
0010
0100
,
1000
0000
1000
0000
0100
1000
0010
0100
,
0001
0000
0001
0000
0010
0100
1000
0001
,
0000
0001
1000
0001
0100
0000
0010
1000
,
0100
0000
0100
0000
0010
0001
0100
0010
,
1000
0000
1000
0000
0010
1000
0100
0010
,
0001
0000
0001
0000
0100
0010
1000
0100
,
2002
0000
3003
0000
0110
0100
0000
0000
,
1001
0110
1100
0110
,
0000
0101
0110
0101
,
0000
0110
1010
0110
,
0000
0011
0110
1010
,
0110
1001
1100
0101
,
0000
0011
1010
1001
,
0000
1100
1010
1001
,
0000
0101
0011
1001
,
0100
0000
0000
0010
0000
0001
1000
0000
,
0100
0000
0000
0010
0000
1000
0001
0000
,
0100
0000
0000
1000
0000
0010
0100
0000
,
0001
0000
0000
1000
0000
0100
0010
0000
,
0001
0002
0000
0000
0103
0010
0100
0000
,
0010
0020
0000
0000
1030
0001
1000
0000
,
0001
0002
0000
0000
0013
0100
0010
0000
,
0220
0030
1300
1001
,
0001
0000
0000
0000
1000
0000
0000
0010
0000
0000
0100
0000
0000
0000
0001
0000
,
0101
0000
0010
0000
0100
1000
0000
1000
,
0100
0000
0000
0000
0010
0000
0000
0001
0000
0000
1000
0000
0000
0000
0010
0000
,
0100
0000
0000
0100
0000
0000
0100
0000
0000
0100
0000
0000
0000
0000
1000
0000
,
1000
0000
0000
0000
0001
0000
0000
0100
0000
0000
0010
0000
0000
0000
1000
0000
,
1100
0000
0001
0000
0010
0100
0000
0100
,
0010
0000
0000
0000
0001
0000
0000
1000
0000
0000
0001
0000
0000
0000
1000
0000
,
0220
0000
0000
0000
0000
0000
0330
0100
,
0010
0000
0000
0000
1001
0000
0000
1010
0000
0000
1100
0000
0000
0000
0010
0000
,
1000
0100
0010
0001
0100
0001
0010
0100
,
1000
0000
0101
0000
0010
1000
0001
0010
,
0100
0000
0000
0100
0000
0000
0100
0000
0000
0100
0000
0000
0000
0000
0001
0000
,
0001
0000
0000
0000
1001
0000
0000
0101
0000
0000
0011
0000
0000
0000
0100
0000
,
1000
0010
0100
0001
0010
0001
0100
0010
,
1000
0000
0001
0010
0100
1000
0001
0010
,
0100
0010
0001
0100
0010
1000
0001
0100
,
0020
0000
0000
0000
,
0000
0000
0000
0000
,
0030
0000
0000
0000
;

//---------------dance-single - KONAMI-DSP----------------
#NOTEDATA:;
#CHARTNAME:KONAMI-DSP;
#STEPSTYPE:dance-single;
#DESCRIPTION:KONAMI-DSP;
#DIFFICULTY:Medium;
#METER:8;
#RADARVALUES:0.331732,0.416468,0.220280,0.256994,0,253,229,24,28,0,0,0,0,0,0.331732,0.416468,0.220280,0.256994,0,253,229,24,28,0,0,0,0,0;
#CREDIT:KONAMI;
#NOTES:
0000
0000
0000
0000
,
0000
0000
0000
0000
,
0000
0000
0000
0000
,
0000
0000
0000
0000
,
0000
0000
0000
0000
,
0000
1000
0000
0100
0000
1000
0000
0000
,
0000
0001
0000
0100
0000
0001
0000
0000
,
0000
1000
0000
0000
0100
0100
0000
0000
,
0010
0010
0000
0000
0001
0001
0000
0000
,
1000
0000
0000
0000
0010
0000
0000
1000
,
0010
0000
0000
0000
0100
0000
0000
0010
,
0100
0000
0000
0000
0001
0000
0000
0100
,
0001
0000
0010
0000
0100
0000
0010
0100
,
1000
0000
0000
0100
1000
0000
0000
0000
,
0001
0000
0000
0100
0001
0000
0000
0000
,
1000
0000
0000
0010
1000
0000
0000
0000
,
0001
0000
0000
0010
0001
0000
1000
0000
,
1001
0000
0002
0000
0000
0013
0000
0000
,
0200
0000
0000
0000
0000
1300
0000
0000
,
0200
0000
0000
0000
0000
0310
0000
0000
,
0002
0000
0203
0000
,
0320
0000
0000
0000
0000
1030
0000
0000
,
0020
0000
0000
0000
0000
0130
0000
0000
,
0002
0000
0000
0000
0000
1003
0000
0000
,
0200
0000
0000
0000
0310
0100
0010
0000
,
0110
0000
0000
0001
0000
0001
0000
0000
,
1000
0000
0000
0010
0000
0010
0000
0000
,
0100
0000
0000
0001
0000
0001
0000
0000
,
1000
0000
0000
0100
0000
0100
0000
0000
,
0010
0000
0000
0001
0000
0001
0000
0000
,
1000
0000
0000
0010
0000
0010
0000
0000
,
0100
0000
0000
0001
0000
1000
0000
0000
,
0100
0000
0110
0000
,
1001
0000
0001
0001
,
0020
0000
0000
0030
1000
0000
1000
0000
,
0200
0000
0000
0300
0001
0100
1000
0000
,
0001
0000
0000
0000
1000
0100
0001
0000
,
1000
0000
0100
0100
,
0020
0000
0000
0030
0001
0000
0001
0000
,
2000
0000
0000
3000
0010
0100
0001
0000
,
1000
0000
0000
0000
0010
0100
1000
0000
,
0001
0000
0001
0000
0000
0010
0000
0000
,
1000
0000
1000
0000
0000
0100
0000
0000
,
0001
0000
0001
0000
0000
0010
0000
0000
,
0100
0000
0100
0000
0000
1000
0000
0000
,
0010
0000
0010
0000
0000
0100
0001
0000
,
0010
0000
0010
0000
0000
0100
1000
0000
,
0001
0001
1000
1000
,
0010
0100
0010
0100
,
0110
0000
1001
0000
,
1100
0000
0101
0000
,
0020
0000
0000
0030
2000
0000
0000
3000
,
0002
0000
0000
0003
0020
0000
0000
0030
,
0110
0000
1001
0000
,
0011
0000
1010
0000
,
0200
0000
0000
0300
0002
0000
0000
0003
,
2000
0000
0000
3000
0200
0000
0000
0300
,
1000
0000
0000
0100
0000
0000
1000
0000
,
0001
0000
0000
0100
0000
0000
0001
0000
,
1000
0000
0000
0100
0000
0000
1000
0000
,
0010
0000
0000
0100
0000
0000
0001
0000
,
0010
0100
0000
0000
1100
0000
0000
0000
,
0010
0100
0000
0000
0101
0000
0000
0000
,
0001
0010
0000
0000
1100
0000
0010
0000
,
1001
0000
0110
0000
,
1000
0100
1000
0100
,
0010
0000
0001
0000
0001
0001
0000
0000
,
1000
0010
0100
0001
,
0200
0000
0000
0000
1000
0000
0000
0300
,
0001
0100
0001
0100
,
0010
0000
1000
0000
1000
1000
0000
0000
,
0001
0010
0100
1000
,
2002
0000
0000
3003
,
1000
0000
0000
0100
0000
0000
1000
0000
,
0010
0100
0010
0100
,
0001
0000
0000
0010
0000
0000
0100
0000
,
2002
0000
0000
3003
,
1000
0000
0000
0010
0000
0000
1000
0000
,
0010
0100
0010
0100
,
0001
0000
0000
0110
0000
0000
1100
0000
,
0000
1001
0000
0000
0101
0000
0000
0000
,
0220
0000
0000
0000
,
0000
0000
0330
0000
;

//---------------dance-single - KONAMI-BSP----------------
#NOTEDATA:;
#CHARTNAME:KONAMI-BSP;
#STEPSTYPE:dance-single;
#DESCRIPTION:KONAMI-BSP;
#DIFFICULTY:Easy;
#METER:5;
#RADARVALUES:0.190123,0.297379,0.027535,0.100962,0,145,142,3,11,0,0,0,0,0,0.190123,0.297379,0.027535,0.100962,0,145,142,3,11,0,0,0,0,0;
#CREDIT:KONAMI;
#NOTES:
0000
0000
0000
0000
,
0000
0000
0000
0000
,
0000
0000
0000
0000
,
0000
0000
0000
0000
,
0000
0000
0000
0000
,
0001
0000
0000
0000
,
1000
0000
0000
0000
,
0010
0000
0000
0000
,
0100
0000
0000
0000
,
0002
0000
0003
0000
,
0020
0000
0030
0000
,
0200
0000
0300
0000
,
0000
0000
0000
0000
,
2000
0000
3000
0000
,
0020
0000
0030
0000
,
0200
0000
0300
0000
,
0100
0000
0100
0000
,
0010
0020
0000
0000
,
0030
0000
0000
0000
,
0000
0000
0000
0000
,
0001
0000
1000
0000
,
0100
0000
0000
0020
,
0000
0000
0030
0000
,
0001
0000
1000
0000
,
0001
0001
1000
1000
,
1001
0000
0000
0000
,
0010
0000
0000
0000
,
0100
0000
0100
0000
,
0001
0000
0001
0000
,
0010
0000
0000
0000
,
0100
0000
0000
0000
,
1000
0000
1000
0000
,
0010
0000
0010
0000
,
0100
0000
0001
0000
,
0010
0000
0001
0000
,
1000
0000
0100
0000
,
1000
1000
1000
0000
,
0100
0000
0010
0000
,
0001
0000
1000
0000
,
0001
0000
0100
0000
,
0001
0001
0001
0000
,
1000
0000
0001
0001
,
0000
0000
1000
1000
,
0000
0000
0001
0001
,
0100
0000
0010
0000
,
1000
0000
0001
0001
,
0000
0000
1000
1000
,
0000
0000
0001
0001
,
0010
0000
0100
0000
,
0000
1000
0100
0000
,
0000
0001
0100
0000
,
0000
0010
1000
0000
,
0001
0000
0010
0000
,
0000
1000
0010
0000
,
0000
0001
0010
0000
,
0000
0100
1000
0000
,
0001
0000
1000
0000
,
0001
0000
1000
1000
,
1000
0000
0100
0100
,
0100
0000
0010
0000
,
0001
0000
0100
0000
,
0010
0000
1000
1000
,
1000
0000
0001
0001
,
0001
0000
0010
0000
,
0110
0000
0000
0000
,
1000
0000
0010
0000
,
1000
0000
0100
0000
,
0010
0001
0010
0000
,
0200
0000
0000
0300
,
1000
0000
0100
0000
,
1000
0000
0010
0000
,
0100
0001
0100
0000
,
0020
0000
0000
0030
,
1000
0000
0001
0000
,
0010
0000
0100
0000
,
1000
0100
0010
0000
,
0002
0000
0000
0003
,
1000
0000
0001
0000
,
0100
0010
0100
0000
,
0010
0000
1000
0000
,
0001
1000
0001
0000
,
1001
0000
0000
0000
;

//---------------dance-single - KONAMI-bSP----------------
#NOTEDATA:;
#CHARTNAME:KONAMI-bSP;
#STEPSTYPE:dance-single;
#DESCRIPTION:KONAMI-bSP;
#DIFFICULTY:Beginner;
#METER:3;
#RADARVALUES:0.115385,0.223034,0.027535,0,0,88,85,3,0,0,0,0,0,0,0.115385,0.223034,0.027535,0,0,88,85,3,0,0,0,0,0,0;
#CREDIT:KONAMI;
#NOTES:
0000
0000
0000
0000
,
0000
0000
0000
0000
,
0000
0000
0000
0000
,
0000
0000
0000
0000
,
0000
0000
0000
0000
,
1000
0000
0000
0000
,
0100
0000
0000
0000
,
0010
0000
0000
0000
,
0001
0000
0000
0000
,
1000
0000
0000
0000
,
0001
0000
0000
0000
,
0100
0000
0000
0000
,
0000
0000
0000
0000
,
0001
0000
0000
0000
,
1000
0000
0000
0000
,
0100
0000
0000
0000
,
0000
0000
0000
0000
,
1001
0000
0000
0000
,
0000
0000
0000
0000
,
0000
0000
0000
0000
,
0010
0000
0100
0000
,
0001
0000
0000
1000
,
0000
0000
0000
0000
,
0000
0000
0000
0000
,
0000
0000
0000
0000
,
0001
0000
0001
0000
,
0001
0000
0000
0000
,
1000
0000
1000
0000
,
1000
0000
0000
0000
,
0100
0000
0000
0000
,
0010
0000
0000
0000
,
0001
0000
1000
0000
,
0001
0000
1000
0000
,
1001
0000
0000
0000
,
0100
0000
0000
0000
,
0010
0000
0000
0000
,
0001
0000
1000
0000
,
0001
0000
0000
0000
,
0100
0000
0000
0000
,
0010
0000
0000
0000
,
1000
0000
0001
0000
,
1000
0000
0000
0000
,
0100
0000
0000
0000
,
1000
0000
0000
0000
,
0010
0000
0100
0000
,
0001
0000
0000
0000
,
0010
0000
0000
0000
,
0001
0000
0000
0000
,
1000
0000
0001
0000
,
1000
0000
0000
0000
,
1000
0000
0000
0000
,
0001
0000
0000
0000
,
0001
0000
0000
0000
,
0100
0000
0000
0000
,
0010
0000
0000
0000
,
1000
0000
0000
0000
,
0001
0000
0000
0000
,
0000
0000
1000
0000
,
0000
0000
1000
0000
,
0000
0000
0100
0000
,
0000
0000
0100
0000
,
0000
0000
0010
0000
,
0000
0000
0010
0000
,
0000
0000
0001
0000
,
1000
0000
0001
0000
,
1000
0000
0000
0000
,
0010
0000
0000
0000
,
0100
0000
0000
0000
,
0010
0000
1000
0000
,
0001
0000
0000
0000
,
0010
0000
0000
0000
,
0100
0000
0000
0000
,
0010
0000
0000
0000
,
0001
0000
0000
0000
,
1000
0000
0000
0000
,
0010
0000
0000
0000
,
0100
0000
0010
0000
,
1000
0000
0000
0000
,
0001
0000
0000
0000
,
1000
0000
0001
0000
,
1000
0000
0001
0000
,
1001
0000
0000
0000
;

//---------------dance-double - KONAMI-BDP----------------
#NOTEDATA:;
#CHARTNAME:KONAMI-BDP;
#STEPSTYPE:dance-double;
#DESCRIPTION:KONAMI-BDP;
#DIFFICULTY:Easy;
#METER:5;
#RADARVALUES:0.182256,0.297379,0.027535,0.100962,0,139,136,3,11,0,0,0,0,0,0.182256,0.297379,0.027535,0.100962,0,139,136,3,11,0,0,0,0,0;
#CREDIT:KONAMI;
#NOTES:
// measure 0
00000000
00000000
00000000
00000000
,  // measure 1
00000000
00000000
00000000
00000000
,  // measure 2
00000000
00000000
00000000
00000000
,  // measure 3
00000000
00000000
00000000
00000000
,  // measure 4
00000000
00000000
00000000
00000000
,  // measure 5
10000000
00000000
00000000
00000000
,  // measure 6
01000000
00000000
00000000
00000000
,  // measure 7
00010000
00000000
00000000
00000000
,  // measure 8
00001000
00000000
00000000
00000000
,  // measure 9
00020000
00000000
00030000
00000000
,  // measure 10
00002000
00000000
00003000
00000000
,  // measure 11
00000200
00000000
00000000
00000000
,  // measure 12
00000000
00000000
00000300
00000000
,  // measure 13
00002000
00000000
00003000
00000000
,  // measure 14
00020000
00000000
00030000
00000000
,  // measure 15
02000000
00000000
00000000
00000000
,  // measure 16
00000000
00000000
03000000
00000000
,  // measure 17
10000000
20000000
00000000
00000000
,  // measure 18
00000000
00000000
00000000
00000000
,  // measure 19
30000000
00000000
00000000
00000000
,  // measure 20
00010000
00000000
00001000
00000000
,  // measure 21
00000100
00000000
00000000
00000002
,  // measure 22
00000000
00000000
00000003
00000000
,  // measure 23
00001000
00000000
00000001
00000000
,  // measure 24
00001000
00001000
00000001
00000001
,  // measure 25
00001001
00000000
00000000
00000000
,  // measure 26
00000100
00000000
00000000
00000000
,  // measure 27
00001000
00000000
00010000
00000000
,  // measure 28
00001000
00000000
00100000
00000000
,  // measure 29
00010000
00000000
00000000
00000000
,  // measure 30
01000000
00000000
00000000
00000000
,  // measure 31
00100000
00000000
00100000
00000000
,  // measure 32
10000000
00000000
10000000
00000000
,  // measure 33
00010000
00000000
00100000
00000000
,  // measure 34
00100000
00000000
00001000
00000000
,  // measure 35
00001000
00000000
00010000
00000000
,  // measure 36
00001000
00010000
00001000
00000000
,  // measure 37
00010000
00000000
00000100
00000000
,  // measure 38
00001000
00000000
00000001
00000000
,  // measure 39
00000100
00000000
00000010
00000000
,  // measure 40
00000100
00000010
00000100
00000000
,  // measure 41
00000010
00000000
00001000
00001000
,  // measure 42
00000000
00000000
00000100
00000100
,  // measure 43
00000000
00000000
00010000
00010000
,  // measure 44
00001000
00000000
00010000
00000000
,  // measure 45
00001000
00000000
00100000
00100000
,  // measure 46
00000000
00000000
00010000
00010000
,  // measure 47
00000000
00000000
10000000
10000000
,  // measure 48
00100000
00000000
01000000
00000000
,  // measure 49
00000000
00010000
00100000
00000000
,  // measure 50
00000000
01000000
10000000
00000000
,  // measure 51
00000000
00010000
01000000
00000000
,  // measure 52
00010000
00000000
00100000
00000000
,  // measure 53
00000000
00001000
00010000
00000000
,  // measure 54
00000000
00000100
00001000
00000000
,  // measure 55
00000000
00000010
00000100
00000000
,  // measure 56
00000001
00000000
00001000
00000000
,  // measure 57
00000001
00000000
00001000
00000000
,  // measure 58
00001000
00000000
00000100
00000000
,  // measure 59
00000100
00000000
00010000
00000000
,  // measure 60
00001000
00000000
01000000
00000000
,  // measure 61
00010000
00000000
10000000
00000000
,  // measure 62
10000000
00000000
00010000
00000000
,  // measure 63
00010000
00000000
10000000
00000000
,  // measure 64
10010000
00000000
00000000
00000000
,  // measure 65
10000000
00000000
00100000
00000000
,  // measure 66
01000000
00000000
00010000
00000000
,  // measure 67
00100000
00001000
00100000
00000000
,  // measure 68
00002000
00000000
00000000
00003000
,  // measure 69
00010000
00000000
00000100
00000000
,  // measure 70
00001000
00000000
00000010
00000000
,  // measure 71
00000100
00000001
00000100
00000000
,  // measure 72
00000002
00000000
00000000
00000003
,  // measure 73
00000010
00000000
00000100
00000000
,  // measure 74
00001000
00000000
00000001
00000000
,  // measure 75
00000100
00001000
00000100
00000000
,  // measure 76
00002000
00000000
00000000
00003000
,  // measure 77
00010000
00000000
01000000
00000000
,  // measure 78
10000000
01000000
10000000
00000000
,  // measure 79
00100000
00000000
01000000
00000000
,  // measure 80
00010000
01000000
00010000
00000000
,  // measure 81
10010000
00000000
00000000
00000000
;

//---------------dance-double - KONAMI-DDP----------------
#NOTEDATA:;
#CHARTNAME:KONAMI-DDP;
#STEPSTYPE:dance-double;
#DESCRIPTION:KONAMI-DDP;
#DIFFICULTY:Medium;
#METER:9;
#RADARVALUES:0.333043,0.416468,0.229459,0.284529,0,254,229,25,31,0,0,0,0,0,0.333043,0.416468,0.229459,0.284529,0,254,229,25,31,0,0,0,0,0;
#CREDIT:KONAMI;
#NOTES:
// measure 0
00000000
00000000
00000000
00000000
,  // measure 1
00000000
00000000
00000000
00000000
,  // measure 2
00000000
00000000
00000000
00000000
,  // measure 3
00000000
00000000
00000000
00000000
,  // measure 4
00000000
00000000
00000000
00000000
,  // measure 5
00000000
00000001
00000000
00001000
00000000
00000001
00000000
00000000
,  // measure 6
00000000
00001000
00000000
00000001
00000000
00001000
00000000
00000000
,  // measure 7
00000000
00000100
00000000
00000000
00010000
00010000
00000000
00000000
,  // measure 8
00001000
00001000
00000000
00000000
01000000
01000000
00000000
00000000
,  // measure 9
00010000
00000000
00000000
00000000
10000000
00000000
00000000
00010000
,  // measure 10
10000000
00000000
00000000
00000000
01000000
00000000
00000000
00100000
,  // measure 11
01000000
00000000
00000000
00000000
00010000
00000000
00000000
10000000
,  // measure 12
01000000
00000000
00010000
00000000
01000000
00000000
00010000
00001000
,  // measure 13
00010000
00000000
00000000
00001000
00010000
00000000
00000000
00000000
,  // measure 14
00000100
00000000
00000000
00001000
00000100
00000000
00000000
00000000
,  // measure 15
00000010
00000000
00000000
00000001
00000010
00000000
00000000
00000000
,  // measure 16
00000001
00000000
00000000
00001000
00000010
00000000
00000100
00000000
,  // measure 17
00000110
00000000
00000020
00000000
00000000
00000031
00000000
00000000
,  // measure 18
00000200
00000000
00000000
00000000
00000000
00001300
00000000
00000000
,  // measure 19
00020000
00000000
00000000
00000000
00000000
00130000
00000000
00000000
,  // measure 20
20000000
00000000
32000000
00000000
,  // measure 21
03020000
00000000
00000000
00000000
00000000
00031000
00000000
00000000
,  // measure 22
00000200
00000000
00000000
00000000
00000000
00000301
00000000
00000000
,  // measure 23
00000020
00000000
00000000
00000000
00000000
00001030
00000000
00000000
,  // measure 24
00020000
00000000
00000000
00000000
00031000
00010000
00001000
00000000
,  // measure 25
00011000
00000000
00000000
00001000
00000000
00001000
00000000
00000000
,  // measure 26
00010000
00000000
00000000
01000000
00000000
01000000
00000000
00000000
,  // measure 27
00010000
00000000
00000000
00001000
00000000
00001000
00000000
00000000
,  // measure 28
00000100
00000000
00000000
00001000
00000000
00001000
00000000
00000000
,  // measure 29
00010000
00000000
00000000
00100000
00000000
00100000
00000000
00000000
,  // measure 30
10000000
00000000
00000000
00010000
00000000
00010000
00000000
00000000
,  // measure 31
00100000
00000000
00000000
01000000
00000000
01000000
00000000
00000000
,  // measure 32
11000000
00000000
01010000
00000000
,  // measure 33
00011000
00000000
00001000
00001000
,  // measure 34
00000200
00000000
00000000
00000300
00000001
00000000
00000001
00000000
,  // measure 35
00000200
00000000
00000000
00000300
00001000
00000100
00000001
00000000
,  // measure 36
00002000
00000000
00000000
00003000
00000001
00000010
00001000
00000000
,  // measure 37
00020000
00000000
00000000
00030000
00010000
00000000
00010000
00000000
,  // measure 38
00200000
00000000
00000000
00300000
10000000
00000000
10000000
00000000
,  // measure 39
00200000
00000000
00000000
00300000
00010000
00100000
10000000
00000000
,  // measure 40
00020000
00000000
00000000
00030000
10000000
01000000
00010000
00000000
,  // measure 41
00001000
00000000
00001000
00000000
00000000
00000010
00000000
00000000
,  // measure 42
00001000
00000000
00001000
00000000
00000000
00010000
00000000
00000000
,  // measure 43
01000000
00000000
01000000
00000000
00000000
00010000
00000000
00000000
,  // measure 44
00001000
00000000
00001000
00000000
00000000
00000100
00000000
00000000
,  // measure 45
00000001
00000000
00000001
00000000
00000000
00000010
00000100
00000000
,  // measure 46
00001000
00000000
00001000
00000000
00000000
00000100
00010000
00000000
,  // measure 47
00001000
00001000
00010000
00010000
,  // measure 48
01000000
00100000
00010000
10000000
,  // measure 49
10010000
00000000
01010000
00000000
,  // measure 50
01100000
00000000
00110000
00000000
,  // measure 51
00002000
00000000
00000000
00003000
00000200
00000000
00000000
00000300
,  // measure 52
00000002
00000000
00000000
00000003
00002000
00000000
00000000
00003000
,  // measure 53
00001001
00000000
00001010
00000000
,  // measure 54
00000110
00000000
00001100
00000000
,  // measure 55
00020000
00000000
00000000
00030000
02000000
00000000
00000000
03000000
,  // measure 56
20000000
00000000
00000000
30000000
00020000
00000000
00000000
00030000
,  // measure 57
01000000
00000000
00000000
10000000
00000000
00000000
01000000
00000000
,  // measure 58
00010000
00000000
00000000
00100000
00000000
00000000
00001000
00000000
,  // measure 59
00010000
00000000
00000000
00000100
00000000
00000000
00001000
00000000
,  // measure 60
00000010
00000000
00000000
00000001
00000000
00000000
00000010
00000000
,  // measure 61
00001000
00000100
00000000
00000000
00001100
00000000
00000000
00000000
,  // measure 62
00010000
00001000
00000000
00000000
00011000
00000000
00000000
00000000
,  // measure 63
01000000
00010000
00000000
00000000
01010000
00000000
00010000
00000000
,  // measure 64
10010000
00000000
11000000
00000000
,  // measure 65
10000000
00010000
10000000
01000000
,  // measure 66
00010000
00000000
00001000
00000000
00010000
00010000
00000000
00000000
,  // measure 67
00001000
00000100
00000010
00000100
,  // measure 68
00000002
00000000
00000000
00000000
00000010
00000000
00000000
00000003
,  // measure 69
00000001
00001000
00000001
00000010
,  // measure 70
00001000
00000000
00010000
00000000
00001000
00001000
00000000
00000000
,  // measure 71
00010000
00100000
10000000
00010000
,  // measure 72
20020000
00000000
00000000
30030000
,  // measure 73
01000000
00000000
00000000
00100000
00000000
00000000
10000000
00000000
,  // measure 74
00010000
00100000
00001000
00010000
,  // measure 75
00001000
00000000
00000000
00000100
00000000
00000000
00000010
00000000
,  // measure 76
00000220
00000000
00000000
00000330
,  // measure 77
00000010
00000000
00000000
00000100
00000000
00000000
00000001
00000000
,  // measure 78
00001000
00000100
00010000
00001000
,  // measure 79
00010000
00000000
00000000
00011000
00000000
00000000
00110000
00000000
,  // measure 80
00000000
01100000
00000000
00000000
11000000
00000000
00000000
00000000
,  // measure 81
20020000
00000000
00000000
00000000
,  // measure 82
00000000
00000000
30030000
00000000
;

//---------------dance-double - KONAMI-EDP----------------
#NOTEDATA:;
#CHARTNAME:KONAMI-EDP;
#STEPSTYPE:dance-double;
#DESCRIPTION:KONAMI-EDP;
#DIFFICULTY:Hard;
#METER:13;
#RADARVALUES:0.529722,0.614950,0.266172,0.211102,0.018357,404,375,29,23,0,0,0,0,0,0.529722,0.614950,0.266172,0.211102,0.018357,404,375,29,23,0,0,0,0,0;
#CREDIT:KONAMI;
#NOTES:
// measure 0
00000000
00000000
00000000
00000000
,  // measure 1
00000000
00000000
00000000
00000000
,  // measure 2
00000000
00000000
00000000
00000000
,  // measure 3
00000000
00000000
00000000
00000000
,  // measure 4
00000000
00000000
00000000
00000000
,  // measure 5
00010000
10000000
01000000
10000000
00010000
00100000
00000000
00000000
,  // measure 6
01000000
10000000
00010000
01000000
00010000
00100000
00000000
00001000
,  // measure 7
00010000
00000010
00001000
00000100
00001000
00000001
00000000
00000000
,  // measure 8
00000010
00000001
00001000
00000100
00001000
00000010
00000000
00000010
,  // measure 9
00001001
00000000
00001100
00000000
00000010
00002000
00000000
00000000
,  // measure 10
00003100
00000000
00010000
00000000
00001000
02000000
00000000
00000000
,  // measure 11
03100000
01000000
00010000
00000000
00010000
00100000
00000000
00001000
,  // measure 12
00010000
00000100
00001000
00000000
00001000
00000010
00000000
00000010
,  // measure 13
00001001
00000000
00001010
00000000
00000100
00002000
00000000
00000000
,  // measure 14
00003010
00000000
00010000
00000000
00001000
00200000
00000000
00000000
,  // measure 15
01300000
00100000
00010000
00000000
00010000
01000000
00001000
00000000
,  // measure 16
00010000
00000100
00000000
00000100
00001000
00000010
00000001
00000010
,  // measure 17
00001001
00002002
00000000
00000000
,  // measure 18
00000000
00000000
00000000
00000000
,  // measure 19
00000000
00000000
00000000
00000000
00000000
00000000
00000000
00000003
,  // measure 20
00000020
00003000
00000200
00000030
,  // measure 21
00002000
00000300
00000000
00023000
,  // measure 22
00000000
00000000
00000000
00000000
,  // measure 23
00000000
00000000
00000000
00000000
00030000
00000000
00000000
01000000
,  // measure 24
00000000
00100000
01000000
00000000
10000000
00010000
00000000
01000000
,  // measure 25
00100000
00000000
00100000
10000000
00000000
10000000
00000000
10000000
,  // measure 26
01000000
00000000
01000000
00100000
00000000
00100000
00000000
00100000
,  // measure 27
00010000
00000000
10000000
01000000
00010000
00001000
00000100
00000010
,  // measure 28
00000100
00001000
00010000
01000000
00100000
01000000
00010000
00001000
,  // measure 29
00000100
00000000
00000100
00000010
00000000
00000010
00000000
00000010
,  // measure 30
00001000
00000000
00001000
00000001
00000000
00000001
00000000
00000001
,  // measure 31
00000010
00000000
00000010
00000100
00000000
00000100
00000000
00000100
,  // measure 32
00001000
00000001
00000000
00000000
00001001
00000000
00000100
00001000
,  // measure 33
00020000
00000000
00000000
00000000
00031000
00100000
00010000
00000000
,  // measure 34
02000000
00000000
00000000
00000000
03100000
10000000
00010000
00000000
,  // measure 35
00200000
00000000
00000000
00000000
01300000
10000000
00010000
00000000
,  // measure 36
01000000
00100000
00000000
00010000
00001000
00000100
00000010
00000000
,  // measure 37
00002000
00000000
00000000
00000000
00003100
00001000
00000001
00000000
,  // measure 38
00000200
00000000
00000000
00000000
00000310
00001000
00000001
00000000
,  // measure 39
00000010
00000000
00001000
00000010
00000100
00001000
00000010
00001000
,  // measure 40
00000100
00010000
00001000
01000000
00010000
00100000
00010000
01000000
,  // measure 41
00100000
00000000
10000000
00000000
00100000
01000000
00000000
01000000
,  // measure 42
00010000
00000000
00100000
00000000
01000000
10000000
00000000
10000000
,  // measure 43
00100000
00000000
01000000
00000000
00010000
00100000
00000000
00100000
,  // measure 44
00001000
00000000
00010000
00001000
00010000
00000100
00000000
00000100
,  // measure 45
00001000
00000000
00000010
00000100
00000001
00001000
00000000
00001000
,  // measure 46
00000100
00000000
00000010
00000100
00001000
00000001
00000000
00000001
,  // measure 47
00000100
00000000
00000010
00001000
00000100
00001000
00000000
00000100
,  // measure 48
00001100
00000000
00011000
00000000
,  // measure 49
01010000
00010000
11000000
10000000
,  // measure 50
01100000
00010000
00110000
01000000
,  // measure 51
10010000
01000000
01010000
00001000
,  // measure 52
00011000
00000000
00001000
00100000
00000000
00100000
00001000
00000000
,  // measure 53
00011000
00010000
00001100
00000100
,  // measure 54
00001001
00000100
00001010
00001000
,  // measure 55
00000110
00000001
00000101
00001000
,  // measure 56
00001100
00000000
00011000
00000000
,  // measure 57
00110000
00000000
00010000
10000000
00000000
01000000
10000000
00000000
,  // measure 58
00010000
00000000
10000000
00010000
00000000
01000000
00010000
00000000
,  // measure 59
01000000
00000000
00100000
10000000
00000000
00100000
00010000
00000000
,  // measure 60
00001000
00000000
00000100
00000001
00000000
00000100
00001000
00000000
,  // measure 61
00010000
00010000
00000000
00000100
00001000
00000010
00010000
00000000
,  // measure 62
00001000
00001000
00000000
00100000
00010000
01000000
00001000
00000000
,  // measure 63
00010000
00010000
00000000
00000100
00001000
00000010
00000100
00000000
,  // measure 64
00000210
00000000
00000001
00000310
,  // measure 65
00000001
00000000
00001001
00000000
00000100
00001000
00000001
00001000
,  // measure 66
00000100
00000000
00010000
00000000
00001000
01000000
00000000
01000000
,  // measure 67
00001000
00000000
00100000
00010000
10000000
00010000
00000000
00100000
,  // measure 68
02000000
00000000
00000000
10000000
00000000
00000000
00100000
00000000
00000000
13000000
00000000
00000000
00000000
00000000
00100000
00000000
,  // measure 69
10000000
00000000
10010000
00000000
00100000
00010000
10000000
00010000
,  // measure 70
00100000
00000000
00001000
00000000
00010000
00000010
00000000
00000010
,  // measure 71
00010000
00000000
00000100
00001000
00000001
00001000
00000000
00000001
,  // measure 72
00000202
00000000
00000000
00000000
00000000
00000000
00000303
00001000
,  // measure 73
00000100
00000000
00000010
00000100
00001000
00000010
00000000
00000001
,  // measure 74
00000010
00000100
00001000
00000000
00010000
00100000
01000000
10000000
,  // measure 75
00000000
01000000
00100000
10000000
01000000
10000000
00010000
00100000
,  // measure 76
02000000
00000000
00000000
10000000
00000000
00000000
00100000
00000000
00000000
13000000
00000000
00000000
00000000
00000000
00010000
00000000
,  // measure 77
01000000
00000000
00100000
00010000
00001000
00010000
00000000
00001000
,  // measure 78
00010000
00001000
00000100
00000000
00000010
00001000
00000001
00001000
,  // measure 79
00000000
00000001
00000100
00000010
00000100
00001000
00010000
00100000
,  // measure 80
01000000
00100000
00010000
00001000
00000100
00000010
00000100
00001000
,  // measure 81
00020000
00000000
00000000
00000000
00000000
02000000
00000000
00000000
,  // measure 82
00030000
20000000
00000000
00000000
,  // measure 83
03000000
00000000
00000000
30000000
;

//---------------dance-single - RGTM-CSP----------------
#NOTEDATA:;
#CHARTNAME:RGTM-CSP;
#STEPSTYPE:dance-single;
#DESCRIPTION:RGTM-CSP;
#DIFFICULTY:Challenge;
#METER:15;
#RADARVALUES:0.757870,0.837984,0.578236,0.156032,0.142264,578,515,63,17,0,0,0,0,0,0.757870,0.837984,0.578236,0.156032,0.142264,578,515,63,17,0,0,0,0,0;
#CREDIT:RGTM;
#NOTES:
0000
0000
0000
0000
,
0000
0000
0000
0000
,
0000
0000
0000
0000
,
0000
0000
0000
0000
,
0000
0000
0000
0000
,
0001
0010
0000
0100
0010
0010
0001
1000
,
0001
0100
0001
1000
0010
0010
1000
0100
,
0100
0010
0100
1000
0010
0010
0100
0001
,
0001
1000
0100
1000
0010
0010
0000
0100
,
1001
0000
1000
0100
0010
0100
1000
0001
,
0100
0000
0001
1000
0010
0010
0100
0001
,
1000
0010
0000
0100
0010
0010
1000
0001
,
0100
0000
0100
0001
0010
0010
0100
1000
,
1001
0001
0000
0100
0010
0100
0001
1000
,
0100
0000
1000
0100
0010
0010
0001
1000
,
0001
0000
0010
0000
0010
0000
0100
0000
0010
0000
1000
0000
0010
0000
0100
0010
,
0100
0010
0001
1000
0010
0100
0110
0010
,
2001
0000
3002
0000
0000
0010
0000
0000
,
1000
0000
0000
0000
0000
0010
0000
0000
,
0100
0000
0000
0000
0000
0010
0000
0000
,
2003
0000
0000
0000
3002
1000
0000
0000
,
0203
0000
0000
0000
0000
0010
0320
0000
,
0100
0000
0000
0000
0000
1000
0000
0000
,
0100
0000
0000
0000
0000
0001
0000
0000
,
0100
0000
0000
0000
0000
1030
0000
0001
,
1001
0000
1000
0010
0000
0010
0100
0001
,
0010
0001
1000
0100
1000
0010
0100
0000
,
0010
0010
0001
0010
1000
0001
0010
1000
,
0001
1000
0010
0001
1000
0010
0001
0010
,
0100
0000
0001
0010
0100
0010
0001
0100
,
0010
0000
1000
0100
1000
0010
0100
0000
,
0001
0000
0010
0000
0000
0000
0100
0000
0010
0000
0010
0000
0001
0000
0100
0010
,
0100
0010
0000
1000
0010
0100
0010
0010
,
1001
1000
0000
0100
0110
0010
0001
1000
,
0001
0100
0000
0100
0110
0010
1000
0001
,
1000
1010
0000
0010
0110
0100
0001
1000
,
0001
0010
0100
1000
1001
0001
1000
0010
,
0100
0001
0000
0010
0110
0100
1000
0001
,
1000
0010
0000
0100
0110
0010
1000
0001
,
0010
0011
0001
0100
0110
0010
0001
0010
,
1000
0100
0001
0100
0110
0010
0001
1000
,
1001
0001
0000
0100
0110
0010
1000
0001
,
1000
0100
0000
0100
0110
0010
0001
1000
,
0001
0011
0000
0010
0110
0100
1000
0001
,
1000
0010
0100
0001
1001
1000
0001
0010
,
0100
1000
0000
0010
0110
0100
0001
1000
,
0001
0010
0000
0100
0110
0010
0001
1000
,
0010
1010
1000
0100
0110
0010
1000
0010
,
0001
0100
1000
0100
0010
0110
0100
0000
,
2001
0000
3100
0000
1010
0100
1000
0001
,
0100
0010
0000
1000
0011
0100
0001
1000
,
1100
0100
0000
0010
0101
0010
0001
1000
,
0010
0010
0100
0001
1010
0100
1000
0001
,
1001
1000
0000
0010
1100
0010
1000
0001
,
0010
0100
0000
1000
0101
0010
0001
1000
,
1010
0010
0000
0100
0011
0100
0001
1000
,
0100
0100
1010
0100
1010
0001
0100
0011
,
1000
0110
0000
1000
0011
0100
0001
1000
,
0100
0010
0000
0001
1010
0100
1000
0001
,
0101
0100
0000
0010
1100
0010
1000
0001
,
0010
0010
0100
1000
0011
0100
0001
1000
,
1001
0001
0000
0010
0101
0010
0001
1000
,
0010
0100
0000
0001
1100
0010
1000
0001
,
0011
0000
0010
0000
0000
0000
0100
0000
1010
0000
0100
0000
1000
0000
0001
1000
,
0002
0000
0103
0110
,
1001
0000
1000
0000
0010
0000
0100
0010
0000
0010
0100
0000
0000
0000
0010
0000
,
1000
0000
0001
0000
0010
0000
0100
1000
0100
0000
0010
0000
0001
1000
0001
0000
,
0100
0000
0001
0000
0010
0000
0100
0010
0000
0010
0100
0000
0000
0000
1000
0000
,
1100
0000
0000
0101
0000
0000
1100
0000
0000
0102
0000
0000
1003
0000
0001
0000
,
0001
0000
0100
0000
0010
0000
1000
0010
0000
0010
0100
0000
0000
0000
0010
0000
,
1000
0000
0100
0000
0010
0000
0001
0000
0100
0000
1001
0000
0000
0100
0000
0000
,
1000
0000
0001
0000
0010
0000
0100
0010
0000
0010
0100
0000
0000
0000
0010
0000
,
0200
0000
0000
0000
0000
0000
1300
0010
,
1001
0000
0000
1000
0010
0000
0000
0010
0200
0000
0302
0000
0000
0000
0013
0000
,
0100
0000
1000
0000
0010
0000
0100
0010
0000
0010
0100
0000
0001
0000
0010
0000
,
0001
0000
0100
0000
0020
0000
0000
2030
0000
3010
0000
0010
0100
0010
0000
0010
,
1000
0000
0000
1100
0000
0000
0101
0000
0000
2100
0000
0000
3002
0000
0000
0000
,
0103
0000
0001
0000
0010
0000
0001
0010
0000
0010
0100
0000
1000
0000
0010
0000
,
1000
0000
0001
0000
0010
0000
0100
0010
0000
0010
0100
0000
1000
0000
0010
0000
,
0000
0000
0001
0010
1000
0001
0010
1000
,
0010
0001
0100
0010
1000
0100
0010
0001
,
0200
0000
0000
0000
,
0000
0000
0000
0000
,
0300
0000
0000
0000
;

//---------------dance-double - RGTM-CDP----------------
#NOTEDATA:;
#CHARTNAME:RGTM-CDP;
#STEPSTYPE:dance-double;
#DESCRIPTION:RGTM-CDP;
#DIFFICULTY:Challenge;
#METER:15;
#RADARVALUES:0.670020,0.770982,0.238637,0.238637,0.137675,511,485,26,26,0,0,0,0,0,0.670020,0.770982,0.238637,0.238637,0.137675,511,485,26,26,0,0,0,0,0;
#CREDIT:RGTM;
#NOTES:
// measure 0
00000000
00000000
00000000
00000000
,  // measure 1
00000000
00000000
00000000
00000000
,  // measure 2
00000000
00000000
00000000
00000000
,  // measure 3
00000000
00000000
00000000
00000000
,  // measure 4
00000000
00000000
00000000
00000000
,  // measure 5
10000000
00010000
00000000
00100000
01000000
00100000
00001000
00000010
,  // measure 6
00000001
00000000
00000100
00000010
00010000
00010000
00001000
00100000
,  // measure 7
00100000
01000000
00000000
10000000
00100000
00100000
01000000
00100000
,  // measure 8
00010000
00001000
00000100
00000010
00001000
00001000
00000100
00000010
,  // measure 9
00001001
00000000
00000001
00000010
00001000
00010000
00000000
00010000
,  // measure 10
01000000
00000000
10000000
00100000
00010000
00001000
00000000
00001000
,  // measure 11
00000100
00000010
00000000
00000010
00001000
00000100
00000010
00000001
,  // measure 12
00000100
00000000
00001000
00010000
01000000
01000000
00100000
00000000
,  // measure 13
10010000
10000000
00000000
00100000
00010000
00001000
00000000
00000010
,  // measure 14
00000100
00000100
00000000
00000010
00000001
00000010
00001000
00010000
,  // measure 15
00100000
00000000
01000000
00000000
00100000
00000000
10000000
00000000
01000000
00000000
01000000
00000000
00010000
00000000
00001000
00010000
,  // measure 16
00001000
00000100
00000000
00000010
00001000
00000001
00000110
00000100
,  // measure 17
00002001
00000000
00003002
00000000
00000000
00000010
00000000
00000000
,  // measure 18
00001000
00000000
00000000
00000000
00000000
00000010
00000000
00000000
,  // measure 19
00000100
00000000
00000000
00000000
00000000
00001000
00000000
00000010
,  // measure 20
00000023
00000000
00002030
00000000
,  // measure 21
00023000
00000000
00000000
00000000
00000000
00100000
00230000
00000000
,  // measure 22
01000000
00000000
00000000
00000000
00000000
00010000
00000000
00000000
,  // measure 23
01000000
00000000
00000000
00000000
00000000
10000000
00000000
00000000
,  // measure 24
01000000
00000000
00000000
00000000
00000000
00310000
00000000
00000000
,  // measure 25
10010000
00000000
10000000
00100000
00000000
00100000
00000000
00100000
,  // measure 26
00010000
00001000
00010000
00000100
00000000
00000010
00000000
00000000
,  // measure 27
00000001
00000001
00000100
00001000
00010000
01000000
00100000
00010000
,  // measure 28
10000000
10000000
01000000
00010000
00001000
00000100
00000010
00001000
,  // measure 29
00000001
00000000
00000001
00000010
00000000
00000010
00000000
00000010
,  // measure 30
00001000
00010000
00001000
01000000
00000000
00100000
00000000
00100000
,  // measure 31
10000000
00000000
01000000
00000000
00000000
00000000
01000000
00000000
00010000
00000000
00010000
00000000
00001000
00000000
00010000
00001000
,  // measure 32
00010000
00001000
00000000
00000100
00000010
00000000
00000010
00000010
,  // measure 33
00001001
00000000
00000001
00000100
00001000
00010000
00001000
00000100
,  // measure 34
00000010
00010000
00001000
00010000
01000000
10000000
00100000
01000000
,  // measure 35
00010000
00100000
10000000
00100000
00001000
00010000
00000100
00000010
,  // measure 36
00000002
00000000
00000103
00000010
00020000
00000000
00030100
00010000
,  // measure 37
00002000
00000000
00013000
01000000
10000000
00100000
00020000
00000000
,  // measure 38
00130000
10000000
01000000
00100000
01000000
00010000
00001000
00000100
,  // measure 39
00000010
00000000
00000100
00001000
00010000
01000000
00010000
00001000
,  // measure 40
00000010
00001000
00010000
00100000
00010000
00001000
00000010
00000001
,  // measure 41
00001001
00000000
00000001
00000010
00001000
00010000
00001000
00000010
,  // measure 42
00000100
00010000
00001000
00010000
00100000
10000000
01000000
00100000
,  // measure 43
00010000
01000000
10000000
01000000
00001000
00010000
00000010
00000100
,  // measure 44
00000002
00000000
00000013
00000100
00020000
00000000
00030010
00010000
,  // measure 45
00002000
00000000
00013000
00100000
10000000
01000000
00020000
00000000
,  // measure 46
01030000
10000000
00100000
01000000
00100000
00010000
00001000
00000010
,  // measure 47
00000100
00000000
00000010
00001000
00010000
00100000
00010000
00001000
,  // measure 48
00000010
00000001
00000100
00000010
00001000
00001000
00000000
00000000
,  // measure 49
00012000
00000000
00103000
00000000
01100000
01000000
10000000
00100000
,  // measure 50
00010000
00001000
00000100
00000010
00000110
00000100
00000001
00000010
,  // measure 51
00000010
00001000
00000000
00010000
00011000
00001000
00100000
01000000
,  // measure 52
10000000
00100000
00010000
00001000
00011000
00010000
00000010
00000100
,  // measure 53
00000001
00000010
00000000
00000100
00000110
00000010
00000001
00000100
,  // measure 54
00001000
00010000
00100000
01000000
01100000
00100000
10000000
01000000
,  // measure 55
01000000
00010000
00000000
00001000
00011000
00010000
00000100
00000010
,  // measure 56
00000010
00000001
00000100
00001000
00011000
00010000
00100000
01100000
,  // measure 57
01000000
00100000
00000000
00100000
10010000
10000000
01000000
00010000
,  // measure 58
00001000
00000100
00000001
00000010
00000110
00000100
00001000
00000001
,  // measure 59
00000001
00000100
00001000
00010000
00011000
00001000
01000000
00100000
,  // measure 60
10000000
01000000
00000000
01000000
01100000
00100000
00010000
00000000
,  // measure 61
00100000
01000000
00000000
01000000
10010000
10000000
00100000
00010000
,  // measure 62
00001000
00000010
00000001
00000100
00000110
00000010
00001000
00000001
,  // measure 63
00000001
00000000
00000010
00000000
00001000
00000000
00010000
00000000
00011000
00000000
00001000
00000000
00100000
00000000
01000000
00100000
,  // measure 64
02000000
00000000
13000000
00100000
,  // measure 65
10010000
00000000
00000000
00000000
10000000
00000000
00000000
00010000
00000000
00010000
01000000
00000000
00000000
00000000
00001000
00000000
,  // measure 66
00010000
00000000
00000000
00000000
00000100
00000000
00000010
00000100
00000010
00000000
00000001
00000000
00000000
00000001
00001000
00000000
,  // measure 67
00000001
00000000
00000100
00000000
00000010
00000000
00000000
00001000
00000000
00001000
00000100
00000000
00000000
00000000
00010000
00000000
,  // measure 68
00001000
00000000
00000000
00001000
00000000
00000000
00001000
00000000
00000000
00001000
00000000
00000000
00001000
00000000
01000000
00000000
,  // measure 69
01000000
00000000
00000000
00000000
00100000
00000000
00000000
10000000
00000000
10000000
01000000
00000000
00000000
00000000
00100000
00000000
,  // measure 70
00001000
00000000
00000000
00000000
00011000
00000000
00000000
00000000
00010000
00000000
00000100
00000000
00000000
00000010
00000000
00000000
,  // measure 71
00000001
00000000
00001000
00000000
00000010
00000000
00000000
00001000
00000000
00001000
00000100
00000000
00000000
00000000
00010000
00000000
,  // measure 72
00002000
00000000
00000000
00000000
00000000
00000000
00013000
00001000
,  // measure 73
01000000
00000000
00000000
00000000
00200000
00000000
00000000
20300000
00000000
00000000
32000000
00000000
00000000
00000000
03100000
00000000
,  // measure 74
01000000
00000000
10000000
00000000
00100000
00000000
00000000
01000000
00000000
01000000
00010000
00000000
00000000
00000000
00100000
00000000
,  // measure 75
00000000
00000000
00001000
00000000
00020000
00000000
00000000
00032000
00000000
00013000
00000000
00010000
00000000
00010000
00000000
00010000
,  // measure 76
00001000
00000000
00000000
00001000
00000000
00000000
00001000
00000000
00000000
00001000
00000000
00000000
00020000
00000000
00000000
00000000
,  // measure 77
00030100
00000000
00000010
00000000
00000001
00000000
00000000
00001000
00000000
00001000
00000010
00000000
00000000
00000000
00000100
00000000
,  // measure 78
00000010
00000000
00010000
00000000
00001000
00000000
00000000
00010000
00000000
00010000
01000000
00000000
00000000
00000000
00100000
00000000
,  // measure 79
00000000
00000000
10000000
00100000
00010000
00001000
00000010
00000001
,  // measure 80
00000010
00000100
00001000
00100000
01000000
00010000
00001000
00010000
,  // measure 81
00000200
00000000
00000000
00000000
00000000
00002000
00000000
00000000
,  // measure 82
00000300
00020000
00000000
00000000
,  // measure 83
00003000
00000000
00000000
00000000
,  // measure 84
00030000
00000000
00000000
00000000
;
