#TITLE:Healing Universe;
#ARTIST:leeium;
#BANNER:Healing Universe.png;
#BACKGROUND:Healing Universe-bg.png;
#MUSIC:Healing Universe.ogg;
#OFFSET:-0.031;
#SAMPLESTART:80.847;
#SAMPLELENGTH:15;
#BPMS:0=49,8=196,151.75=49,152=196,168=49,184=196,312=98;
#STOPS:136=1.531,151=0.23,151.25=0.23,151.5=0.23,312=0.306;

//---------------dance-single - darkanine-bSP----------------
#NOTES:
     dance-single:
     darkanine:
     Beginner:
     5:
     :
0000
0000
0000
0000
,
0000
0000
0000
0000
,
0001
0001
0000
0100
,
0000
1000
0000
0100
,
0000
0010
0000
0010
,
0000
1000
1000
1000
,
0000
0001
0000
0010
,
0000
1000
0000
0010
,
0000
0001
0000
1000
,
0000
0100
0100
0100
,
0000
1000
0000
0010
,
0000
0001
0000
0010
,
0000
0100
0000
0001
,
0000
1000
1000
1000
,
0000
0001
0000
0010
,
0000
0100
0000
1000
,
0000
0010
0000
0100
,
0200
0000
0000
0300
,
0001
0001
0001
0000
,
0010
0010
0010
0000
,
0100
0100
0100
0000
,
1000
1000
1000
0000
,
0010
0010
0010
0000
,
0100
0100
0100
0000
,
0010
0010
0010
0000
,
1000
0000
0001
0000
,
1000
1000
1000
0000
,
0100
0100
0100
0000
,
0001
0001
0001
0000
,
0100
0100
0100
0000
,
0010
0010
0010
0000
,
0001
0001
0001
0000
,
1000
1000
1000
0000
,
0010
0000
0100
0000
,
1001
0000
0000
1000
,
1000
1000
1000
1000
,
0000
0100
0000
0010
,
0010
0010
0010
0002
,
1003
0000
0100
0100
,
0100
0000
0010
0000
,
0001
0001
0001
0001
,
0002
0000
0000
0003
,
1000
0010
0001
0010
,
0100
1000
0100
0001
,
1000
0100
0001
0100
,
0010
1000
0010
0001
,
1000
0000
0100
0000
,
0010
0010
0010
0000
,
0001
0000
0100
0000
,
0010
0010
0010
0000
,
1000
1000
1000
0000
,
0001
0001
0001
0000
,
0010
0010
0010
0010
,
0010
0000
0100
0000
,
1000
1000
0000
0001
,
0000
0010
0000
0100
,
0000
0010
0000
0001
,
0000
1000
1000
1000
,
0000
0001
0000
0100
,
0000
0010
0000
1000
,
0000
0001
0000
0010
,
0000
0100
0100
0100
,
0100
0000
1000
0000
,
0010
0000
0001
0000
,
0010
0000
0100
0000
,
0001
0000
1000
1000
,
1000
0000
0001
0000
,
0010
0000
1000
0000
,
0010
0000
0100
0000
,
1000
0000
0001
0000
,
1000
1000
1000
0000
,
0010
0010
0010
0000
,
0100
0100
0100
0000
,
0001
0001
0001
0000
,
1000
1000
1000
0000
,
0100
0100
0100
0000
,
0010
0010
0010
0000
,
0100
0100
0100
0000
,
0002
0003
0000
0000
0000
0000
0000
0000
0000
0000
0000
0000
0000
0000
0000
0000
;

//---------------dance-single - darkanine-BSP----------------
#NOTES:
     dance-single:
     darkanine:
     Easy:
     8:
     :
0000
0000
0000
0000
,
0000
0000
0000
0000
,
1000
0010
0100
0001
,
0010
0001
0010
0100
,
1000
0010
0100
0010
,
1000
0100
1000
1000
,
0001
0010
0100
0010
,
0001
1000
0010
1000
,
0001
0010
0100
1000
,
0001
0100
0010
0010
,
1000
0100
0001
0100
,
1000
0001
0100
0001
,
1000
0010
0001
0010
,
1000
0001
0010
0010
,
0001
0100
1000
0100
,
0001
1000
0100
0010
,
0001
0010
1000
0010
,
0100
0100
0100
0000
,
2000
0100
3100
1000
,
0001
0100
0010
0010
,
1000
0001
0010
0100
,
0020
0100
0130
0010
,
0002
0100
0103
0001
,
1000
0001
0010
0010
,
0100
0010
0001
1000
,
0010
0100
0100
0100
,
0002
0010
0013
0100
,
1000
0001
0100
0100
,
0010
1000
0001
1000
,
0200
0010
0310
0100
,
2000
0001
3001
0010
,
0001
0010
0100
1000
,
0100
1000
0010
0100
,
0001
0001
0001
0000
,
0220
0330
0000
0000
0000
0000
0000
0000
0000
0000
0000
0000
1000
0000
0000
0000
,
0010
0100
0001
0010
,
0100
1000
0100
1000
,
0001
0000
0100
0000
0001
0000
0010
0010
,
0010
0001
0100
0010
,
1000
0100
0010
0001
,
1000
0010
1000
0001
,
0200
0010
0310
0000
,
1000
1000
0001
0001
0100
0100
0010
0010
,
1000
0010
0100
0001
0010
0100
1000
0001
,
0100
1000
0100
0001
0010
1000
0010
0100
,
0010
0010
0100
0100
1000
0001
1000
0001
,
0100
0100
0010
1000
,
0100
0100
0010
0001
,
0100
0100
0010
1000
,
0001
0100
1000
0100
,
0001
0001
0010
0100
,
1000
1000
0010
0100
,
0001
0001
0010
1000
,
0010
0001
0100
1000
,
0100
0010
1000
1000
,
0100
0010
0001
0001
,
0100
0010
0100
0100
,
0001
0010
1000
0010
,
0100
1000
0010
0010
,
0100
0001
0010
0010
,
0100
0010
0010
0010
,
0002
0000
0000
0003
,
1000
0010
0100
1000
,
0100
0001
0010
0100
,
1000
0100
0001
0100
,
1000
0001
0010
0100
,
1000
0010
0001
0010
,
0100
1000
0100
0001
,
0010
1000
0010
0100
,
0001
0100
1000
0001
,
1000
1000
0010
0010
,
0001
0001
1000
1000
,
0100
0100
0001
0001
,
0010
0010
0100
0100
,
1000
1000
0100
0100
,
0001
0001
1000
1000
,
0010
0010
0001
0001
,
0100
0100
0100
0000
,
2002
3003
0000
0000
0000
0000
0000
0000
0000
0000
0000
0000
0000
0000
0000
0000
;

//---------------dance-single - darkanine-DSP----------------
#NOTES:
     dance-single:
     darkanine:
     Medium:
     11:
     :
0000
0000
0000
0000
,
0000
0000
0000
0000
,
1000
0000
0100
1000
0000
1000
0001
0000
,
0100
0000
0001
1000
0000
1000
0010
0000
,
0100
0000
0001
0010
0000
0010
0100
0000
,
1000
0000
1000
0001
1000
0001
1000
0000
,
0001
0000
0100
0010
0000
0010
1000
0000
,
0100
0000
1000
0010
0000
0010
0100
0000
,
0001
0000
1000
0100
0000
0100
0010
0000
,
0001
1000
0100
1000
0001
0100
0001
0000
,
1001
0000
1000
0010
0000
0010
1000
0000
,
0100
0000
0010
0001
0000
0001
0010
0000
,
0100
0000
0010
0100
0000
0100
0010
0000
,
0100
0000
1000
0010
0100
0010
1000
0000
,
0001
0000
1000
0100
0000
0100
0001
0000
,
0100
0000
1000
0010
0000
0010
0001
0000
,
0010
0000
0100
0001
0000
0001
2000
0000
,
0001
0001
0000
0010
0000
3100
0000
1000
,
1000
0000
0010
0100
0010
0000
1000
0000
,
0001
0000
0010
0100
0010
0000
0001
0000
,
1000
0000
0100
0010
0100
0000
0010
0000
,
0001
0100
0001
0000
1000
0100
1000
0000
,
0010
0000
1000
0001
1000
0000
0100
0000
,
0010
0000
0001
1000
0001
0000
0100
0000
,
0010
0000
1000
0100
1000
0000
0010
0000
,
0100
0001
1000
0001
0100
0001
1000
0000
,
0110
0000
1000
0001
0100
0000
0010
0000
,
1000
0000
0001
1000
0100
0000
0010
0000
,
0001
0000
1000
0010
0100
0000
0001
0000
,
1000
0010
1000
0000
0001
0010
0001
0000
,
0100
0000
0010
1000
0100
0000
0010
0000
,
0100
0000
0010
0001
0100
0000
0010
0000
,
0100
0000
0010
1000
0001
0000
0010
0000
,
0100
1000
0010
1000
0100
1000
0001
0000
,
2020
3030
0000
0000
0000
0000
0000
0000
0000
0000
0000
0000
0001
0000
0000
0000
,
0100
0001
0000
1000
0001
0000
1000
0100
,
0000
0010
0001
0000
0010
0100
0000
1000
,
0010
0000
0000
0000
1000
0000
0001
0000
0000
0000
0100
0000
0010
0010
0020
0030
,
0110
0000
1000
0100
0010
0100
1000
0000
,
0001
0100
0010
0100
0001
0000
1000
0001
,
1000
0001
0010
0000
0100
0010
0100
0010
,
0200
0001
0010
1000
,
0301
0001
0000
0000
0000
0000
1000
1000
0000
0100
0100
0000
0000
0001
0001
0000
,
1000
1000
0000
0010
0010
0000
0000
0000
0001
0001
0000
0100
0100
0000
0000
0000
,
1000
1000
0000
0000
0000
0000
0100
0100
0000
0010
0010
0000
0000
1000
1000
0000
,
0001
0001
0000
0010
0010
0000
0000
0000
0100
0100
0000
0000
0000
0000
2000
0000
,
3001
0000
0100
0010
0000
1000
0010
0000
,
0100
0000
0001
0010
0000
0100
0010
0000
,
0001
0000
1000
0100
0000
0010
0100
0000
,
1000
0001
1000
0001
0000
0100
0010
0000
,
1000
0000
0001
0010
0000
1000
0010
0000
,
0001
0000
1000
0100
0000
0001
0100
0000
,
1000
0000
0001
0100
0000
1000
0100
0000
,
0001
0000
0010
1000
0010
0100
0010
0000
,
1001
0000
1000
0010
0100
0010
1000
0000
,
0001
0000
0001
0010
0100
0010
0001
0000
,
1000
0000
1000
0001
0100
0001
1000
0000
,
0001
0010
0100
1000
0000
0001
1000
0000
,
0010
0000
0010
1000
0100
1000
0010
0000
,
0100
0000
0100
0001
0010
0001
0100
0000
,
0010
0000
0010
1000
0001
1000
0100
0000
,
0010
0001
1000
0010
0000
0100
0010
0000
,
1000
0000
1000
0000
1000
0100
1000
0001
,
1000
0000
1000
0010
1000
0001
1000
0001
,
1000
0000
1000
0100
1000
0010
1000
0100
,
0010
0000
0000
0000
0010
0000
0000
0000
0100
0000
0000
0100
0000
0000
1000
0000
,
0001
1000
0001
0000
0001
0000
0001
0100
,
0001
0000
0001
0000
0001
0010
0001
1000
,
0001
0000
0001
0100
0001
0010
0001
1000
,
0010
0000
0000
0000
0010
0000
0000
0000
1000
0000
0000
1000
0000
0000
0010
0000
,
1000
0001
1000
0001
1000
0001
1000
0001
,
0100
0000
0000
0000
0100
0000
0000
0000
0010
0000
0000
0010
0000
0000
1000
0000
,
0001
1000
0001
0000
0100
0010
0100
0000
,
0010
0000
1000
0001
0010
0001
1000
0000
,
0100
0010
0100
0010
0100
0010
0100
0010
,
0001
0001
1000
1000
,
0010
1000
0100
0000
0010
0001
0100
0000
,
0010
1000
0000
0001
0000
1000
0000
0000
,
0101
0100
0000
0000
0000
0000
0000
0000
0000
0000
0000
0000
0000
0000
0000
0000
;

//---------------dance-single - darkanine-ESP----------------
#NOTES:
     dance-single:
     darkanine:
     Hard:
     13:
     :
0000
0000
0000
0000
,
0000
0000
0000
0000
,
0011
0000
0001
0100
0000
0100
1000
0000
,
0110
0000
1000
0100
0000
0100
0001
0000
,
0110
0000
1000
0010
0000
0010
0001
0000
,
0110
0100
1000
0100
0001
0100
0010
0000
,
1001
0000
0100
1000
0000
1000
0010
0000
,
1001
0000
0100
0001
0000
0001
0010
0000
,
1100
0000
0001
0010
0000
0010
1000
0000
,
0110
0010
1000
0010
0001
0010
0100
0000
,
1001
0001
0100
0010
0001
0010
0100
0000
,
0001
0010
0100
0001
0100
0010
0001
0000
,
1000
0010
0100
1000
0100
0010
1000
0000
,
1000
0100
0010
1000
0010
0001
1000
0001
,
0100
0010
1000
0100
1000
0010
0100
0000
,
0010
0100
0001
0010
0001
0100
0010
0000
,
1000
0010
0001
0010
0100
0010
1000
0000
,
0011
0001
0000
0110
0000
1001
0000
1000
,
1010
0000
0010
0001
0000
0010
1000
0000
,
0001
0000
0010
1000
0000
0010
0001
0000
,
1000
0000
0100
0001
0000
0100
1000
0000
,
0001
0000
0100
1000
0100
0010
0010
0000
,
0001
0000
0010
1000
0000
0100
0001
0000
,
1000
0000
0010
0001
0000
0100
1000
0000
,
0001
0000
0010
1000
0000
0100
0001
0000
,
1000
0000
0010
0001
1000
0001
1000
0000
,
1100
0000
0002
0010
0000
1003
0002
0000
,
0100
0003
2000
0010
0000
3001
2000
0000
,
0100
3000
0002
0010
0000
0103
0002
0000
,
0010
0013
0100
1000
0010
0100
0001
0000
,
1000
0000
0020
0001
0000
1030
0020
0000
,
0100
0030
0200
0001
0000
1300
0200
0000
,
0010
0300
0020
0001
0000
1030
0020
0000
,
0100
0130
0001
0100
1000
0100
0110
0000
,
0022
0033
0000
0000
0000
0000
0000
0000
0000
0000
0000
0000
0001
0000
0100
0000
,
0100
1000
0000
1000
0100
0100
0001
1000
,
0010
0000
0110
0000
1000
0001
1000
0100
,
0100
0000
0001
0000
0100
0000
0100
0000
1000
0000
0000
0000
0020
0100
0100
0130
,
1001
0001
0100
0010
1000
0100
0010
0001
,
0100
0001
0010
0100
0001
0100
1000
1000
,
0001
0010
0100
0000
1000
0010
0001
0000
,
0110
1000
0100
0100
0001
0010
0100
0000
,
1000
2000
0000
0000
0000
0000
0100
3200
0000
0010
0320
0000
0000
1000
2030
0000
,
0001
3002
0000
0100
0203
0000
0000
0000
0010
0320
0000
0001
0032
0000
0000
0000
,
0100
0203
0000
0000
0000
0000
0010
0320
0000
0001
0032
0000
0000
0010
0023
0000
,
1000
2030
0000
0100
3200
0000
0000
0000
0001
0302
0000
0000
0000
0000
0103
0100
,
1000
0001
0010
1000
0010
0001
1000
0000
,
1000
0001
0100
1000
0100
0001
1000
0000
,
1000
0100
0010
1000
0010
0100
1000
0000
,
0001
0010
0100
1000
0010
0100
1000
0100
,
0001
1000
0010
0001
0010
1000
0001
0000
,
0001
1000
0100
0001
0100
1000
0001
0000
,
0001
0010
0100
0010
0001
0100
0010
0100
,
0010
1000
0001
0010
1000
0010
0001
0000
,
1001
0000
1000
0100
0000
0001
0100
0000
,
0110
0000
0001
0010
0000
1000
0010
0000
,
1001
0000
0001
0100
0000
1000
0100
0000
,
0110
0100
1000
0100
0001
0100
0010
0000
,
1001
0000
0010
1000
0000
0010
0001
0000
,
0110
0000
0100
1000
0000
0100
0001
0000
,
1001
0000
0010
0001
0000
0010
1000
0000
,
0120
0100
0000
0130
0000
0010
0000
0000
,
0001
0100
1000
0100
0010
0000
0100
0010
,
0001
0010
1000
0000
0100
0010
1000
0010
,
0001
0000
1000
0100
0001
0100
1000
0001
,
2000
0000
0000
0000
0010
0000
0000
0000
3100
0000
0000
1000
0000
0000
0001
0000
,
1000
0001
0010
1000
0010
0000
0001
1000
,
0010
0001
0010
0000
1000
0001
1000
0001
,
0010
1000
0010
0100
0010
0001
0010
0010
,
0200
0000
0000
0000
0001
0000
0000
0000
1300
0000
0000
0100
0000
0000
0010
0000
,
0001
1000
0010
1000
0100
0001
0100
1000
,
0001
0000
0010
0000
1000
0000
0010
0000
0001
0000
0000
0100
0000
0000
0010
0000
,
1000
0010
0001
0010
0100
1000
0100
0001
,
1000
0100
1000
1000
0001
0100
1000
0100
,
0010
1000
0100
0010
1000
0010
0100
1000
,
0010
0100
0001
0010
0100
0010
0001
0100
,
0010
0001
0010
1000
0100
0001
0100
1000
,
0020
0001
0000
0100
0000
1030
0000
0000
,
0021
0031
0000
0000
0000
0000
0000
0000
0000
0000
0000
0000
0000
0000
0000
0000
;

//---------------dance-single - darkanine-CSP----------------
#NOTES:
     dance-single:
     darkanine:
     Challenge:
     16:
     :
0000
0000
0000
0000
,
0000
0000
0000
0000
,
0001
1000
0010
0110
0000
1000
0001
0000
,
1000
0000
0010
0000
0001
0000
0010
0000
0100
0010
0100
0000
0001
0000
0000
0000
,
1000
0001
0010
0110
0000
0001
1000
0000
,
1000
0000
0001
0100
0001
0000
1000
0100
1000
0000
0010
0000
0100
0010
0100
0000
,
0001
0100
0100
1100
0000
0001
0100
0000
,
0010
1000
0100
0110
0000
0010
0002
0000
,
1003
0100
0100
0101
0000
1000
0100
0000
,
1000
0000
0010
0000
0001
0000
0010
0000
1000
0001
1000
0000
0010
0100
0010
0000
,
1001
0000
0000
0000
0001
0100
0001
0000
0000
0000
1000
0100
1000
0000
0000
0000
,
0010
0000
0000
0000
0100
0001
0100
0000
0010
0000
0010
1000
0010
0000
0000
0000
,
1000
0000
0000
0000
0001
0010
0001
0000
0000
0000
1000
0010
1000
0000
0000
0000
,
0001
0000
1000
0100
0010
0000
0001
0000
0100
0010
1000
0000
0001
1000
0001
0000
,
0100
0000
0000
0000
0010
1000
0100
0000
0000
0000
0010
0001
1000
0000
0000
0000
,
0001
0000
0000
0000
0010
0001
0100
0000
0000
0000
0010
1000
0001
0000
0000
0000
,
1000
0000
0000
0000
0100
1000
0001
0000
0000
0000
0100
0000
0100
0000
0010
0000
,
1010
1100
0000
0011
0000
0101
0000
1000
,
1001
0001
0100
1000
0001
0010
1000
0001
,
0001
1000
0100
0001
1000
0010
0001
1000
,
1000
0001
0100
1000
0001
0010
1000
0001
,
0001
0000
0100
0010
0100
0000
0001
1000
0001
0000
1000
0000
0100
0010
0100
0000
,
1000
0001
0010
1000
0001
0100
1000
0001
,
0001
1000
0010
0001
1000
0100
0001
1000
,
1000
0001
0010
1000
0001
0100
1000
0001
,
0001
0000
1000
0100
1000
0000
0001
0100
0001
0000
1000
0000
0001
0010
0001
0000
,
0100
0001
0100
0100
1000
0100
0100
0001
,
0010
0001
0010
0010
1000
0010
0010
0001
,
0100
0001
0100
0100
1000
0100
0100
0001
,
1000
0000
0001
0100
0010
0000
1000
0100
0010
0000
0001
0000
0100
0010
1000
0000
,
0100
1000
0100
0100
0001
0100
0100
1000
,
0010
1000
0010
0010
0001
0010
0010
1000
,
0100
1000
0100
0100
0001
0100
0100
1000
,
0001
0100
1000
0001
0010
1000
0100
0001
,
0220
0330
0000
0000
0000
0000
0000
0000
0000
0000
0000
0000
1000
0100
1000
0000
,
0010
0000
0100
0001
0100
0000
0001
0000
0010
0001
0010
0000
0100
0000
1000
0100
,
1000
0000
0100
0000
0010
0100
0010
0000
0100
0000
1000
0001
1000
0000
0010
0000
,
0100
0000
0010
0000
0100
0000
0000
0000
0010
0000
0000
0000
1000
0000
0001
0000
1000
0000
0000
0000
0100
0000
0000
0000
0010
0000
0010
0000
0010
0000
0100
0100
,
0100
0000
0000
0000
1000
0100
0010
0000
0000
0000
0001
0100
0010
0000
0000
0000
,
1000
0010
0100
0000
0000
0000
0001
0010
0100
0000
0000
0000
0010
0001
0100
0000
,
0000
0000
0010
1000
0100
0000
0000
0000
0010
0001
1000
0000
0000
0000
0010
0100
,
0001
0000
0001
0000
0010
0000
0100
1000
0100
1000
0001
0000
0010
0000
0000
0000
,
0100
0000
0100
0000
1000
0000
0001
0100
0010
1000
0000
0001
0100
0010
0100
0000
0001
1000
0100
0000
0100
1000
0001
0100
0010
0000
0100
0001
0100
0010
1000
0000
,
0100
0000
0100
0000
1000
0000
0100
0000
0100
0010
0000
0001
0000
1000
0000
0000
0100
1000
0100
0010
0001
0010
0100
0010
0100
1000
0001
0100
0010
1000
0001
0010
,
0100
0000
0100
0000
1000
0000
0001
0100
0000
0010
0000
1000
0100
0001
0100
0010
0001
0000
0100
0010
0100
0010
1000
0000
0001
0000
0100
0000
0100
0000
0010
0000
,
1000
0000
1000
0000
0100
0000
0001
0000
0001
0100
0000
0010
0000
0001
0000
0100
0010
1000
0010
0100
0001
0010
0100
1000
0001
0100
0010
1000
0100
0100
0100
0100
,
0100
0000
0000
0000
1000
0010
1000
0000
0100
0000
0010
0001
0010
0000
0001
0000
,
0100
0000
0000
0000
0001
0100
0001
0000
0010
0000
0100
1000
0100
0000
1000
0000
,
0001
0000
0000
0000
1000
0100
1000
0000
0010
0000
0100
0001
0100
0000
0010
0000
,
1000
0010
0001
0010
1000
0100
0001
0000
,
0110
0000
0000
0000
0001
1000
0001
0000
0100
0000
0010
0100
0010
0000
1000
0000
,
0001
0000
0000
0000
1000
0010
1000
0000
0100
0000
0010
0001
0010
0000
0100
0000
,
1000
0000
0000
0000
0001
0010
0001
0000
0100
0000
0010
1000
0010
0000
0100
0000
,
0001
0100
1000
0100
0001
0010
0100
0000
,
1001
0000
0000
0000
0010
1000
0100
0000
0000
0000
0100
1000
0010
0000
0100
0000
,
0010
0000
0000
0000
0100
0001
0010
0000
0000
0000
0010
0001
0100
0000
0010
0000
,
0100
0000
0000
0000
0010
1000
0100
0000
0000
0000
0100
1000
0010
0000
1000
0000
,
0010
0001
0010
1000
0100
0001
0100
1000
,
0001
0000
0000
0000
1000
0100
0001
0000
0000
0000
0001
0100
1000
0000
0001
0000
,
1000
0000
0000
0000
0001
0100
1000
0000
0000
0000
1000
0100
0001
0000
1000
0000
,
0001
0000
0000
0000
1000
0010
0001
0000
0000
0000
0001
0010
1000
0000
0001
0000
,
1000
0010
0001
0010
0100
0010
0100
0010
,
0100
0000
0001
0000
0010
0001
0010
0000
0001
0000
1000
0010
1000
0000
0001
0000
,
0100
0001
0100
0000
0010
0000
1000
0100
1000
0000
0001
0000
0010
0100
0010
0000
,
0001
0000
0100
0010
0100
0000
0001
0000
1000
0001
1000
0000
0001
1000
0001
0000
,
0100
0000
0000
0000
0010
0000
0000
0000
0100
0000
0000
0100
0000
0000
0001
0000
,
0100
0000
0010
0000
1000
0010
1000
0000
0100
0000
1000
0100
1000
0000
0100
0000
,
0001
0100
0001
0000
0100
0000
0000
0000
0100
0000
1000
0000
0010
0000
0010
0000
,
0100
0000
0001
0100
0001
0100
0001
0000
1000
0100
1000
0100
1000
0000
0100
0000
,
0010
0000
0000
0000
0110
0000
0000
0000
0010
0000
0000
0001
0000
0000
0001
0000
,
1000
0010
0010
0100
0001
0001
0010
0100
,
0100
0000
0000
0000
1010
0000
0000
0000
0001
0000
0001
0010
0000
0000
0100
0000
,
1000
0000
0100
0000
0100
0000
0000
0010
0001
0000
0001
0000
0100
0000
0010
0000
,
0010
0000
0000
0000
1000
0010
0000
0010
0100
0000
0001
0000
0010
0100
0010
0000
,
0001
0001
0100
0100
0010
0010
1000
1000
,
0100
0100
0010
0010
0001
1000
0001
1000
,
0010
1000
0010
0000
0100
0001
0100
0000
0001
0010
0001
0000
1000
0100
1000
0000
,
0001
0101
1000
1100
0001
0011
1000
0000
,
2010
3001
0000
0000
0000
0000
0000
0000
0000
0000
0000
0000
0000
0000
0000
0000
;

//---------------dance-double - RGTM-BDP----------------
#NOTES:
     dance-double:
     RGTM:
     Easy:
     8:
     :
00000000
00000000
00000000
00000000
,
00000000
00000000
00000000
00000000
,
10000000
00100000
01000000
00100000
,
10000000
01000000
00100000
00001000
,
00010000
00001000
00000100
00000010
,
00001000
00000100
00000010
00000010
,
00000001
00000100
00000010
00000100
,
00000001
00000010
00000100
00010000
,
00001000
00010000
00100000
01000000
,
00010000
00100000
01000000
01000000
,
10000000
00100000
00010000
00100000
,
01000000
00001000
00010000
00000010
,
00001000
00000100
00000001
00000100
,
00000010
00000001
00000100
00000100
,
00000001
00000010
00001000
00000010
,
00000100
00010000
00001000
00100000
,
00010000
01000000
10000000
01000000
,
00100000
00100000
00100000
00000000
,
20000000
01000000
31000000
10000000
,
00010000
00100000
01000000
01000000
,
00100000
00001000
00010000
00001000
,
00000200
00000010
00000310
00000100
,
00000002
00000010
00000013
00000001
,
00001000
00000100
00000010
00000010
,
00000100
00010000
00001000
00010000
,
00200000
01300000
00100000
00100000
,
20000000
01000000
31000000
10000000
,
00010000
01000000
00100000
00100000
,
01000000
00001000
00010000
00001000
,
00000020
00000100
00000130
00000010
,
00000002
00000100
00000103
00000001
,
00001000
00000100
00000010
00000010
,
00000100
00010000
00001000
00010000
,
00100000
00100000
00100000
00000000
,
20020000
30030000
00000000
00000000
00000000
00000000
00000000
00000000
00000000
00000000
00000000
00000000
10000000
00000000
00000000
00000000
,
01000000
00100000
00001000
00010000
,
00001000
00010000
00000100
00000010
,
00000001
00000000
00001000
00000000
00000010
00000000
00000100
00000100
,
00000001
00000010
00000100
00010000
,
00001000
00010000
00001000
00100000
,
01000000
10000000
00010000
01000000
,
00100000
02200000
00000000
03300000
,
10000000
00000000
00000000
00000000
00000000
00000000
01000000
00000000
00000000
00100000
00000000
00000000
00000000
00001000
00000000
00000000
,
00010000
00000000
00000000
00000100
00000000
00000000
00000000
00000000
00000010
00000000
00000000
00000001
00000000
00000000
00000000
00000000
,
00001000
00000000
00000000
00000000
00000000
00000000
00000010
00000000
00000000
00000100
00000000
00000000
00000000
00001000
00000000
00000000
,
00100000
00000000
00000000
01000000
00000000
00000000
00000000
00000000
10000000
00000000
00000000
00000000
00000000
00000000
00020000
00000000
,
10030000
10000000
00100000
01000000
,
00001000
00001000
00010000
00000100
,
00000010
00000010
00000001
00001000
,
00000001
00000010
00001000
00000010
,
00000001
00000001
00000100
00000010
,
00010000
00010000
00001000
00100000
,
01000000
01000000
10000000
00100000
,
00010000
00100000
10000000
00010000
,
10000000
01000000
00100000
00100000
,
00001000
00010000
00000010
00000010
,
00000100
00000001
00001000
00001000
,
00000001
00000100
00001000
00000100
,
00000001
00000010
00000100
00000100
,
00010000
00001000
01000000
01000000
,
00100000
10000000
01000000
01000000
,
00200000
00000000
00000000
00300000
,
00010000
00100000
10000000
00100000
,
00001000
00010000
00001000
00000100
,
00000001
00000010
00001000
00000010
,
00000001
00000100
00000010
00001000
,
00001000
00000010
00000001
00000010
,
00010000
00001000
00010000
01000000
,
10000000
00100000
00010000
00100000
,
10000000
01000000
00100000
00010000
,
10000000
10000000
00100000
00100000
,
00010000
00010000
00001000
00001000
,
00000010
00000010
00000001
00000001
,
00001000
00001000
00000100
00000010
,
00000001
00000001
00000100
00000100
,
00001000
00001000
00010000
00010000
,
01000000
01000000
10000000
10000000
,
00100000
00100000
00100000
00000000
,
20020000
30030000
00000000
00000000
00000000
00000000
00000000
00000000
00000000
00000000
00000000
00000000
00000000
00000000
00000000
00000000
;

//---------------dance-double - RGTM-DDP----------------
#NOTES:
     dance-double:
     RGTM:
     Medium:
     11:
     :
00000000
00000000
00000000
00000000
,
00000000
00000000
00000000
00000000
,
10000000
00000000
00100000
01000000
00000000
01000000
00010000
00000000
,
00100000
00000000
00100000
00001000
00010000
00001000
00010000
00000000
,
00000010
00000000
00000100
00000001
00000000
00000001
00001000
00000000
,
00000100
00000020
00000000
00000030
00000001
00001000
00000001
00001000
,
00000001
00000000
00000100
00000010
00000000
00000010
00001000
00000000
,
00000200
00000000
00010300
00001000
00000000
00010000
00002000
00000000
,
01003000
00000000
00100000
10000000
00000000
10000000
00010000
00000000
,
00100000
02000000
00000000
03000000
10000000
00010000
10000000
00000000
,
10010000
00000000
00010000
01000000
00000000
01000000
00100000
00000000
,
01000000
00000000
01000000
00001000
00010000
00001000
00010000
00000000
,
00000100
00000000
00000100
00000010
00000000
00000010
00000001
00000000
,
00001000
00000020
00000000
00000130
00000001
00001000
00000100
00001000
,
00000001
00000000
00001000
00000010
00000000
00000010
00000100
00000000
,
00000020
00000000
00010030
00001000
00000000
00010000
00002000
00000000
,
00103000
00000000
00100000
01000000
00000000
01000000
20000000
00000000
,
00010000
00010000
00000000
00100000
00000000
01000000
30000000
10000000
,
10000000
00000000
00100000
10000000
00100000
00000000
01000000
00000000
,
00010000
00000000
00100000
00001000
00100000
00000000
00001000
00000000
,
00010000
00000000
00000010
00010000
00000010
00000000
00000100
00000000
,
00000001
00000010
00000001
00000000
00001000
00000010
00001000
00000000
,
00000001
00000000
00000100
00000001
00000100
00000000
00000010
00000000
,
00001000
00000000
00000100
00010000
00000100
00000000
00010000
00000000
,
00001000
00000000
01000000
00001000
01000000
00000000
00100000
00000000
,
01000000
00100000
01000000
00100000
10000000
00010000
10000000
00000000
,
10010000
00000000
00010000
00100000
01000000
00000000
00100000
00000000
,
00001000
00000000
00100000
00001000
00010000
00000000
00001000
00000000
,
00010000
00000000
00000010
00001000
00000100
00000000
00000010
00000000
,
00000001
00000010
00000100
00000010
00000100
00001000
00000001
00000010
,
00000001
00000000
00001000
00000010
00000100
00000000
00000010
00000000
,
00010000
00000000
00000010
00010000
00001000
00000000
00010000
00000000
,
00001000
00000000
00100000
00010000
01000000
00000000
00100000
00000000
,
10000000
00100000
01000000
00100000
01000000
00010000
10000000
00000000
,
00220000
00330000
00000000
00000000
00000000
00000000
00000000
00000000
00000000
00000000
00000000
00000000
10000000
00000000
00000000
00000000
,
00100000
10000000
00000000
01000000
00100000
00000000
00001000
00100000
,
00000000
00001000
00010000
00000000
00000010
00001000
00000000
00000010
,
00000100
00000000
00000000
00000000
00000001
00000000
00000010
00000000
00000000
00000000
00000100
00000000
00000010
00000010
00000020
00000030
,
00001001
00000000
00000001
00000010
00000100
00000010
00000001
00000000
,
00001000
00000000
00000010
00010000
00001000
00010000
00000010
00000000
,
00010000
00000000
00001000
01000000
00100000
01000000
00010000
00000000
,
00200000
00010000
01000000
10000000
,
00310000
00010000
00000000
00000000
00000000
00000000
10000000
10000000
00000000
00100000
00100000
00000000
00000000
01000000
01000000
00000000
,
00001000
00001000
00000000
00010000
00010000
00000000
00000000
00000000
00000010
00000010
00000000
00000100
00000100
00000000
00000000
00000000
,
00000001
00000001
00000000
00000000
00000000
00000000
00001000
00001000
00000000
00000100
00000100
00000000
00000000
00000010
00000010
00000000
,
00001000
00001000
00000000
00010000
00010000
00000000
00000000
00000000
00100000
00100000
00000000
00000000
00000000
00000000
20000000
00000000
,
30010000
00000000
10000000
00100000
00000000
01000000
00010000
00000000
,
00100000
00000000
01000000
00010000
00000000
00001000
00000100
00000000
,
00000010
00000000
00001000
00000100
00000000
00000010
00000001
00000000
,
00001000
00000010
00001000
00000000
00000001
00000010
00000001
00000000
,
00001000
00000000
00000001
00000100
00000000
00000010
00001000
00000000
,
00000100
00000000
00000010
00001000
00000000
00010000
00100000
00000000
,
01000000
00000000
00010000
00100000
00000000
01000000
10000000
00000000
,
00010000
00000000
01000000
00100000
01000000
00010000
01000000
00000000
,
10010000
00000000
10000000
00100000
00000000
00010000
00100000
00000000
,
01000000
00000000
00001000
00010000
00000000
00000100
00000010
00000000
,
00000100
00000000
00001000
00000010
00000000
00000001
00000010
00000000
,
00001000
00000010
00010000
00000000
00000100
00001000
00000001
00000000
,
00001000
00000000
00000001
00000100
00000000
00001000
00000100
00000000
,
00000010
00000000
00010000
00001000
00000000
00100000
01000000
00000000
,
00100000
00000000
00010000
01000000
00000000
10000000
01000000
00000000
,
00010000
00100000
00001000
00100000
00010000
00100000
01000000
00000000
,
10010000
11000000
01100000
00110000
,
00011000
00010010
00000110
00000101
,
00001001
00001100
00011000
00101000
,
00100000
00001000
00010000
00000000
00000010
00001000
00000100
00000000
,
00001001
00000011
00000110
00001100
,
00011000
01001000
01100000
10100000
,
10010000
00110000
00011000
00010100
,
00000100
00010000
00001000
00010000
00001000
01000000
00100000
00000000
,
10000000
00100000
10000000
00100000
10000000
00100000
10000000
00100000
,
01000000
00000000
00000000
00000000
01000000
00000000
00000000
00000000
00010000
00000000
00000000
00100000
00000000
00000000
00100000
00000000
,
00001000
00010000
00001000
00000000
00010000
00000100
00010000
00000000
,
00000100
00000020
00000000
00000130
00001000
00000010
00000100
00000000
,
00000001
00000010
00000001
00000010
00000001
00000010
00000001
00000010
,
00000100
00010000
00001000
00020000
,
00130000
10000000
00100000
00000000
01000000
00010000
01000000
00000000
,
00100000
10000000
00000000
01000000
00000000
00100000
00000000
00000000
,
00011000
00010000
00000000
00000000
00000000
00000000
00000000
00000000
00000000
00000000
00000000
00000000
00000000
00000000
00000000
00000000
;

//---------------dance-double - RGTM-EDP----------------
#NOTES:
     dance-double:
     RGTM:
     Hard:
     13:
     :
00000000
00000000
00000000
00000000
,
00000000
00000000
00000000
00000000
,
10100000
00000000
10000000
01000000
00000000
00010000
01000000
00000000
,
00100000
00000000
00001000
00010000
00000010
00000010
00000100
00000000
,
00000001
00000000
00000010
00000100
00000000
00010000
00001000
00000000
,
01000000
00200000
00000000
01300000
00010000
01000000
00100000
10000000
,
11000000
00000000
10000000
00100000
00000000
00010000
00100000
00000000
,
01000000
00001000
00010000
00000000
00000100
00000100
00000020
00000000
,
00000031
00000000
00000100
00000010
00000000
00010000
00001000
00000000
,
00100000
02000000
00000000
03100000
00010000
00100000
01000000
10000000
,
00100000
01000000
00010000
00100000
01000000
00100000
00010000
00000000
,
01000000
00001000
00010000
00000100
00010000
00001000
00000010
00000000
,
00000100
00001000
00000010
00000100
00000010
00001000
00000100
00000000
,
00000010
00000002
00000000
00000013
00000100
00000100
00001000
00000001
,
00000100
00000010
00001000
00000100
00000010
00000100
00001000
00000000
,
00000010
00010000
00001000
00100000
00001000
00010000
02000000
00000000
,
03100000
00010000
01000000
00100000
01000000
00010000
00100000
00000000
,
01100000
01000000
00000000
11000000
00000000
01010000
00000000
00010000
,
20010000
00000000
00100000
00100000
00000000
00010000
00010000
00000000
,
01000000
00000000
00010000
00010000
00000000
00001000
00001000
00000000
,
00010000
00000000
01000000
01000000
00000000
00100000
00100000
00000000
,
30020000
00200000
00300000
00000000
02030000
00100000
00000000
00001000
,
03002000
00000000
00010000
00010000
00000000
00100000
00203000
00000000
,
00010000
00000000
01000000
01000000
00000000
00010000
00020000
00030000
,
00001000
00000000
00010000
00010000
00000000
01000000
01000000
00000000
,
00310000
00200000
00301000
00010000
00000010
00000010
00000100
00000001
,
00001002
00000000
00000010
00000010
00000000
00001000
00001000
00000000
,
00000100
00000000
00001000
00001000
00000000
00010000
00010000
00000000
,
00001000
00000000
00000100
00000100
00000000
00000010
00000010
00000000
,
00002003
00000020
00000030
00000000
00003200
00000010
00000000
00010000
,
00020300
00000000
00001000
00001000
00000000
00000010
00030020
00000000
,
00001000
00000000
00000100
00000100
00000000
00001000
00002000
00003000
,
00010000
00000000
00001000
00001000
00000000
00000100
00000100
00000000
,
00001030
00000020
00010030
00001000
00100000
01000000
10000000
00000000
,
02020000
03030000
00000000
00000000
00000000
00000000
00000000
00000000
00000000
00000000
00000000
00000000
10000000
00000000
01000000
00000000
,
01000000
00010000
00000000
10000000
00010000
01000000
01000000
10000000
,
00000000
00100000
00010000
00001000
00010000
00000000
00001000
00000010
,
00000100
00000000
00000100
00000000
00000001
00000000
00001000
00000000
00000100
00000000
00000100
00000000
00000020
00000100
00000100
00000130
,
00000001
00000010
00000100
00000010
00000001
00001000
00000010
00000000
,
00000100
00000010
00010000
00001000
00010000
00000100
00000010
00000000
,
00000100
00010000
00001000
00100000
01000000
10000000
00100000
00000000
,
10000000
01000000
01200000
00000000
00310000
00010000
10000000
00000000
,
00100000
00200000
00000000
00000000
00000000
00000000
01000000
02300000
00000000
00001000
03002000
00000000
00000000
00010000
00023000
00000000
,
00000100
00030200
00000000
00000010
00000320
00000000
00000000
00000000
00001000
00002030
00000000
00010000
00023000
00000000
00000000
00000000
,
00100000
00230000
00000000
00000000
00000000
00000000
10000000
20300000
00000000
01000000
32000000
00000000
00000000
00010000
03020000
00000000
,
00001000
00000000
00032000
00000000
00000000
00000000
00000100
00000000
00003200
00000000
00000000
00000000
00000000
00000000
00000000
00000000
00000001
00000000
00000302
00000000
00000000
00000000
00000000
00000000
00000000
00000000
00000000
00000000
00000023
00000000
00000000
00000030
,
00001002
00000000
00000100
00000100
00000000
00001000
00001000
00000000
,
00000010
00000000
00001000
00001000
00000000
00010000
00010000
00000000
,
00001000
00000000
00000010
00000010
00000000
00000100
00000100
00000000
,
00002003
00000200
00000300
00000000
00003020
00000100
00000000
00010000
,
00020030
00000000
00001000
00001000
00000000
00000100
00030200
00000000
,
00001000
00000000
00000010
00000010
00000000
00001000
00002000
00003000
,
00010000
00000000
00001000
00001000
00000000
00000010
00000010
00000000
,
00001300
00000200
00010300
00001000
01000000
01000000
00100000
10000000
,
20010000
00000000
01000000
01000000
00000000
00010000
00010000
00000000
,
00100000
00000000
00010000
00010000
00000000
00001000
00001000
00000000
,
00010000
00000000
00100000
00100000
00000000
01000000
01000000
00000000
,
30020000
02000000
03000000
00000000
00230000
01000000
00000000
00001000
,
00302000
00000000
00010000
00010000
00000000
01000000
02003000
00000000
,
00010000
00000000
00100000
00100000
00000000
00010000
00020000
00030000
,
00001000
00000000
00010000
00010000
00000000
00100000
00100000
00000000
,
03010000
02000000
03001000
00010000
00000100
00000010
00000001
00000000
,
00001000
00000100
00000010
00000100
00001000
00000000
00000010
00000100
,
00001000
00000100
00000010
00000000
00010000
00001000
00000100
00001000
,
00010000
00000000
00001000
00010000
00100000
00010000
00001000
00010000
,
00200000
00000000
00000000
00000000
00010000
00000000
00000000
00000000
10300000
00000000
00000000
00100000
00000000
00000000
01000000
00000000
,
00010000
00100000
01000000
00100000
00010000
00000000
01000000
00100000
,
00010000
00100000
01000000
00000000
00001000
00010000
00100000
00010000
,
00001000
00000000
00010000
00001000
00000100
00001000
00010000
00000000
,
00001000
00000100
00000010
00001000
00000100
00000010
00000001
00000000
,
00001000
00000010
00001000
00000010
00000100
00000001
00000100
00000001
,
00001000
00000000
00000000
00000000
00000100
00000000
00000000
00000000
00010000
00000000
00000000
00001000
00000000
00000000
00010000
00000000
,
00001000
01000000
00001000
01000000
00100000
10000000
00100000
10000000
,
00010000
00100000
01000000
01000000
10000000
10000000
00100000
01000000
,
00010000
00100000
00010000
00100000
01000000
10000000
01000000
10000000
,
00010000
01000000
00010000
01000000
00001000
00020000
00000000
00031000
,
00010000
00000100
00000010
00000001
00000100
00000010
00001000
00000100
,
00000010
00000110
00000000
00010100
00000000
01001000
00000000
00000000
,
10020000
10030000
00000000
00000000
00000000
00000000
00000000
00000000
00000000
00000000
00000000
00000000
00000000
00000000
00000000
00000000
;

//---------------dance-double - RGTM-CDP----------------
#NOTES:
     dance-double:
     RGTM:
     Challenge:
     17:
     :
00000000
00000000
00000000
00000000
,
00000000
00000000
00000000
00000000
,
10000000
00010000
00100000
01100000
00000000
00001000
00010000
00000000
,
00001000
00000000
00000010
00000000
00000001
00000000
00000100
00000000
00000010
00010000
00000010
00000000
00000100
00000000
00000000
00000000
,
00000001
00001000
00000100
00000110
00000000
00010000
00001000
00000000
,
00010000
00000000
00001000
00100000
00001000
00000000
01000000
00010000
01000000
00000000
00100000
01000000
00100000
00000000
00000000
00000000
,
10000000
00010000
00010000
00011000
00000000
00001000
00000001
00000000
,
00000100
00000010
00001000
00001100
00000000
00000100
00000020
00000000
,
00000031
00001000
00001000
00011000
00000000
00010000
10000000
00000000
,
00100000
00000000
02000000
00000000
00000000
00000000
03001000
00100000
01000000
00000000
00010000
00000000
00001000
00000000
01000000
00000000
,
01100000
00000000
00000000
00000000
10000000
00100000
00010000
00000000
00000000
00000000
00100000
01000000
00001000
00000000
00000000
00000000
,
00010000
00000000
00000000
00000000
00001000
00000010
00000001
00000000
00000100
00000000
00000010
00010000
00001000
00000000
00000000
00000000
,
00010000
00000000
00000000
00000000
00100000
10000000
01000000
00000000
00000000
00000000
00010000
00001000
00000100
00000000
00000000
00000000
,
00000010
00000000
00002000
00000000
00000000
00000000
00003100
00000010
00000001
00000000
00000010
00000000
00000100
00010000
00001000
00000000
,
00000100
00000000
00000000
00000000
00000001
00000010
00001000
00000000
00000000
00000000
00000010
00000100
00010000
00000000
00000000
00000000
,
00001000
00000000
00000000
00000000
00010000
00100000
10000000
00000000
01000000
00000000
00100000
00001000
00010000
00000000
00000000
00000000
,
00001000
00000000
00000000
00000000
00000010
00000001
00000100
00000000
00000000
00000000
00001000
00010000
01000000
00000000
00000000
00000000
,
11000000
10100000
00000000
01001000
00000000
00010100
00000000
00000101
,
00000011
00000010
00001000
00000001
00000100
00010000
00001000
00100000
,
10000000
00100000
00010000
10000000
01000000
00010000
00001000
00000010
,
00000001
00000010
00001000
00000001
00000100
00010000
00001000
00100000
,
10000000
00000000
00200000
00000000
00000000
00000000
00310000
10000000
00010000
00000000
01000000
00000000
00100000
01000000
00100000
00000000
,
10000000
00100000
00010000
10000000
01000000
00001000
00010000
00000010
,
00000001
00000010
00001000
00000001
00000100
00001000
00010000
00100000
,
10000000
00100000
00010000
10000000
01000000
00001000
00010000
00000010
,
00000001
00000000
00000020
00000000
00000000
00000000
00001030
00000001
00001000
00000000
00000100
00000000
00000010
00000100
00000010
00000000
,
00000001
00000100
00001000
00000001
00000010
00010000
00001000
01000000
,
10000000
01000000
00010000
10000000
00100000
00010000
00001000
00000100
,
00000001
00000100
00001000
00000001
00000010
00010000
00001000
01000000
,
10000000
00000000
02000000
00000000
00000000
00000000
03010000
10000000
00010000
00000000
00100000
00000000
01000000
00100000
01000000
00000000
,
10000000
01000000
00010000
10000000
00100000
00001000
00010000
00000100
,
00000001
00000100
00001000
00000001
00000010
00001000
00010000
01000000
,
10000000
01000000
00010000
10000000
00100000
00001000
00010000
00000100
,
00000001
00000000
00000200
00000000
00000000
00000000
00000310
00000100
00000010
00000000
00000001
00000000
00000100
00000000
00001000
00000000
,
00011000
00000000
00000000
00000000
00000000
00000000
00000000
00000000
00000000
00000000
00000000
00000000
00010000
00001000
00010000
00000000
,
00000000
00000000
00100000
10000000
01000000
00000000
00000000
00000000
00100000
00010000
01000000
00000000
00000000
00000000
00001000
00010000
,
00000100
00000000
00000000
00000000
00010000
00001000
01000000
00000000
00000000
00000000
00001000
00010000
00000010
00000000
00000000
00000000
,
00000100
00000000
00000001
00000000
00000010
00000000
00000000
00000000
00000000
00000000
00000000
00000000
00000100
00000000
00001000
00000000
00000010
00000000
00000000
00000000
00000000
00000000
00000000
00000000
00000100
00000000
00000100
00000000
00000100
00000000
00000010
00000010
,
00000010
00000000
00000000
00000000
00010000
00001000
00100000
00000000
00000000
00000000
00001000
00010000
00000010
00000000
00000000
00000000
,
00000100
00000001
00001000
00000000
00000000
00000000
00000100
00001000
00000001
00000000
00000000
00000000
00000010
00000100
00010000
00000000
,
00000000
00000000
00100000
01000000
00001000
00000000
00000000
00000000
00100000
00010000
10000000
00000000
00000000
00000000
00100000
10000000
,
00010000
00000000
00000000
00000000
00200000
00000000
01300000
10000000
01000000
00100000
00001000
00000000
00010000
00000000
00000000
00000000
,
00011000
00000000
00010000
00000000
00000010
00000000
00001000
00000100
00000010
00000001
00000000
00000001
00000010
00000100
00001000
00000000
00000010
00000100
00000010
00000000
00000100
00001000
00010000
00100000
01000000
00000000
00010000
00100000
01000000
10000000
00010000
00000000
,
10000000
00000000
00100000
00000000
01000000
00000000
00010000
00000000
00100000
01000000
00000000
00100000
00000000
00001000
00010000
00000000
00000010
00001000
00000001
00000010
00000100
00010000
00001000
01000000
00100000
10000000
00010000
00100000
01000000
00010000
00001000
00000100
,
00000010
00000000
00000010
00000000
00001000
00000000
00000001
00000010
00000000
00000100
00000000
00010000
00001000
00010000
00100000
01000000
00010000
00000000
10000000
01000000
00100000
00010000
01000000
00000000
00100000
00000000
00010000
00000000
00001000
00000000
00000010
00000000
,
00000001
00000000
00000100
00000000
00000010
00000000
00001000
00000000
00000100
00000010
00000000
00001000
00000000
00010000
00000000
00100000
10000000
00100000
01000000
00010000
00100000
01000000
00010000
00001000
00010000
00000100
00000010
00000001
00000100
00000100
00000100
00000100
,
00000100
00000000
00000001
00000000
00000010
00000001
00000010
00000000
00000100
00000000
00010000
00000100
00010000
00000000
00001000
00000000
,
01000000
00000000
00100000
10000000
00100000
00000000
01000000
00000000
00001000
01000000
00001000
00000000
00010000
00000000
00000100
00000000
,
00000010
00000000
00000001
00000010
00000100
00000000
00001000
00000000
00000010
00010000
00001000
00000000
01000000
00000000
00100000
00000000
,
10000000
00000000
00200000
00000000
00000000
00000000
01300000
00000000
00001000
00000000
00010000
00000000
00000100
00001000
00000100
00000000
,
00000010
00000000
00000001
00000000
00000100
00000001
00000100
00000000
00000010
00000000
00010000
00000010
00010000
00000000
00001000
00000000
,
00100000
00000000
01000000
10000000
01000000
00000000
00100000
00000000
00001000
00100000
00001000
00000000
00010000
00000000
00000010
00000000
,
00000100
00000000
00000001
00000100
00000010
00000000
00001000
00000000
00000100
00010000
00001000
00000000
00100000
00000000
01000000
00000000
,
10000000
00000000
02000000
00000000
00000000
00000000
03100000
00010000
00100000
00000000
01000000
00000000
00010000
00001000
00010000
00001000
,
00000100
00000000
00000000
00000000
00000001
00000100
00001000
00000000
00000000
00000000
00010000
00100000
01000000
00000000
00000000
00000000
,
00100000
00000000
00000000
00000000
10000000
01000000
00010000
00000000
00000000
00000000
00001000
00000010
00000100
00000000
00000000
00000000
,
00000010
00000000
00000000
00000000
00000001
00000010
00001000
00000000
00000000
00000000
00010000
01000000
10000000
00000000
00000000
00000000
,
00100000
00000000
02000000
00000000
00000000
00000000
03010000
10000000
00010000
00000000
00100000
00000000
00001000
00000000
00010000
00000000
,
01000000
00000000
00000000
00000000
10000000
01000000
00010000
00000000
00000000
00000000
00001000
00000010
00000100
00000000
00000000
00000000
,
00000010
00000000
00000000
00000000
00000001
00000100
00001000
00000000
00000000
00000000
00010000
00100000
01000000
00000000
00000000
00000000
,
00100000
00000000
00000000
00000000
10000000
00100000
00010000
00000000
00000000
00000000
00001000
00000100
00000001
00000000
00000000
00000000
,
00000010
00000000
00000200
00000000
00000000
00000000
00001300
00000001
00001000
00000000
00000010
00000000
00010000
00000000
00001000
00000000
,
00000100
00000000
00000001
00000000
00000010
00000100
00001000
00000000
00000001
00000000
00000100
00001000
00010000
00000000
00100000
00000000
,
10000000
01000000
00100000
00000000
00010000
00000000
01000000
00100000
00010000
00000000
00001000
00000000
00000100
00000010
00001000
00000000
,
00000100
00000000
00000010
00000001
00001000
00000000
00000010
00000000
00001000
00000100
00001000
00000000
00000001
00000100
00000001
00000000
,
00000010
00000000
00002000
00000000
00000000
00000000
00013000
00001000
00010000
00000000
00100000
00000000
10000000
00010000
00100000
00000000
,
01000000
00000000
10000000
00000000
00100000
01000000
00010000
00000000
10000000
00000000
01000000
00010000
00001000
00000000
00000010
00000000
,
00000001
00000100
00000010
00000000
00001000
00000000
00000100
00000010
00001000
00000000
00010000
00000000
01000000
00100000
00010000
00000000
,
01000000
00000000
00100000
10000000
00010000
00000000
00100000
00000000
00010000
01000000
00010000
00000000
10000000
01000000
10000000
00000000
,
00100000
00000000
00020000
00000000
00000000
00000000
00031000
00010000
00001000
00000000
00000000
00000100
00000000
00000000
00000100
00000000
,
00000001
00000010
00001000
00000010
00000100
00010000
01000000
00010000
,
00001000
01000000
10000000
01000000
00100000
00010000
00000010
00010000
,
00100000
01000000
10000000
01000000
00010000
00000010
00000001
00000010
,
00010000
00000000
00200000
00000000
00000000
00000000
01300000
10000000
01000000
00000000
00100000
00000000
00010000
10000000
00010000
00000000
,
10000000
00100000
00010000
00100000
01000000
00001000
00000100
00001000
,
00010000
00000100
00000001
00000100
00000010
00001000
00100000
00001000
,
00000010
00000100
00000010
00000000
00000100
00001000
00000100
00000000
00001000
00000001
00001000
00000000
00000001
00000100
00000001
00000000
,
00000100
00000000
00000020
00000000
00000000
00000000
00010030
00000010
00010000
00000000
00000100
00000000
00100000
00001000
00100000
00000000
,
02100000
13000000
00000000
00000000
00000000
00000000
00000000
00000000
00000000
00000000
00000000
00000000
00000000
00000000
00000000
00000000
;
