#TITLE:Hard Examination;
#ARTIST:アイスベア;
#ARTISTTRANSLIT:Ice Bear;
#BANNER:Hard Examination.png;
#BACKGROUND:Hard Examination-bg.png;
#MUSIC:Hard Examination.ogg;
#OFFSET:-0.01;
#SAMPLESTART:56;
#SAMPLELENGTH:15;
#BPMS:0=210;
#STOPS:99=0.143,135.5=0.071,135.75=0.071,136=0.071,136.25=0.071,159.5=0.071,159.75=0.071,267=0.071,267.25=0.071,271.5=0.071,271.75=0.071,272=0.071,272.25=0.071;

//---------------dance-single - Kekkle-bSP----------------
#NOTES:
     dance-single:
     Kekkle:
     Beginner:
     7:
     :
0000
0000
0000
0000
,
0000
0000
0000
0000
,
0000
0000
0000
0000
,
0000
0000
0000
0000
,
0000
0000
0000
0000
,
0001
0000
0001
0001
,
1000
0000
1000
1000
,
0001
0000
1000
0000
,
0010
0100
0010
0100
,
0001
0000
1000
1000
,
0001
0000
0001
0001
,
1000
0000
0001
0000
,
0010
0100
0010
0000
,
1001
0000
0001
0000
,
1001
0000
1000
0000
,
1001
0000
1001
0000
,
0001
1000
0001
1000
,
0001
0000
0001
0001
,
0010
0000
0000
0100
,
0100
0000
1000
1000
,
0010
0000
0000
0100
,
0100
0000
0010
0010
,
0000
1000
1000
0001
,
0010
0000
0100
0000
,
1000
0000
0001
0000
,
0000
0000
0000
1000
0000
0010
0000
1000
,
0000
0000
0000
0001
0000
0010
0000
0001
,
0000
0000
0000
1000
0000
0001
0000
1000
,
0000
0001
0000
1000
0000
0000
0000
0001
,
0000
0000
0000
1000
0000
0001
0000
1000
,
0000
0000
0000
0010
0000
0100
0000
0010
,
0000
0000
0000
0100
0000
0000
0000
0010
,
0000
0100
0000
0010
0000
0000
0000
1000
,
0000
0001
0000
1000
0000
0000
0000
0000
,
0000
0000
0000
0000
0000
0001
0000
0000
,
0000
1000
0000
0001
0000
0100
0000
0010
,
0000
0100
0000
0000
0000
0010
0000
0000
,
0000
0100
0000
0010
0000
1000
0000
0001
,
0000
1000
0000
0000
0000
0100
0000
0000
,
0000
0100
0000
0000
0000
0100
0000
0000
,
0000
0000
1001
0000
,
0001
1000
0001
1000
,
0001
0010
0001
0010
,
0100
0010
0100
0010
,
0100
0000
1001
0000
,
1000
0000
1001
0000
,
0001
0000
1001
0000
,
1001
0000
0001
1000
,
0001
1000
0001
1000
,
0001
0001
0100
0000
,
0000
0010
1000
0001
,
1000
1000
0100
0000
,
0000
0010
0010
0000
,
0001
0001
0000
1000
,
1000
0001
0100
0000
,
0010
0000
1000
0001
,
1000
0000
0001
0100
,
0001
0100
0010
1000
,
0010
1000
0001
1000
,
0001
1000
0100
0010
,
0100
0000
1000
1000
,
0001
0000
0001
0001
,
1000
0000
1000
0000
,
0001
0000
1000
0001
,
1000
0001
1000
0000
,
0100
0000
0010
0100
,
0010
0000
0001
0000
,
0000
0000
0000
1000
0000
0000
0000
0000
,
0000
0000
0000
0000
0000
0010
0000
0000
,
0000
0100
0000
0010
0000
0100
0000
0010
,
0000
1000
0000
0000
0000
0001
0000
0000
,
0000
0100
0000
0010
0000
0100
0000
0010
,
0000
0100
0000
0000
0000
0001
0000
0100
,
0000
0001
0000
0100
0000
0010
0000
1000
,
0000
0010
0000
1000
0000
0001
0000
1000
,
0000
0001
0000
1000
0000
0001
0000
0000
,
0000
1001
0000
0000
0000
0001
0000
0000
,
0000
1001
0000
0000
0000
1000
0000
0000
,
0000
1001
0000
0000
0000
1001
0000
0000
,
0000
0001
0000
1000
0000
0001
0000
0000
,
0000
1001
0000
0000
0000
0000
0000
0000
;

//---------------dance-single - Kekkle-BSP----------------
#NOTES:
     dance-single:
     Kekkle:
     Easy:
     10:
     :
0000
0000
0000
0000
,
0000
0000
0000
0000
,
0000
0000
0000
0000
,
0000
0000
0000
0000
,
0000
0000
0000
0000
,
0001
0100
0001
0001
,
1000
0100
1000
1000
,
0001
0001
1000
1000
,
0010
0000
0100
0000
0010
0100
0010
0000
,
1000
0010
1000
1000
,
0001
0010
0001
0001
,
1000
1000
0001
0001
,
0010
0000
0100
0000
0010
0100
0010
0000
,
0001
0000
0000
1000
0001
0000
0100
0000
,
0010
0000
0000
0100
0010
0000
1000
0000
,
0001
0000
1000
0000
,
0100
0000
0010
0000
0001
1000
0001
0000
,
1000
0000
0001
0001
,
0200
0000
0300
0000
0000
0001
1000
0000
,
0001
0000
1000
1000
,
0200
0300
0000
0010
,
0001
0000
1000
0010
,
0000
0100
0100
0001
,
1000
0001
1000
0000
0001
1000
0001
0000
,
0100
0000
0100
0000
,
0000
0010
0000
1000
0001
1000
0000
0100
,
0000
0010
0000
0001
1000
0001
0000
0100
,
0000
0010
0000
1000
0001
1000
0000
0001
,
0000
0001
0000
1000
0001
1000
0000
0001
,
0000
0100
0000
0010
0100
0010
0000
1000
,
0000
0100
0000
0010
0100
0010
0000
0001
,
1000
0001
0000
1000
0001
1000
0000
0001
,
0000
0100
0000
0010
0000
0010
0000
1000
,
0000
0001
0000
1000
0001
1000
0000
0020
,
0000
0030
0000
0000
0000
1000
0000
1000
,
0000
0001
0000
0001
1000
0001
0000
0100
,
0000
0010
0100
0010
0000
1000
0000
0100
,
0000
0010
0000
0010
0000
0001
1000
0001
,
0000
1000
0000
0010
0000
0010
0000
0000
,
0100
0000
0000
0010
0000
1000
0000
1000
,
0000
0001
0100
0000
,
0010
1000
0001
0010
,
0001
1000
0010
1000
,
0001
0010
0100
1000
,
0001
1000
1001
0000
,
1000
0001
1000
0000
1001
0000
0000
0000
,
0001
1000
0001
0000
1001
0000
0000
0000
,
1001
0000
0001
1000
,
0010
0100
0010
0000
1000
0000
0001
0000
,
1000
0001
1000
0000
0020
0000
0030
0000
,
0000
0100
0001
0000
1000
0000
0001
0000
,
1000
0001
1000
0000
0200
0000
0300
0000
,
0000
0010
0001
1000
,
0010
0100
0000
0010
,
0010
0100
0010
0000
1000
0001
1000
0000
,
0001
1000
0001
0000
0010
0000
0100
0000
,
0010
0100
0010
0000
0001
0000
1000
0000
,
0001
1000
0001
0000
0010
0000
0100
0000
,
1000
0001
1000
0000
0010
0000
0100
0000
,
0001
0001
1000
0001
,
1000
0001
1000
0000
0001
0000
0010
0000
,
0100
0010
0100
0000
1000
0000
0010
0000
,
0100
0010
0100
0000
0001
1000
0001
0000
,
1000
0001
1000
0000
0001
0000
1000
0000
,
0010
0100
0010
0000
1000
0000
1000
0000
,
0001
0000
0010
0010
,
0100
0100
1000
0001
,
0000
0000
0000
1000
0000
1000
0000
0010
,
0000
0000
0000
0100
0000
0010
0000
0000
,
0000
1000
0000
0001
0000
1000
0001
1000
,
0000
0100
0000
0010
0000
0001
0000
1000
,
0000
0010
0000
0010
0000
0100
0000
0001
,
0000
1001
0000
0000
0000
0001
0000
1000
,
0000
0010
0000
1000
0000
0001
0000
0010
,
0000
0100
0000
0010
0000
0001
0000
1000
,
0000
0010
0100
0010
0000
0100
0010
0100
,
0000
1001
0000
0000
0000
1000
0001
1000
,
0000
1001
0000
0000
0000
0001
1000
0001
,
0000
1001
0000
0000
0000
1001
0000
0000
,
0000
0001
1000
0001
0000
0100
0010
0100
,
0000
0110
0000
0000
0000
0000
0000
0000
;

//---------------dance-single - Kekkle-DSP----------------
#NOTES:
     dance-single:
     Kekkle:
     Medium:
     14:
     :
0000
0000
0000
0000
,
0000
0000
0000
0000
,
0000
0000
0000
0000
,
0000
0000
0000
0000
,
0000
0000
0000
0000
,
0001
0000
0001
0000
1000
0010
0100
0001
,
1000
0000
1000
0000
0001
0010
0100
1000
,
0001
0001
0100
0010
,
1000
0010
0100
0001
1000
0001
1000
0000
,
1001
0000
0001
0000
1000
0100
0010
0001
,
1000
0000
1000
0000
0001
0100
0010
1000
,
0001
0001
0100
0010
,
1000
0100
0010
0001
1000
0001
1000
0000
,
1001
0000
0000
0001
0100
0010
1000
0001
,
1001
0000
0000
1000
0100
0010
0001
1000
,
1001
0001
0110
1000
,
0001
0100
0001
1000
0100
0010
0001
0000
,
2000
0000
0000
3010
0100
0001
0100
0010
,
2000
0000
0000
0000
3000
0001
1000
0001
,
0020
0000
0000
0130
1000
0100
0010
0001
,
0200
0000
0300
0110
,
2001
0000
0000
3001
0100
0001
0010
0010
,
0000
0100
1000
0001
0001
0100
0010
1000
,
0001
0010
0001
0010
0100
1000
0100
1000
,
0002
0000
0000
0103
0010
0000
0110
0100
,
0001
0100
0010
1000
0001
0010
0000
0100
,
1000
0100
0010
0001
0100
0010
0000
1000
,
0010
0100
1000
0100
0001
0100
0000
0001
,
0100
0010
0000
0100
0100
0010
0010
1000
,
0001
0010
0001
0100
0010
1000
0000
0010
,
1000
0001
0010
1000
0010
0100
0000
1000
,
1000
1000
0000
0001
0001
0001
0000
0100
,
0010
0000
1000
0000
0001
0000
0010
0000
0100
0010
0200
0000
0000
0000
1300
0000
,
0001
0000
0100
0000
0001
0000
0010
0000
0100
0000
1000
0000
0000
0000
0010
0010
,
0100
0100
0002
0000
0000
0000
1003
0000
0000
0000
0100
0000
0010
0000
0001
0000
,
0000
0100
0010
1000
0000
0001
0010
0100
,
0010
0001
0100
0010
0000
2000
0000
3001
,
0100
0001
0010
0100
0000
1000
0001
0100
,
0000
0001
0100
1000
0100
0001
0000
0100
,
0010
0000
0000
0000
1000
0000
0010
0000
0000
0000
1000
0000
0001
0000
1000
1000
,
0100
0000
0010
0000
0001
0000
1000
0001
1000
0000
0000
0000
0010
0000
1000
0000
,
0100
0010
0001
0010
0100
1000
0010
0000
,
0100
0001
1000
0100
1000
0000
0001
0100
,
0010
1000
0001
0100
1000
0100
0010
0100
,
0001
1000
0010
0000
0110
0000
0100
0100
,
0001
1000
0100
0000
0110
0000
0010
0010
,
0001
1000
0010
0000
1000
0010
0100
0001
,
0010
0100
0010
0001
1000
0010
0100
0001
,
1000
0001
1000
0001
1000
0000
0000
0000
0002
0000
0000
0000
1003
0000
0010
0000
,
0100
0001
0010
0100
0020
0000
0000
0000
,
0030
0100
1000
0001
0200
0000
0301
1000
,
0001
0010
0100
1000
0010
0100
0001
1000
,
0010
0000
0100
0010
0100
0000
0000
0000
0020
0000
0000
0000
1030
0000
0001
0000
,
0010
0100
0010
0001
0000
1000
0010
0100
,
0100
0001
1000
0100
0010
0100
1000
0001
,
0100
0010
1000
0100
0020
0000
0031
1000
,
0010
0000
0100
0010
0100
0000
0000
0000
0010
0000
1000
0000
0001
0000
0010
0000
,
0001
1000
0100
0001
0100
1000
0001
0100
,
0001
0010
0100
0010
0001
0100
0010
1000
,
0010
0100
1000
0100
0001
1000
0100
0010
,
0100
0000
1000
0001
1000
0000
0000
0000
1001
0000
0000
0000
1000
0000
0010
0000
,
0100
0001
1000
0001
1001
0000
0001
0010
,
0100
1000
0001
1000
1001
0000
0001
0000
,
0110
0000
1000
0000
0001
0100
0001
0010
,
0100
1000
0020
0000
0130
0000
0001
1000
,
0100
0000
0010
0000
0100
0000
0000
0000
1000
0000
0000
1000
0000
0000
1000
0000
,
0001
0000
0100
0000
0010
0000
0000
0000
1000
0000
0001
0000
0010
0010
0001
0000
,
1000
0000
0010
0000
0000
0000
0100
0000
0001
0000
0100
0000
0010
0000
1000
1000
,
0001
0001
0010
0000
0100
0000
2000
0000
0000
0000
3001
0000
0100
0000
0010
0000
,
0000
1000
0001
0010
0001
1000
0010
0100
,
0100
0001
1000
0100
0000
0010
0001
1000
,
0010
0100
0001
1000
0010
0001
0010
1000
,
0000
1001
0000
0001
0010
0100
0010
0001
,
1000
0010
0100
0001
0010
0001
1000
0010
,
0001
0010
1000
0100
1000
0010
0100
0001
,
1000
0100
1000
0010
0100
0001
0001
0001
,
0000
1000
0010
0100
0001
1000
0100
0001
,
0100
0010
0001
0100
0001
1000
0010
1000
,
0100
0010
0001
0100
0001
0010
0100
1000
,
0010
0000
0100
0000
0001
0000
0100
0000
0010
0000
1000
0001
1000
0001
1000
0000
,
0000
1001
0000
0000
0000
0000
0000
0000
;

//---------------dance-single - Kekkle-ESP----------------
#NOTES:
     dance-single:
     Kekkle:
     Hard:
     17:
     :
0000
0000
0000
0000
,
0000
0000
0000
0000
,
0000
0000
0000
0000
,
0000
0000
0000
0000
,
0000
0000
0000
0000
,
0001
0000
0100
0000
0010
0000
0100
0000
0001
0000
1000
0000
0100
1000
0100
0000
,
0010
0000
0001
0000
1000
0000
0010
0000
0100
0000
0001
0000
0100
0001
0100
0000
,
0010
1000
0001
0010
0100
0010
0001
1000
,
0010
0100
0010
0000
1000
0001
1000
0001
1000
0000
0000
0000
1001
0000
0000
0000
,
0001
0000
0100
0000
0010
0000
0100
0000
1000
0000
0100
0000
0010
0100
0010
0000
,
1000
0000
0100
0000
0010
0000
0100
0000
0001
0000
0100
0000
0010
0001
0010
0000
,
0100
1000
0001
0100
1000
0100
0010
0100
,
0001
1000
0100
0010
0100
1000
0001
0000
,
1001
0000
1000
0010
0100
0001
1000
0000
,
1001
0000
0001
0010
0100
1000
0010
0000
,
0110
1000
0110
0001
,
1000
0100
1000
0000
0001
0100
0001
0000
0010
0000
0100
0000
2000
0000
0000
0000
,
3002
0000
0000
0103
0010
1000
0001
0010
,
0200
0000
0000
0000
1300
0001
0100
0010
,
0002
0000
0000
0013
1000
0001
0010
0100
,
0002
0000
0103
1100
,
1002
0000
0000
0103
0010
1000
0100
0010
,
0000
0000
0100
0000
0100
0000
1000
0100
1000
0000
0001
0000
0100
0000
0010
0000
,
0100
1000
0100
0001
0010
1000
0010
0001
,
0200
0000
0301
1000
0100
0000
0110
0010
,
0001
0000
1000
0000
0000
0001
0100
0000
0010
0000
1000
0010
1000
0000
0100
0000
,
0001
0000
0100
0000
0000
0010
0001
0000
1000
0000
0001
1000
0001
0000
0100
0000
,
0010
0000
0001
0000
0000
0010
0100
0000
0001
0000
1000
0001
1000
0000
0100
0000
,
0010
0000
0100
0000
1000
0000
0001
0000
0100
0000
0010
0100
0010
0100
0001
0000
,
1000
0000
0100
0000
0001
0000
0100
0000
1000
0000
0001
1000
0001
0000
1000
0000
,
0010
0000
0001
0000
0010
0000
1000
0000
0001
0000
1000
0001
1000
0000
0100
0000
,
2000
0000
0001
0000
3001
0000
0100
0000
0002
0000
1000
0000
1003
0000
0100
0010
,
0100
0000
1000
0001
1000
0001
0100
0000
0000
0000
0110
0000
0000
0000
0010
0000
,
1000
0000
0100
0000
0001
0000
1000
0000
0010
0000
0001
0000
0000
0000
0100
0100
,
0010
0010
1000
0001
1000
0000
0100
1000
0100
0000
0010
0000
0001
0000
1000
0000
,
0010
0000
0001
0000
0010
0000
0100
0000
0100
0000
0001
1000
0001
1000
0100
1000
,
0100
0000
0010
0001
0010
0000
0002
0000
0000
0000
1003
0000
0010
0000
0100
0000
,
0010
0001
1000
0100
0010
0100
0100
0002
,
1003
0100
0010
0001
0100
0020
0000
1030
,
0020
0000
0000
0000
0130
0000
0020
0000
0000
0000
0031
0000
0010
0000
1000
1000
,
0001
0010
0001
0000
1000
0001
1000
0001
1000
0000
0010
0000
0100
0000
0001
0100
,
0001
0000
0000
1000
0000
0000
0100
0000
0010
0000
0001
0000
1000
0000
0010
0000
0100
0000
0001
0000
0000
1000
0000
0000
,
0100
0010
0001
0100
1000
0100
0010
0100
,
0001
1000
0100
1000
0010
0100
0010
0001
,
0010
0100
0010
0000
1010
0000
1000
0010
,
0100
0000
0001
0100
0001
0000
0000
0000
0101
0000
0000
0000
0100
0000
0010
0000
,
1000
0000
0001
0010
0001
0000
1000
0000
0010
0100
0010
0000
1000
0000
0001
0000
,
0010
0100
0010
0000
0001
0000
0100
0000
0001
1000
0001
1000
0001
1000
0001
1000
,
0001
1000
0001
1000
0002
0000
0000
0000
2003
0000
0000
0000
3010
0000
0001
0000
,
0010
1000
0001
0010
0200
0000
0301
0100
,
1000
0010
0100
0001
2000
0000
3100
0001
,
0100
1000
0010
0100
0001
0001
1000
1000
,
0100
0010
0110
0000
0200
0000
1300
0010
,
0100
0000
0001
0000
1000
0000
0200
0000
0000
0000
0010
0000
0310
0000
0001
0010
,
0001
1000
0010
0100
0001
0010
1000
0010
,
0001
0100
1000
0100
0002
0000
1003
0100
,
0010
0000
0110
0000
0100
1000
0001
0100
,
0010
0000
1000
0000
0010
0100
0010
0000
1000
0000
0010
0000
0100
0000
0001
0000
,
1000
0000
0100
0000
0010
0100
0010
0000
0001
0000
1000
0000
0010
0000
0100
0000
,
0001
0000
1000
0000
0100
0000
0010
0000
0001
0010
0001
0000
1000
0001
1000
0000
,
0010
0100
0101
0000
0001
1000
0100
0001
,
1000
0010
0001
1000
0001
0100
1000
0001
,
0010
1000
0001
0010
0100
0100
0010
0001
,
1000
0000
1000
0000
0010
0000
0100
0000
0001
0100
0001
0000
1000
0001
1000
0000
,
0100
0010
0100
0010
0200
0000
0000
0000
1300
0000
0001
0000
0200
0000
0000
0000
,
0310
0000
1000
0000
0100
0000
0000
0000
0010
0000
0001
0010
0000
0010
0001
0000
,
1000
0000
0010
0000
0200
0000
0000
0000
0301
0000
1000
0000
0100
0100
0010
0000
,
0001
0000
1000
0000
1000
0000
0001
0100
0001
0000
1000
0001
1000
0001
1000
1000
,
0001
0001
0100
0000
0010
0000
2000
0000
0000
0000
3001
0010
0001
0000
1000
0000
,
0010
0200
0000
0301
1000
0200
0010
0010
,
0310
0001
1000
0010
0100
0001
0010
1000
,
0010
0000
0100
1000
0100
1000
0100
0000
0000
0010
0001
0000
0010
0000
0200
0000
,
0000
1300
0001
0100
0010
1000
1000
0001
,
0000
0000
0010
0000
0100
0000
0010
0000
0001
0000
1000
0000
0010
0000
0100
0010
,
0100
0001
1000
0100
0010
0100
0001
0100
,
0000
0010
0001
1000
0010
0100
0000
0110
,
0000
0010
1000
0010
0010
0100
0001
0100
,
0100
0001
1000
0100
0100
1000
0001
0100
,
0100
0000
0010
1000
0010
0000
0100
0000
0001
0000
0100
0001
0100
0000
0010
0000
,
1000
0000
0001
1000
0001
1000
0001
1000
0001
1000
0001
0000
0000
0000
1001
0000
,
0000
0220
0000
0000
0000
0000
0000
0330
;

//---------------dance-single - Kekkle-CSP----------------
#NOTES:
     dance-single:
     Kekkle:
     Challenge:
     18:
     :
0000
0000
0000
0000
,
0000
0000
0000
0000
,
0000
0000
0000
0000
,
0000
0000
0000
0000
,
0000
0000
0000
0000
,
0002
0000
0000
0000
0103
0000
0000
0000
0010
0000
0010
0000
0100
0001
1000
0100
,
0020
0000
0000
0000
0031
0000
0100
0000
0010
0000
0010
0000
1000
0010
0100
0001
,
2000
0000
3100
0001
0100
1000
0010
0000
,
1000
0010
0100
0010
1000
0001
0100
0000
0001
0000
1000
0001
0010
0000
0000
0000
,
0210
0000
0000
0000
1300
0000
0000
0000
0001
0000
0001
0000
1000
0100
0010
0001
,
0200
0000
0000
0000
0310
0000
1000
0000
0001
0000
0001
0000
0010
0100
1000
0001
,
0200
0000
0310
0001
0010
1000
0100
0000
,
0010
0001
1000
0010
0100
0001
1000
0100
1000
0000
0001
0100
0010
0000
0100
0000
,
0120
0000
1030
0001
0010
1000
0010
0000
,
0210
0000
1300
0001
0100
1000
0100
0000
,
1001
0000
0100
0010
1001
0000
1000
0010
,
0100
0001
1000
0010
1000
0100
0010
0000
0001
0000
1000
0010
0100
0000
0001
0000
,
0200
0000
0000
0310
1000
0001
0010
0100
,
0002
0000
0000
0000
0000
0103
0010
0001
,
0200
0000
0000
1300
0100
0001
0010
0100
,
2000
0000
3000
0110
,
1002
0000
0000
0013
0001
0010
1000
0010
,
0000
0000
0001
0000
0001
0000
1000
0010
0100
0000
0001
0000
0100
0000
0010
0000
,
1000
0100
0001
0100
1000
0010
0001
0010
,
0200
0000
0301
1000
0100
0000
0110
0010
,
0001
0000
1000
0000
0010
0100
0010
0000
1000
0000
0100
0010
0100
1000
0001
0000
,
0100
0000
0010
0000
1000
0010
0100
0000
0010
0000
0100
0001
1000
0100
0010
0000
,
0100
0000
1000
0000
0001
0100
0001
0000
0010
0000
0100
1000
0010
0000
1000
0000
,
0100
0000
0010
0000
0100
0000
1000
0000
1000
0000
0001
0010
0100
1000
0010
0000
,
0100
0000
0001
0000
1000
0000
0100
0000
0010
0000
1000
0010
0001
0000
0100
0000
,
0010
0000
1000
0000
0001
0000
0100
0000
0010
0000
0001
0010
1000
0000
1001
0000
,
0001
0000
0100
0000
0010
0000
1001
0000
1000
0000
0100
0000
0010
0000
0001
0100
,
0001
0010
0100
1000
0010
0000
0100
0001
1000
0100
0020
0000
0000
0000
0130
0000
,
1000
0000
0001
0000
0100
0000
0001
0010
0100
0010
0001
0100
0010
0000
2000
3020
,
0230
0302
1003
0100
1000
0000
0010
0100
0001
0100
0010
0000
1000
0000
0010
0100
,
0001
0000
1000
0000
0100
0000
0010
0001
0010
0000
0100
1000
0100
0010
0001
0100
,
0010
0100
0001
1000
0001
0010
0100
1000
0100
0000
0110
0000
0010
0000
0001
1000
,
0010
0000
0100
0000
0001
0000
1000
0001
0010
0000
0100
0000
0100
0000
1000
0001
,
0100
0000
0010
0000
1000
0000
0001
0010
0001
0000
1000
0100
0010
0000
0100
0000
,
1000
0010
0100
0000
0010
0000
1000
0100
0010
0000
0001
0100
0010
0100
0020
0230
,
0301
1000
0100
0010
0100
0001
0100
1000
0100
0000
0010
0000
0001
0000
1000
0000
,
1000
0000
0100
0000
0010
0001
0010
0100
1000
0001
1000
0000
0100
0000
1000
0000
,
0001
0001
0100
0100
0010
1000
0100
0001
,
0100
0000
0010
0000
0001
0000
0100
0000
0010
0000
1000
0001
0100
0000
0001
0000
,
1000
0100
0010
0100
1000
0001
0100
0000
1001
0000
0001
0000
0100
0000
1000
0000
,
0001
0010
1000
0001
1001
1000
0100
0001
,
1000
0000
0010
0000
0001
0000
1000
0000
0001
0100
0001
0100
0010
1000
0010
0100
,
0001
1000
0001
0010
0100
1000
0100
0010
0001
1000
0001
0100
0001
0010
0100
0010
,
0001
0100
0010
1000
0020
0000
0000
0000
1030
0000
0100
0000
0001
0000
0100
0000
,
1000
0001
0010
0100
0010
0001
1000
0100
,
0010
0010
0001
1000
0001
0010
1000
0010
,
0100
0000
0001
0000
0100
0000
1000
0000
0010
0000
0100
0001
0100
0000
0010
0000
,
1000
0000
0101
0000
1001
0000
0100
0001
,
1000
0000
0000
0000
0100
0000
0010
0000
0000
0000
0001
0010
0001
0000
1000
0000
,
0010
0000
0100
0000
0001
0000
0010
0000
0100
0000
1000
0001
0010
0000
0100
0000
,
1000
0000
0001
0100
0010
0000
1000
0000
1001
0000
0000
0000
1100
0000
0000
0000
,
0101
1000
0100
0010
0001
1000
0001
0100
,
0010
0000
0100
0000
0001
0010
0100
1000
0001
0000
0100
0000
0010
0000
1000
0000
,
0001
0000
0010
0000
0100
1000
0001
0010
0100
0000
1000
0000
0001
0000
0100
0000
,
0010
0000
1000
0000
0001
0100
0010
0000
1000
0100
1000
0010
0100
0001
1000
0000
,
0100
0000
0010
0100
0010
0000
0001
0000
1000
0000
0010
0000
0100
0000
1000
0000
,
0100
0000
0010
0000
0100
0001
0010
0100
1000
0000
0010
0000
1000
0000
0001
0000
,
0100
0000
0001
0000
0010
0100
1000
0001
0100
0000
0100
0000
0001
0000
1000
0000
,
0100
0000
0100
0000
1000
0000
0001
0000
0010
0001
0010
0100
1000
0001
1000
0100
,
0010
0001
0100
0001
2000
0000
0000
0000
3001
0000
0100
0000
0110
0000
0000
0000
,
0010
0000
1000
0000
1001
0000
0001
0000
0010
0000
0100
0010
0000
0010
0001
0000
,
1000
0010
0100
0010
1000
0000
0001
0000
1000
0000
0100
0000
2000
3002
0103
0010
,
1000
0000
0001
0000
0010
0000
0100
1000
0100
0010
0001
1000
0001
0100
0002
0023
,
0230
2300
3001
0000
0100
0000
0020
0000
0000
0000
1030
0001
0100
0000
0010
0000
,
0010
0000
1000
0100
0010
0000
0100
0000
1000
0001
0100
0000
0010
0000
0100
0000
,
0100
0000
0001
0000
1000
0000
0100
0000
0010
0000
0100
0000
1000
0000
0010
0100
,
0001
0000
1000
0100
1000
0001
0100
0001
0010
0100
1000
0000
0010
0100
0001
0000
,
1000
0000
0001
0000
0100
0000
0010
0000
2000
0000
0000
0000
3010
0000
1000
0100
,
1000
0100
0010
0000
0001
0000
0010
0000
0100
1000
0000
0001
0100
0000
0001
0010
,
0001
0010
0100
0000
1000
0000
0100
0000
0020
0000
0000
0000
0031
0000
1000
0010
,
1000
0010
0100
0010
0001
0010
0100
0001
1000
0000
0100
0010
0001
0010
0100
1000
,
0010
0100
0001
0100
0010
0001
0010
1000
,
0001
1000
0100
0001
0100
0010
0001
1000
,
0010
0000
0100
0001
1000
0100
0010
0001
0100
0000
0001
1000
0010
0100
0001
0010
,
0100
0000
0010
0001
1000
0100
0001
0100
1000
0001
0100
0000
0010
1000
0001
0000
,
0000
2002
0000
0000
0000
3003
0000
0000
;

//---------------dance-double - Kekkle-BDP----------------
#NOTES:
     dance-double:
     Kekkle:
     Easy:
     10:
     :
00000000
00000000
00000000
00000000
,
00000000
00000000
00000000
00000000
,
00000000
00000000
00000000
00000000
,
00000000
00000000
00000000
00000000
,
00000000
00000000
00000000
00000000
,
10000000
00010000
00100000
00100000
,
00010000
10000000
00100000
00100000
,
01000000
01000000
00001000
00001000
,
00010000
00000000
00001000
00000000
00010000
00001000
00010000
00000000
,
00000010
00001000
00000001
00000001
,
00000010
00000100
00001000
00001000
,
00000010
00000010
00010000
00010000
,
00001000
00000000
00010000
00000000
00001000
00010000
00001000
00000000
,
00011000
00000000
00000000
00000000
00010000
00001000
00010000
00000000
,
00011000
00000000
00000000
00000000
00001000
00010000
00001000
00000000
,
00011000
00000000
00011000
00000000
,
00001000
00000000
01000000
00000000
00100000
01000000
00100000
00000000
,
01000000
00000000
00010000
00010000
,
20000000
00000000
30000000
00000000
00000000
01000000
00100000
00000000
,
00010000
00000000
01000000
01000000
,
00002000
00003000
00000000
00010000
,
00010000
00000000
00000010
00000010
,
00000000
00000100
00000100
00000001
,
00001000
00000001
00001000
00000000
00000001
00001000
00000001
00000000
,
00001000
00000000
00001000
00000000
,
00000000
00000100
00000000
00010000
00000100
00010000
00000000
00001000
,
00000000
01000000
00000000
00010000
01000000
00010000
00000000
01000000
,
00000000
00100000
00000000
10000000
00010000
10000000
00000000
00010000
,
00000000
00100000
00000000
00001000
00000000
00001000
00000000
00010000
,
00000000
00000100
00000000
00000010
00000001
00000010
00000000
00000100
,
00000000
00001000
00000000
00000001
00001000
00000001
00000000
00001000
,
00000100
00001000
00000000
00000100
00010000
00000100
00000000
00010000
,
00000000
00001000
00000000
00010000
00001000
00010000
00000000
00001000
,
00000000
01000000
00010000
01000000
00000000
00100000
00000000
00000000
,
00000000
00000000
00000000
10000000
00000000
00010000
00000000
01000000
,
00000000
00010000
00000000
10000000
00010000
10000000
00000000
00010000
,
00000000
00100000
00000000
00001000
00000000
00010000
00000000
00000100
,
00000000
00001000
00000000
00000001
00000000
00001000
00000001
00001000
,
00000000
00000001
00000000
00000010
00000000
00000001
00000000
00000000
,
00001000
00000000
00000000
00000001
00000000
00000100
00000000
00000000
,
00000000
00000010
00001000
00000100
,
00010000
00001000
00100000
00010000
,
00100000
00001000
01000000
00100000
,
10000000
00010000
00100000
00001000
,
00010000
00001000
00010000
00000000
00011000
00000000
00000000
00000000
,
00001000
00010000
00001000
00000000
00011000
00000000
00000000
00000000
,
00010000
00001000
00010000
00000000
00011000
00000000
00000000
00000000
,
00011000
00000000
00001000
00010000
,
00000010
00001000
00000010
00000000
00000100
00000000
00000001
00000000
,
00001000
00001000
00000200
00000300
,
00000000
00010000
00000100
00000000
00010000
00000000
00001000
00000000
,
01000000
01000000
00010000
10000000
,
01000000
00100000
00001000
00000000
,
00010000
00010000
00000000
00001000
,
00001000
00000000
00010000
00000000
00000010
00000100
00000010
00000000
,
00000100
00000010
00000100
00000000
00000001
00000000
00001000
00000000
,
00000100
00010000
00000100
00000000
00010000
00000000
00001000
00000000
,
00010000
00001000
00010000
00000000
00001000
00000000
01000000
00000000
,
00100000
01000000
00100000
00000000
10000000
00000000
00010000
00000000
,
00100000
01000000
00100000
00000000
00010000
00000000
10000000
00010000
,
10000000
00010000
10000000
01000000
,
00100000
00010000
00100000
00000000
00001000
00000000
01000000
00000000
,
00001000
00010000
00001000
00000000
00010000
00000100
00010000
00000000
,
00000100
00000010
00000100
00000000
00001000
00000000
00000001
00000000
,
00001000
00000001
00001000
00000000
00000010
00000000
00000100
00000000
,
00000001
00000001
00001000
00000010
,
00010000
00001000
00010000
00000000
00001000
00000000
00000000
00000000
,
00000000
00000000
00000000
01000000
00000000
00100000
00000000
00000000
,
00000000
00000000
00000000
10000000
00000000
00010000
00000000
00000000
,
00000000
00100000
00000000
00001000
00000000
00010000
00001000
00010000
,
00000000
00000010
00000000
00001000
00000000
00000010
00000000
00000100
,
00000000
00000001
00000000
00001000
00000000
00000001
00001000
00000001
,
00000000
00001000
00000000
00000100
00000000
00010000
00000000
00000100
,
00000000
00010000
00000000
00001000
00000000
01000000
00000000
00100000
,
00000000
10000000
00000000
00010000
00000000
10000000
00000000
00010000
,
00000000
00100000
00000000
00001000
00000000
00010000
00001000
00010000
,
00000000
00011000
00000000
00000000
00000000
00001000
00010000
00001000
,
00000000
00011000
00000000
00000000
00000000
00010000
00001000
00010000
,
00000000
00011000
00000000
00000000
00000000
00011000
00000000
00000000
,
00000000
00010000
00000010
00010000
00000010
00010000
00000000
00000010
,
00000000
00000110
00000000
00000000
00000000
00000000
00000000
00000000
;

//---------------dance-double - Kekkle-DDP----------------
#NOTES:
     dance-double:
     Kekkle:
     Medium:
     14:
     :
00000000
00000000
00000000
00000000
,
00000000
00000000
00000000
00000000
,
00000000
00000000
00000000
00000000
,
00000000
00000000
00000000
00000000
,
00000000
00000000
00000000
00000000
,
00000001
00000000
00001000
00000000
00000010
00010000
00001000
00010000
,
00000010
00000000
00010000
00000000
00001000
00100000
00010000
00100000
,
00001000
00100000
00010000
10000000
,
00010000
01000000
00100000
10000000
00010000
10000000
00010000
00000000
,
10010000
00000000
10000000
00000000
01000000
00100000
00010000
00100000
,
01000000
00000000
00100000
00000000
00010000
00100000
00001000
00100000
,
00010000
00100000
00001000
00010000
,
00000010
00001000
00000010
00000100
00000001
00001000
00000001
00000000
,
00001001
00000000
00000000
00001000
00000010
00010000
00001000
00010000
,
00011000
00000000
00000000
00001000
00100000
00010000
00100000
01000000
,
01100000
00010000
10010000
10000000
,
00100000
01000000
00001000
00010000
00001000
00010000
00001000
00000000
,
00020000
00000000
00000000
00030010
00001000
00000010
00000100
00000001
,
00000200
00000000
00000000
00000000
00000300
00000010
00001000
00000010
,
00020000
00000000
00000000
00031000
00100000
00010000
00100000
01000000
,
00200000
00000000
00300000
01100000
,
20010000
00000000
00000000
30100000
01000000
00001000
00010000
00000100
,
00000000
00001000
00001000
00000100
00000010
00000001
00001000
00000010
,
00010000
00001000
00010000
00000010
00010000
00001000
00100000
00010000
,
00200000
00000000
00000000
01300000
10000000
00000000
10010000
00010000
,
01000000
00001000
00010000
00000100
00010000
00000010
00001000
00000001
,
00000100
00000001
00000010
00000100
00001000
00000100
00010000
00000010
,
00010000
00001000
00100000
00010000
10000000
00100000
01000000
00001000
,
01000000
00000000
00010000
00000000
00100000
00000000
00001000
00000000
00100000
00000000
00001000
00010000
00001000
00000000
00010000
00000000
,
00000010
00001000
00000010
00010000
00000100
00001000
00000100
00000010
,
00000100
00001000
00000001
00000100
00000010
00010000
00000100
00010000
,
00001000
00100000
00001000
00010000
00000010
00010000
00001000
00100000
,
00010000
00000000
00100000
00000000
01000000
00000000
10000000
00010000
10000000
00010000
10000000
00000000
00000000
00000000
10010000
00000000
,
00000000
00000000
00010000
00000000
01000000
00000000
00001000
00000000
00010000
00000000
00000100
00000000
00000000
00000000
00000010
00000010
,
00000100
00000100
00002000
00000000
00000000
00000000
00003001
00000000
00000000
00000000
00001000
00000000
00000000
00000000
00000010
00000000
,
00010000
00001000
00100000
00001000
00000000
00100000
00010000
00100000
,
01000000
10000000
00010000
10000000
00000000
00020000
00000000
01030000
,
00001000
00010000
00000100
00010000
00000000
00001000
00010000
00000010
,
00000000
00000100
00000001
00001000
00000000
00001001
00000000
00000000
,
00010010
00000000
00000000
00000000
00000000
00000000
00011000
00000000
00000000
00000000
00001000
00000000
01000000
00000000
00100000
00100000
,
10000000
00000000
00010000
00000000
00100000
00000000
01000000
00100000
01000000
00000000
00000000
00000000
10000000
00000000
00010000
00000000
,
01000000
00001000
01000000
00010000
00100000
00001000
00100000
00010000
,
01000000
00001000
00010000
00000010
00001000
00000010
00010000
00000010
,
00001000
00000100
00000010
00000001
00001000
00000010
00010000
00000010
,
00001000
00000100
00010000
00000000
00011000
00000000
00001000
01000000
,
00010000
00100000
00001000
00000000
00011000
00000000
00010000
00000010
,
00001000
00000100
00010000
00000000
00011000
00000000
01000000
00000000
,
00011000
00000000
00000100
00000000
00010000
00001000
00100000
01000000
,
10000000
00010000
10000000
00010000
10000000
00000000
00000000
00000000
00020000
00000000
00000000
00000000
01030000
00000000
00001000
00000000
,
00010000
00000010
00001000
00000100
00000020
00000000
00000000
00000000
,
00000030
00000001
00001000
00000010
00020000
00000000
00031000
00100000
,
00001000
01000000
00100000
10000000
00010000
00100000
01000000
00100000
,
00001000
00000000
00010000
00001000
00010000
00000000
00000000
00000000
00002000
00000000
00000000
00000000
00013000
00000000
00000010
00000000
,
00001000
00000010
00000100
00000001
00000000
00001000
00001000
00000001
,
00000010
00000100
00000010
00000001
00001000
00000010
00010000
00000010
,
00001000
00000100
00010000
00001000
01000000
00010000
00100000
01000000
,
10000000
00010000
10000000
00010000
10000000
00000000
00000000
00000000
00010000
00000000
01000000
00000000
00001000
00000000
00100000
00000000
,
00001000
00010000
00000100
00001000
00000010
00010000
00000100
00001000
,
00000001
00000100
00000010
00001000
00000100
00010000
00000010
00010000
,
00001000
00100000
00010000
01000000
00001000
01000000
00100000
10000000
,
00010000
00000000
10000000
00010000
10000000
00000000
00000000
00000000
00020000
00000000
00000000
00000000
00130000
00000000
00001000
00000000
,
00010000
00000010
00000100
00000000
00000020
00000000
00001030
00000001
,
00001000
00000100
00010000
00000000
00001000
01000000
00100000
00000000
,
10000000
00010000
01000000
00000000
00010000
01000000
00001000
00010000
,
00001000
00010000
00001000
00000000
00020000
00000000
00000000
00000000
00030010
00000000
00000000
00000000
00000200
00000000
00000000
00000000
,
00000301
00000000
00001000
00000000
00000100
00000000
00000000
00000000
00010000
00000000
00000000
00010000
00000000
00000000
00010000
00000000
,
00001000
00000000
01000000
00000000
00010000
00000000
00000000
00000000
00100000
00000000
00000000
00000000
01000000
01000000
10000000
00000000
,
00010000
00000000
01000000
00000000
00000000
00000000
00010000
00000000
01000000
00000000
00100000
00000000
01000000
00000000
00001000
00001000
,
00010000
00010000
00000100
00000000
00001000
00000000
00000002
00000000
00000000
00000000
00000103
00000000
00000000
00000000
00000010
00000000
,
00010000
00001000
00000000
00010000
00001000
00100000
00001000
00010000
,
00000000
00001000
01000000
00010000
00100000
01000000
00100000
00010000
,
00000000
00000000
10000000
00010000
10000000
00010000
10000000
00000000
00000000
00000000
00010000
00000000
01000000
00000000
00002000
00000000
,
00000000
00013000
00000000
00000010
00001000
00000010
00010000
00000010
,
00001000
00000100
00000010
00000001
00000100
00000010
00010000
00000010
,
00001000
00000100
00010000
00001000
01000000
00010000
00100000
00001000
,
00100000
00000000
00010000
00000000
00100000
00000000
01000000
00000000
10000000
00000000
00010000
10000000
00010000
00000000
10000000
00000000
,
00000000
10010000
00000000
00010000
01000000
00001000
00010000
00000010
,
00000000
00001001
00000000
00001000
00000010
00010000
00001000
00100000
,
00000000
01000000
10000000
00010000
01000000
00001000
00100000
00010000
,
00000000
00000000
00100000
00000000
00001000
00000000
00010000
00000000
00000010
00000000
00001000
00000001
00001000
00000001
00001000
00000000
,
00000000
00001001
00000000
00000000
00000000
00000000
00000000
00000000
;

//---------------dance-double - Kekkle-EDP----------------
#NOTES:
     dance-double:
     Kekkle:
     Hard:
     17:
     :
00000000
00000000
00000000
00000000
,
00000000
00000000
00000000
00000000
,
00000000
00000000
00000000
00000000
,
00000000
00000000
00000000
00000000
,
00000000
00000000
00000000
00000000
,
00000001
00000000
00000100
00000000
00000010
00000000
00010000
00000000
00000010
00000000
00001000
00000000
00000100
00001000
00000100
00000000
,
00010000
00000000
00001000
00000000
01000000
00000000
00010000
00000000
01000000
00000000
00100000
00000000
10000000
00010000
10000000
00000000
,
01000000
00100000
00010000
00100000
00001000
01000000
00001000
00010000
,
00000100
00001000
00000010
00010000
00001000
00000000
00011000
00000000
,
00010000
00000000
00000100
00000000
00001000
00000000
00000010
00000000
00001000
00000000
00000001
00000000
00000100
00000001
00000100
00000000
,
00000010
00000000
00010000
00000000
00000100
00000000
00010000
00000000
00001000
00000000
00100000
00000000
00010000
00100000
00010000
00000000
,
10000000
01000000
00100000
01000000
10000000
00010000
01000000
00100000
,
01000000
00001000
00010000
00000100
00010000
00001000
00000010
00000100
,
00020000
00000000
00031000
01000000
00100000
10000000
00010000
00100000
,
00002000
00000000
00013000
00000100
00000010
00000100
00010000
00000010
,
00000200
00000000
00001300
00010000
00200000
00000000
01300000
00010000
,
10000000
01000000
10000000
00000000
00010000
00100000
00010000
00100000
00001000
00000000
00000000
00000000
00011000
00000000
00000000
00000000
,
00010020
00000000
00000000
00001030
00000001
00000010
00001000
00010000
,
00002000
00000000
00000000
00000000
00000000
01003000
00010000
10000000
,
02000000
00000000
00000000
03010000
00001000
00010000
01000000
00100000
,
00002000
00000000
00003000
00011000
,
00010020
00000000
00000000
00000130
00000001
00000100
00001000
00010000
,
00000000
00000000
00000100
00000000
00000100
00000000
00010000
00000100
00010000
00000000
00001000
00000000
01000000
00000000
00010000
00000000
,
10000000
01000000
00010000
01000000
10000000
01000000
00010000
00001000
,
00020000
00000000
00000000
00030010
00000100
00000000
00001001
00000001
,
00000100
00001000
00010000
00000010
00001000
00000100
00010000
01000000
,
00100000
00001000
01000000
00010000
10000000
00100000
00010000
00001000
,
01000000
00001000
00000100
00000001
00001000
00000100
00000010
00001000
,
00010000
00000000
01000000
00000000
00100000
00000000
00001000
00000000
01000000
00000000
00100000
01000000
00100000
01000000
00100000
00000000
,
10000000
00010000
00100000
01000000
00010000
00001000
00000010
00010000
,
00100000
00001000
00010000
00000010
00000100
00010000
00001000
00000010
,
00000010
00000000
00010000
00000000
00010000
00000000
00001000
00000000
00001000
00000000
00100000
00000000
00100000
00000000
00010000
10000000
,
00010000
00000000
01000000
00001000
01000000
00000000
00001000
00010000
00001000
00010000
00002000
00000000
00000000
00000000
01003000
00000000
,
00100000
00000000
00010000
00000000
00001000
00000000
00010000
00100000
00010000
00100000
10000000
00000000
00000000
00000000
00010000
00010000
,
01000000
01000000
00001000
00010000
00001000
00000000
00010000
00000000
00000100
00000000
00000010
00000000
00000001
00000000
00000100
00001000
,
00000100
00000000
00010000
00000000
00001000
00000000
00000010
00010000
00000010
00000000
00010000
00000000
00001000
00000000
00010000
00000000
,
01000000
00000000
10000000
00010000
10000000
00010000
10000000
00000000
00000000
00000000
00020000
00000000
00000000
00000000
01030000
00000000
,
00100000
00000000
00010000
00000000
00000010
00000000
00001000
00000100
00001000
00000000
00000001
00000000
00000100
00000000
00001000
00000100
,
00001000
00010000
00001000
00000100
00000000
00002000
00000000
00013000
,
00200000
00000000
00000000
00000000
10300000
00000000
00010000
00000000
00000000
00000000
10000000
00010000
10000000
00010000
10000000
10000000
,
01000000
00010000
01000000
00010000
00001000
00010000
00001000
00010000
00002000
00000000
00000000
00000000
00013000
00000000
00000010
00000000
,
00000100
00000000
00000000
00001000
00000000
00000000
00010000
00000000
00000100
00000000
00001000
00000000
00000100
00000000
00000010
00000000
00000001
00000000
00001000
00000000
00000000
00000010
00000000
00000000
,
00000100
00001000
01000000
00010000
00100000
01000000
00010000
00001000
,
00100000
01000000
10000000
00100000
00010000
00000010
00001000
00000001
,
00000010
00001000
00010000
00001000
00011000
00000000
00010000
01000000
,
10000000
00100000
00010000
00000000
00011000
00000000
00001000
00000100
,
00000001
00000000
00000010
00000000
00001000
00000000
00000000
00000000
00010000
00001000
00010000
00000000
01000000
00000000
00100000
00000000
,
00001000
00010000
00001000
00000000
00000100
00000000
00000010
00000000
00010000
00001000
00010000
00001000
00010000
00001000
00010000
00001000
,
00010000
00001000
00010000
00001000
00020000
00000000
00000000
00000000
00032000
00000000
00000000
00000000
01003000
00000000
00010000
00000000
,
00100000
10000000
00100000
00010000
02000000
00000000
00000000
00000000
,
03001000
00010000
00001000
00000100
00000002
00000000
00001003
00000100
,
00000010
00000000
00001000
00000000
00010000
00000000
00000010
00000000
00001000
00000100
00001000
00000000
00000010
00010000
00000010
00000000
,
00010000
00000000
00001000
00010000
00001000
00000000
00000000
00000000
00021000
00000000
00000000
00000000
01030000
00000000
00100000
00000000
,
00001000
00000000
01000000
00000000
00100000
00000000
10000000
00000000
00000000
00000000
00010000
00000000
00010000
00000000
01000000
00010000
,
01000000
00001000
00010000
00000100
00001000
00000100
00000001
00000100
,
00001000
00000000
00000100
00000000
00000001
00000000
00000100
00000000
00001000
00000100
00001000
00000000
00000100
00010000
00000100
00000000
,
00010000
00001000
00010000
00001000
00010000
00000000
00000000
00000000
00001000
00000000
01000000
00000000
00010000
00000000
00100000
00000000
,
10000000
00000000
00100000
00000000
00010000
00100000
00010000
00000000
01000000
00000000
00001000
00000000
00010000
00000000
00000010
00000000
,
00000100
00000000
00000001
00000000
00001000
00000010
00001000
00000000
00000010
00000000
00010000
00000000
00001000
00000000
00000100
00000000
,
00001000
00000000
01000000
00000000
00010000
00000000
00100000
00000000
01000000
10000000
01000000
10000000
00010000
01000000
00010000
00000000
,
01000000
00000000
00001000
00010000
00001000
00000000
00000000
00000000
00011000
00000000
00000000
00000000
00010000
00000000
01000000
00000000
,
10000000
00100000
00010000
00000000
00011000
00000000
00001000
00000100
,
00000001
00000010
00001000
00000000
00011000
00000000
01000000
00000000
,
00011000
00000000
00000000
00000000
00000100
00000000
00000000
00000000
00010000
00001000
00010000
00001000
01000000
00010000
01000000
00000000
,
00100000
00000000
10000000
00010000
10000000
00000000
00000000
00000000
10010000
00000000
00000000
00000000
00010000
00000000
00100000
00000000
,
00001000
00000000
00000010
00000000
00000100
00000000
00000000
00000000
00001000
00000000
00000001
00000100
00000000
00000001
00000100
00000000
,
00000010
00000000
00010000
00000000
00001000
00000000
00000000
00000000
01000000
00000000
00100000
00000000
10000000
10000000
00010000
00000000
,
01000000
00000000
00001000
00000000
00000100
00000000
00000010
00010000
00000010
00010000
00001000
00010000
00001000
00000000
00000100
00000100
,
00000010
00000010
00001000
00000000
00000001
00000000
00000020
00000000
00000000
00000000
00001030
00000000
00010000
00000000
01000000
00000000
,
00000000
20000000
00000000
30100000
00010000
00002000
00010000
00010000
,
00013000
00000100
00000010
00001000
00010000
00000010
00000100
00000001
,
00000100
00000000
00001000
00000000
00010000
00000000
00000010
00000000
00010000
00001000
00010000
00000000
00001000
00000000
00001000
00000000
,
00000000
00011000
00000000
00010000
01000000
00100000
10000000
00100000
,
00001000
01000000
00001000
00010000
00100000
00001000
00000010
00010000
,
00000100
00001000
00000100
00000001
00001000
00000010
00000100
00010000
,
00001000
00000000
01000000
00000000
00100000
00000000
00010000
00000000
00100000
00000000
10000000
00010000
01000000
00000000
00010000
00100000
,
00001000
00011000
00000000
00010000
00100000
10000000
01000000
00010000
,
00010000
00011000
00000000
00001000
00000010
00000001
00000100
00001000
,
00001000
00000000
00010000
00100000
00010000
00100000
10000000
00100000
10000000
00000000
01000000
00010000
01000000
00010000
00001000
00010000
,
00001000
00000000
00010000
00001000
00010000
00001000
00010000
00001000
00010000
00001000
00010000
00000000
00000000
00000000
00011000
00000000
,
00000000
00022000
00000000
00000000
00000000
00033000
00000000
00000000
;

//---------------dance-double - Kekkle-CDP----------------
#NOTES:
     dance-double:
     Kekkle:
     Challenge:
     18:
     :
00000000
00000000
00000000
00000000
,
00000000
00000000
00000000
00000000
,
00000000
00000000
00000000
00000000
,
00000000
00000000
00000000
00000000
,
00000000
00000000
00000000
00000000
,
10000000
00000000
00000000
00000000
10000000
00000000
00000000
00000000
00010000
00000000
00100000
00000000
00001000
00010000
00000010
00000000
,
00000100
00000000
00000000
00000000
00000100
00000000
00000000
00000000
00000001
00000000
00001000
00000000
00000100
00010000
00001000
01000000
,
00002000
00000000
01003000
00000000
01000000
00100000
10000000
00000000
,
00010000
01000000
00001000
01000000
00010000
00000000
00100000
00000000
00001000
00000000
00001000
00010000
00001000
00000000
00000000
00000000
,
00010000
00000000
00000000
00000000
00010000
00000000
00000000
00000000
00000100
00000000
00001000
00000000
00000001
00000100
00000010
00000000
,
00001000
00000000
00000000
00000000
00001000
00000000
00000000
00000000
00000100
00000000
00010000
00000000
00001000
01000000
00100000
10000000
,
00200000
00000000
10300000
00000000
10000000
00010000
00100000
00000000
,
00001000
00010000
00000010
00010000
00001000
00000000
00010000
00000000
00001000
00000000
00001000
00010000
00001000
00000000
00000000
00000000
,
00011000
00000000
00010000
01000000
10000000
00100000
00010000
00001000
,
00011000
00000000
00010000
00001000
00000100
00000001
00000010
00001000
,
00012000
00000000
01003000
00001000
00021000
00000000
00030100
00010000
,
00001000
01000000
00010000
00100000
00010000
10000000
01000000
00000000
00100000
00000000
00001000
00100000
00001000
00000000
00010000
00000000
,
00000020
00000000
00000000
00000130
00001000
01000000
00010000
00100000
,
20000000
00000000
00000000
00000000
00000000
30100000
00001000
00010000
,
00000020
00000000
00000000
00000130
00001000
00010000
00000100
00000001
,
00000200
00000000
00000300
00011000
,
20010000
00000000
00000000
30010000
01000000
00100000
00001000
00000020
,
00000000
00000000
00001000
00000000
00001030
00000000
00000100
00001000
00000001
00000000
00000100
00000000
00001000
00000000
01000000
00000000
,
00010000
00100000
10000000
00100000
00001000
00010000
00100000
00010000
,
00000020
00000000
00001030
00000010
00010000
00000000
00011000
00001000
,
01000000
00010000
00100000
10000000
00010000
00001000
00010000
01000000
,
00100000
00001000
00000010
00000100
00010000
00001000
00000010
00000001
,
00001000
00000010
00010000
00100000
01000000
00001000
00010000
00100000
,
10000000
00000000
00010000
00000000
00100000
00000000
00001000
00000000
00001000
00000000
00010000
00001000
00010000
00000000
00001000
00000000
,
01000000
00100000
00001000
00000010
00001000
00010000
10000000
01000000
,
00010000
00000100
00000010
00001000
00010000
00001000
00000100
00000001
,
00000001
00000000
00001000
00000000
00001000
00000000
00010000
00000000
00010000
00000000
10000000
00000000
10000000
00000000
00010000
00100000
,
00001000
00010000
00000100
00000000
00001000
00000000
00000001
00000100
00000010
00000100
00000002
00000000
00000000
00000000
00000103
00000000
,
00000000
00000000
00000010
00000000
00000100
00000000
00001000
00000000
00010000
00000000
01000000
00100000
00010000
00000000
20000000
32000000
,
03020000
00032000
00003010
00000001
00001000
00000000
00000002
00000000
00000000
00000000
00000103
00000000
00000000
00000000
00000010
00000000
,
00000010
00000000
00010000
00000000
00001000
00000000
01000000
00000000
01000000
00000000
00100000
10000000
00010000
01000000
00001000
00010000
,
00001000
00000000
00010000
00000010
00000100
00000000
00000001
00000000
00000000
00000000
00002000
00000000
00000000
00000000
00003010
00000000
,
00000010
00000000
00010000
00000000
00001000
00000000
00100000
00000000
00000000
00000000
00010000
00000000
00010000
00000000
10000000
01000000
,
00100000
00001000
01000000
00001000
00010000
00011000
00000000
00000100
,
00011000
00000000
00000000
00000000
01000000
00000000
00011000
00000000
00000000
00000000
00001000
00010000
00000010
00000100
00000002
00002003
,
00003010
00010000
00001000
00000000
00100000
00010000
10000000
00000000
00020000
00000000
00000000
00000000
10030000
00000000
01000000
00000000
,
00010000
00001000
00100000
00001000
00000010
00000100
00010000
00001000
,
00000010
00000001
00001000
00000010
00001000
00100000
00010000
00001000
,
00000100
00000001
00001000
00010000
00001000
00000010
00010000
00100000
,
00010000
00001000
00100000
00000000
00011000
00000000
00001000
00000100
,
00000001
00000010
00001000
00010000
00011000
00000000
00001000
00010000
,
01000000
00000000
10000000
00000000
00100000
00000000
01000000
00000000
00010000
01000000
00001000
00000000
00010000
00000100
00000010
00000000
,
00000001
00001000
00000010
00000000
00010000
00001000
01000000
00000000
00100000
10000000
00010000
01000000
00001000
00010000
00000100
00000000
,
00010000
00001000
01000000
00000000
00200000
00000000
00000000
00000000
10300000
00000000
01000000
00000000
00010000
00000000
00001000
00000000
,
00000100
00000010
00000100
00001000
00000100
00000001
00001000
00000010
,
00010000
00001000
00010000
00100000
10000000
00100000
00010000
10000000
,
01000000
00000000
00100000
00000000
01000000
00000000
00010000
00000000
00100000
00000000
01000000
10000000
01000000
00000000
00100000
00000000
,
00001000
00000000
00101000
00000000
00011000
00000000
00001000
00000100
,
00000010
00000000
00000000
00000000
00010000
00000000
00001000
00000000
00000000
00000000
00010000
00001000
00010000
00000000
00000100
00000000
,
00001000
00000000
00000001
00000000
00000100
00000000
00000010
00000000
00001000
00000000
00000001
00000100
00000001
00000000
00000010
00000000
,
00000100
00000000
00010000
00001000
00010000
00000000
00001000
00000000
00101000
00000000
00000000
00000000
01010000
00000000
00000000
00000000
,
01100000
10000000
01000000
00010000
00001000
00010000
01000000
00100000
,
10000000
00000000
00100000
00000000
01000000
00100000
00001000
00000000
00010000
00000000
00001000
00000000
00000100
00000000
00000010
00000000
,
00000001
00000000
00000010
00000000
00000100
00000010
00010000
00000000
00000100
00000000
00000010
00000000
00001000
00000000
00000001
00000000
,
00000100
00000000
00010000
00000000
00001000
00000000
00010000
00000000
00100000
01000000
00010000
00000000
10000000
01000000
00100000
00000000
,
00001000
00100000
00010000
00000000
01000000
00100000
00010000
00001000
,
00010000
00000000
00100000
00000000
10000000
00010000
01000000
00001000
00010000
00000000
00000100
00000000
00001000
00000000
00000100
00000000
,
00000010
00000000
00000001
00000000
00001000
00000010
00010000
00001000
01000000
00000000
00010000
00000000
10000000
00000000
01000000
00000000
,
00010000
00000000
10000000
00000000
00100000
00000000
00001000
00000000
00010000
00001000
00000010
00000100
00001000
00000000
00000001
00000000
,
00001000
00000100
00010000
00000000
00002000
00000000
00000000
00000000
01003000
00000000
00000000
00000000
00200000
00000000
00000000
00000000
,
10300000
00000000
01000000
00000000
00010000
00000000
00000000
00000000
00001000
00000000
00000000
00011000
00000000
00000000
00010010
00000000
,
00000010
00000000
00001000
00000001
00000200
00000000
00000000
00000000
00000310
00000000
00010000
00000000
00002000
00023000
01030000
00000000
,
10000000
00000000
01000000
00000000
00010000
00000000
00001000
00010000
01000000
00000000
00100000
00001000
00010000
00000100
00000020
00000032
,
00000203
00002300
00013000
00000000
00000000
00000000
00020000
00000000
00000000
00000000
00030010
00000000
00001000
00000000
00000001
00000000
,
00000100
00020000
00000000
00031000
00100000
10000000
01000000
00020000
,
00000000
00031000
00000000
00100000
00001000
00000010
00000001
00001000
,
00000000
00000000
00000010
00000100
00001000
00010000
00000100
00000000
00010000
00001000
00000000
00000000
00100000
00000000
02000000
00000000
,
00000000
00000000
13000000
00000000
00010000
00000000
00100000
00000000
00002000
00000000
00000000
00000000
00103000
00000000
00001000
00010000
,
00001000
00010000
00001000
00000000
00010000
00000000
00000100
00000000
00001000
00000001
00000000
00000100
00000010
00000000
00000100
00000001
,
00000100
00000001
00000100
00000000
00000010
00000000
00001000
00000000
00000002
00000000
00000000
00000000
00000013
00000000
00000100
00001000
,
00000100
00001000
00000100
00000010
00000001
00000100
00000010
00000000
00010000
00000000
00001000
00010000
01000000
10000000
00020000
00000000
,
00000000
01030000
00001000
00000100
00000001
00000100
00010000
01000000
,
00000000
00001000
00100000
10000000
00100000
00001000
00000010
00001000
,
00000000
00000000
00100000
00001000
00010000
00000000
00000010
00001000
00000001
00000000
00000100
00000010
00010000
00000000
00001000
01000000
,
00100000
00000000
10000000
00010000
01000000
00001000
00010000
00001000
00000100
00000001
00001000
00000000
00000010
00010000
00001000
00000000
,
00000000
00022000
00000000
00000000
00000000
00033000
00000000
00000000
;
