#TITLE:はんぶんこ花火;
#ARTIST:ハッピーくるくる;
#TITLETRANSLIT:Hanbunko Hanabi;
#ARTISTTRANSLIT:Happy Kuru Kuru;
#BANNER:Hanbunko Hanabi.png;
#BACKGROUND:Hanbunko Hanabi-bg.png;
#MUSIC:Hanbunko Hanabi.ogg;
#SAMPLESTART:14.762;
#SAMPLELENGTH:15;
#BPMS:0=126;

//---------------dance-single - Kekkle-CSP----------------
#NOTES:
     dance-single:
     Kekkle:
     Challenge:
     14:
     0.609184,0.746553,0.452273,0.218060,0.407853,528,472,56,27,0,0,0.609184,0.746553,0.452273,0.218060,0.407853,528,472,56,27,0,0:
0000
0000
0000
0000
,
0000
0000
0000
0000
,
0000
0000
0000
0000
,
0000
0000
0000
0000
0000
0000
0001
0100
,
0002
0000
1003
0100
0020
0000
0031
0100
,
0020
0000
1030
0001
2000
0000
3100
1000
,
0002
0000
0103
0001
0010
0100
1000
0001
,
0001
0100
0010
1000
0001
0000
1000
0001
,
0010
0000
0010
0000
0001
0000
0100
0000
0010
0000
0010
0100
0010
0000
1000
0000
,
0001
0000
0001
1000
0001
0000
1000
0000
0100
0000
0100
0010
0001
0000
0000
0000
,
1000
0000
1000
0000
0001
0000
0100
0000
0010
0000
0010
1000
0010
0000
0100
0000
,
0001
0000
0001
1000
0001
0000
1000
0000
0100
0010
0001
1000
0000
0000
0000
0000
,
0001
0000
0001
0000
0100
0000
0010
0000
1000
0000
1000
0001
1000
0000
0001
0000
,
0010
0000
0010
0100
0010
0000
0100
0000
1000
0000
1000
0010
0100
0000
0000
0000
,
0001
0000
0001
0000
0100
0000
0010
0000
1000
0000
1000
0001
1000
0000
0100
0000
,
0010
0001
1000
0100
0010
0000
0001
0000
0001
0000
1000
0010
0200
0300
0200
0300
,
1001
0000
0000
1001
0000
0000
0001
0000
0101
0000
0100
0010
1000
0000
0001
0000
,
1001
0000
0000
1001
0000
0000
1000
0000
1100
0000
0100
1000
0001
0000
0000
0000
,
0101
0000
0000
0101
0000
0000
1000
0000
1010
0000
0010
0100
0001
0000
1000
0000
,
1100
0000
0000
1100
0000
0000
0001
0000
0010
0001
1000
0100
0000
0000
0010
0001
,
1001
0000
0000
1100
0000
0000
0001
0000
0101
0000
0100
0010
1000
0000
0001
0000
,
1001
0000
0000
0101
0000
0000
1000
0000
1100
0000
0100
0010
0001
0000
0000
0000
,
0101
0000
0000
1010
0000
0000
1000
0000
1100
0000
0100
1000
0001
0000
1000
0000
,
0001
0000
0000
0100
0000
0000
0010
0000
0000
1000
0000
0000
0001
0000
0000
0000
0100
0000
0000
0000
0010
0000
0000
0000
1001
0000
0000
0000
0000
0000
0000
0000
0000
1000
0000
0000
0001
0000
0000
0000
0000
0000
1000
0000
0000
0000
0000
0000
,
0100
0000
0100
0010
0001
0000
0001
0100
,
0010
0000
0010
0100
1000
0000
1000
0100
,
0001
0000
0001
0100
0010
1000
0100
1000
,
0001
0010
0100
0000
0100
0000
0100
1000
,
0001
0000
0001
0100
1000
0000
1000
0100
,
0010
0000
0010
1000
0001
0000
0001
1000
,
0100
0000
0100
1000
0010
1000
0001
0100
,
0001
0000
0000
0000
1001
0000
0000
0000
1000
0010
0100
0000
0100
0000
0000
0000
,
0102
0000
1003
0000
1200
1000
0310
0000
,
0011
0000
0000
0001
0000
0001
0100
0000
0100
0010
0000
0010
1000
0000
0000
0001
0000
0000
1000
0000
0000
0000
0000
0000
,
2100
0000
3001
0000
0201
0001
0310
0000
,
1010
0000
0000
1000
0000
1000
0100
0000
0100
0010
0000
0010
0001
0000
0000
0100
0000
0000
0020
0000
0000
0030
0000
0000
,
2010
0000
0000
0000
0000
0000
3001
0000
0000
0000
0000
0000
0011
0000
0000
0001
0000
0100
0010
0000
0000
0010
0000
0000
,
1010
0000
0000
1000
0000
1000
0001
0000
0001
0010
0000
0010
0100
0000
0000
1000
0000
0001
0100
0000
0000
0100
0000
0000
,
0010
0000
1000
0100
0000
0000
0100
0000
0000
0010
0000
0001
0100
0001
0100
0010
0000
0010
1000
0000
1000
0001
0000
0001
,
1000
0000
0100
0010
0000
0000
0010
0000
0000
0001
0000
1000
0000
0000
1000
0001
0000
0000
1001
0000
0000
0000
0000
0000
,
0102
0003
1100
0000
1100
0010
0101
0000
,
1001
0000
0000
1000
0000
1000
0001
0000
0001
0010
0000
0010
0100
0000
0000
1000
0000
0000
1001
0000
0000
0000
0000
0000
,
0012
0003
1010
0000
1010
0100
0011
0000
,
1001
0000
0000
1000
0000
1000
0100
0000
0000
0001
0000
0001
0100
0000
0100
1000
0000
0000
1001
0000
0000
0000
0000
0000
,
0101
0000
0000
0100
0000
0010
0000
0000
0000
0010
0000
0000
1000
0000
0000
0001
0000
0010
0000
0000
0000
0010
0000
0000
,
0100
0000
0000
1000
0000
1000
0001
0000
0001
0100
0000
0100
0010
0000
0000
1000
0000
0001
1000
0000
0000
1000
0000
0000
,
1001
0000
0000
0001
0000
0010
0000
0000
0000
0010
0000
0000
0100
0000
0000
1000
0000
0010
0000
0000
0000
0010
0000
0000
,
0100
0000
0100
0001
0000
0001
1000
0000
1000
0100
0000
0010
0000
0000
0010
0001
0000
0000
1001
0000
0000
0000
0000
0000
,
0101
0000
1010
0000
1000
0010
1000
0002
,
0003
0000
0011
0000
0010
0001
1000
0200
,
0000
0000
1300
0001
0100
0010
1000
0200
,
0300
0000
0000
1000
0000
1000
0000
0000
0000
0001
0000
0001
0000
0000
0100
0010
0000
0000
0110
0000
0000
0000
0000
0000
,
1001
0000
0000
0000
0000
0001
0000
0000
0000
0001
0000
0000
1000
0000
0000
0010
0000
0100
0001
0000
0000
0001
0000
0000
,
0010
0000
0000
0000
0000
0100
0000
0000
0000
0100
0000
0000
1000
0000
0001
1000
0000
1000
0001
0000
0000
0010
0000
0000
,
0100
0000
0000
0000
0000
1000
0000
0000
0000
1000
0000
0000
0001
0000
0000
0010
0000
0001
1000
0000
0000
1000
0000
0000
,
0001
0100
0001
0100
0000
0010
1000
0000
0000
0010
0000
0100
0000
0000
0100
0010
0000
0000
0110
0000
0000
0000
0000
0000
,
1002
0000
0103
0010
2000
0000
3001
0100
,
0020
0000
1030
0001
2000
0000
3100
0010
,
0002
0000
0103
0001
0010
0001
1000
0100
,
1000
0000
0000
0001
0000
0001
0000
0000
0000
1000
0000
1000
0000
0000
0010
0100
0000
0000
0110
0000
0000
0000
0000
0000
,
1001
0000
0000
0000
0000
1000
0000
0000
0000
1000
0000
0000
0002
0000
0000
0000
0000
0103
0000
0000
0000
0100
0000
0000
,
0020
0000
0000
0000
0000
1030
0000
0000
0000
1000
0000
0000
0100
0000
0010
0000
0000
0010
0000
0000
0000
0010
0000
0000
,
0002
0000
0000
0000
0000
0103
0000
0000
0000
0100
0000
0000
0001
0000
0000
1000
0000
0100
0000
0000
0000
0100
0000
0000
,
1000
0100
1000
0001
0020
0000
0030
0000
;

//---------------dance-single - Kekkle-ESP----------------
#NOTES:
     dance-single:
     Kekkle:
     Hard:
     10:
     0.416507,0.435919,0.161526,0.185755,0.008076,361,341,20,23,0,0,0.416507,0.435919,0.161526,0.185755,0.008076,361,341,20,23,0,0:
0000
0000
0000
0000
,
0000
0000
0000
0000
,
0000
0000
0000
0000
,
0000
0000
0000
0000
,
0002
0000
0103
0010
1000
0000
1000
0001
,
0020
0000
0130
1000
0001
0000
0001
1000
,
0002
0000
0103
0001
0010
0100
1000
0001
,
0001
1000
0100
1000
0010
0000
1000
0001
,
0200
0000
0301
1000
0100
0000
0100
1000
,
0002
0000
0013
0100
1000
0000
1000
0001
,
2000
0000
3100
1000
0010
1000
0001
0100
,
0001
0000
1000
0000
0020
0000
0000
0000
0130
0000
0000
0100
0000
0000
0000
0000
,
0002
0000
1003
0001
0100
0000
0100
0010
,
2000
0000
3010
1000
0100
0000
0100
1000
,
0002
0000
1003
0100
0010
0100
1000
0001
,
0001
0100
0010
0100
0110
0000
0001
1000
,
0100
0000
0100
0010
0001
0000
0001
0100
,
0020
0000
2030
0000
3001
0000
0001
1000
,
0100
0000
0100
1000
0001
0000
0001
0100
,
0020
0000
0000
0000
0000
0000
0000
0000
0130
0000
0000
0100
0000
0000
0000
0000
,
0001
0000
0001
1000
0100
0000
0100
1000
,
0002
0000
0023
0000
0130
0000
1000
0001
,
0100
0000
0100
0001
0010
0000
0010
0001
,
1000
0010
0100
0001
1000
0000
1000
0010
,
0100
0100
0001
0001
,
1000
1000
0010
0010
,
1000
1000
0001
0001
,
0100
0100
0010
0010
,
1000
0000
0001
0100
0001
0000
1000
0100
,
1000
0000
0001
0010
0001
0000
1000
0100
,
1000
0000
0001
0100
0001
0000
1000
0010
,
1000
0001
0200
0300
,
1001
0000
0001
0000
0100
0010
1000
0000
,
0001
0010
0100
1000
0100
0010
0001
0000
,
1001
0000
1000
0000
0001
0010
0100
0000
,
1000
0010
0100
0001
0100
0010
1000
0000
,
1001
0000
0001
0000
0100
0010
1000
0000
,
1001
0000
1000
0000
0100
0010
0001
0000
,
0100
0001
1000
0100
0010
0010
0100
0100
,
1000
1000
1000
1001
,
0101
0000
0101
0000
0100
0010
1000
0000
,
0001
0010
0100
0010
0001
1000
0100
0000
,
1100
0000
1100
0000
1000
0001
0010
0000
,
0001
0100
0010
0100
0010
1000
0001
0000
,
0011
0000
0011
0000
0010
0001
1000
0000
,
0001
1000
0100
1000
0010
0100
0010
0000
,
1010
0000
1010
0000
1000
0001
0100
0000
,
0001
0010
0100
0010
0001
1000
1001
0000
,
0201
0000
0310
0000
1000
0010
1000
0100
,
0000
0000
0020
0000
0031
1000
0001
0200
,
0000
0000
0301
1000
0001
0010
0001
0200
,
0000
0310
0000
0010
0000
1000
1001
0000
,
0021
0000
0130
0000
1000
0010
1000
0001
,
0000
0000
0020
0000
0031
1000
0100
2000
,
0000
0000
3001
0100
0001
0010
0100
1000
,
0001
0001
0001
1001
,
1000
0000
1000
0001
0100
0000
0100
0001
,
0010
0000
0010
0100
1000
0000
1000
0001
,
0010
0000
0010
0001
0010
0100
1000
0001
,
0100
0010
0000
0010
0000
1000
1001
0000
,
0001
0000
0001
1000
0100
0000
0100
1000
,
0010
0000
0010
1000
0001
0000
0001
0100
,
0010
0000
0010
1000
0010
0100
0001
1000
,
1000
0100
0010
0001
1000
0000
0000
0000
;

//---------------dance-double - Kekkle-CDP----------------
#NOTES:
     dance-double:
     Kekkle:
     Challenge:
     14:
     0.604569,0.746553,0.428044,0.226137,0.403815,524,471,53,28,0,0,0.604569,0.746553,0.428044,0.226137,0.403815,524,471,53,28,0,0:
00000000
00000000
00000000
00000000
,
00000000
00000000
00000000
00000000
,
00000000
00000000
00000000
00000000
,
00000000
00000000
00000000
00000000
,
20000000
00000000
30010000
01000000
00002000
00000000
00013000
00000100
,
00000020
00000000
00000031
00001000
00000200
00000000
00010300
00001000
,
00200000
00000000
00301000
00010000
00000010
00010000
00001000
01000000
,
01000000
00001000
00010000
01000000
00100000
00000000
00010000
10000000
,
00100000
00000000
00100000
00000000
01000000
00000000
00001000
00000000
00010000
00000000
00010000
00000100
00010000
00000000
00001000
00000000
,
01000000
00000000
01000000
00100000
01000000
00000000
00001000
00000000
00010000
00000000
00010000
00000010
00000100
00000000
00000000
00000000
,
00000001
00000000
00000001
00000000
00001000
00000000
00000100
00000000
00010000
00000000
00010000
00001000
00010000
00000000
00001000
00000000
,
01000000
00000000
01000000
00010000
01000000
00000000
00010000
00000000
10000000
01000000
00100000
00001000
00000000
00000000
00000000
00000000
,
01000000
00000000
01000000
00000000
00001000
00000000
00010000
00000000
00000100
00000000
00000100
00001000
00000100
00000000
00000010
00000000
,
00000001
00000000
00000001
00001000
00000001
00000000
00000100
00000000
00000010
00000000
00000010
00010000
00001000
00000000
00000000
00000000
,
01000000
00000000
01000000
00000000
00001000
00000000
00100000
00000000
00010000
00000000
00010000
10000000
00010000
00000000
00100000
00000000
,
00001000
00010000
00000010
00000100
00000001
00000000
00001000
00000000
00001000
00000000
00000001
00000100
00000020
00000030
00000020
00000030
,
00001001
00000000
00000000
00010100
00000000
00000000
00010000
00000000
00011000
00000000
00001000
01000000
00100000
00000000
10000000
00000000
,
10100000
00000000
00000000
01001000
00000000
00000000
00001000
00000000
00011000
00000000
00010000
00000100
00000010
00000000
00000000
00000000
,
00000011
00000000
00000000
00010100
00000000
00000000
00010000
00000000
00011000
00000000
00001000
00100000
01000000
00000000
10000000
00000000
,
11000000
00000000
00000000
00101000
00000000
00000000
00001000
00000000
00010000
00000010
00000100
00000001
00000000
00000000
00001000
00000001
,
00000101
00000000
00000000
00001100
00000000
00000000
00010000
00000000
00011000
00000000
00001000
01000000
00100000
00000000
10000000
00000000
,
11000000
00000000
00000000
01010000
00000000
00000000
00001000
00000000
00011000
00000000
00010000
00000100
00000010
00000000
00000000
00000000
,
00000011
00000000
00000000
00001010
00000000
00000000
00010000
00000000
00011000
00000000
00001000
00100000
01000000
00000000
10000000
00000000
,
00010000
00000000
00000000
01000000
00000000
00000000
00001000
00000000
00000000
00010000
00000000
00000000
00000100
00000000
00000000
00000000
00000010
00000000
00000000
00000000
00000001
00000000
00000000
00000000
00001001
00000000
00000000
00000000
00000000
00000000
00000000
00000000
00000000
00001000
00000000
00000000
00000100
00000000
00000000
00000000
00000000
00000000
00010000
00000000
00000000
00000000
00000000
00000000
,
00001000
00000000
00001000
01000000
00010000
00000000
00010000
01000000
,
00100000
00000000
00100000
10000000
01000000
00000000
01000000
00010000
,
00001000
00000000
00001000
01000000
00100000
10000000
01000000
10000000
,
00010000
00100000
00001000
00000000
00001000
00000000
00010000
00001000
,
00010000
00000000
00010000
00000100
00001000
00000000
00001000
00000100
,
00000010
00000000
00000010
00000001
00000100
00000000
00000100
00001000
,
00010000
00000000
00010000
00000100
00000010
00000001
00000100
00000001
,
00001000
00000000
00000000
00000000
00010100
00000000
00000000
00000000
00000100
00010000
00001000
00000000
00001000
00000000
00000000
00000000
,
02001000
00000000
03100000
00000000
20010000
00010000
31000000
00000000
,
01100000
00000000
00000000
01000000
00000000
01000000
00010000
00000000
00010000
00001000
00000000
00001000
00000010
00000000
00000000
00000100
00000000
00000000
00001000
00000000
00000000
00000000
00000000
00000000
,
00010200
00000000
00000310
00000000
00001002
00001000
00000103
00000000
,
00000110
00000000
00000000
00000100
00000000
00000100
00001000
00000000
00001000
00010000
00000000
00010000
00100000
00000000
00000000
01000000
00000000
00000000
00020000
00000000
00000000
00030000
00000000
00000000
,
20010000
00000000
00000000
00000000
00000000
00000000
31000000
00000000
00000000
00000000
00000000
00000000
00110000
00000000
00000000
00100000
00000000
00001000
00010000
00000000
00000000
00010000
00000000
00000000
,
00000010
00000000
00000000
00000100
00000000
00000100
00000001
00000000
00000001
00000100
00000000
00000100
00001000
00000000
00000000
00010000
00000000
00001000
00010000
00000000
00000000
00010000
00000000
00000000
,
00001000
00000000
00001000
01000000
00000000
00000000
01000000
00000000
00000000
00010000
00000000
00010000
10000000
01000000
10000000
01000000
00000000
01000000
00010000
00000000
00010000
00001000
00000000
00001000
,
01000000
00000000
00001000
00010000
00000000
00000000
00010000
00000000
00000000
00000010
00000000
00000100
00000000
00000000
00000100
00000010
00000000
00000000
00001001
00000000
00000000
00000000
00000000
00000000
,
00010020
00000030
00101000
00000000
01001000
00001000
00010100
00000000
,
00000110
00000000
00000000
00000010
00000000
00000010
00000001
00000000
00000001
00000100
00000000
00000100
00001000
00000000
00000000
00010000
00000000
00000000
00011000
00000000
00000000
00000000
00000000
00000000
,
00201000
00300000
00010010
00000000
00010100
00010000
01001000
00000000
,
01100000
00000000
00000000
00100000
00000000
00100000
10000000
00000000
00000000
00100000
00000000
00100000
00010000
00000000
00010000
00001000
00000000
00000000
00011000
00000000
00000000
00000000
00000000
00000000
,
00010100
00000000
00000000
00000100
00000000
00000010
00000000
00000000
00000000
00000010
00000000
00000000
00000001
00000000
00000000
00000100
00000000
00001000
00000000
00000000
00000000
00001000
00000000
00000000
,
00010000
00000000
00000000
00100000
00000000
00100000
10000000
00000000
10000000
00010000
00000000
00010000
00100000
00000000
00000000
00001000
00000000
00010000
00001000
00000000
00000000
00001000
00000000
00000000
,
00011000
00000000
00000000
00010000
00000000
00000010
00000000
00000000
00000000
00000010
00000000
00000000
00000100
00000000
00000000
00000001
00000000
00000010
00000000
00000000
00000000
00000010
00000000
00000000
,
00001000
00000000
00001000
00010000
00000000
00010000
01000000
00000000
01000000
10000000
00000000
00010000
00000000
00000000
00010000
01000000
00000000
00000000
01100000
00000000
00000000
00000000
00000000
00000000
,
10010000
00000000
00101000
00000000
00001000
00100000
00001000
00020000
,
00030000
00000000
00010010
00000000
00000010
00010000
00001000
00000200
,
00000000
00000000
00000301
00000100
00000001
00000010
00000100
00020000
,
00030000
00000000
00000000
00001000
00000000
00001000
00000000
00000000
00000000
00010000
00000000
00010000
00000000
00000000
00001000
00010000
00000000
00000000
00011000
00000000
00000000
00000000
00000000
00000000
,
00001000
00000000
00000000
01000000
00000000
00100000
00000000
00000000
00000000
00100000
00000000
00000000
10000000
00000000
00000000
01000000
00000000
00010000
00000000
00000000
00000000
00010000
00000000
00000000
,
00001000
00000000
00000000
00100000
00000000
00001000
00000000
00000000
00000000
00001000
00000000
00000000
00010000
00000000
00000010
00000100
00000000
00000100
00000010
00000000
00000000
00001000
00000000
00000000
,
00000001
00000000
00000000
00000010
00000000
00001000
00000000
00000000
00000000
00001000
00000000
00000000
00010000
00000000
00000000
00000010
00000000
00000100
00000000
00000000
00000000
00000100
00000000
00000000
,
00001000
00010000
00001000
00010000
00000000
01000000
10000000
00000000
00000000
00010000
00000000
01000000
00000000
00000000
01000000
00100000
00000000
00000000
01100000
00000000
00000000
00000000
00000000
00000000
,
20010000
00000000
30010000
01000000
00002000
00000000
00013000
00000100
,
00000020
00000000
00000031
00001000
00000200
00000000
00010300
00001000
,
00200000
00000000
00301000
00010000
00000010
00010000
00001000
01000000
,
00001000
00000000
00000000
00010000
00000000
00010000
00000000
00000000
00000000
00001000
00000000
00001000
00000000
00000000
00010000
00001000
00000000
00000000
00011000
00000000
00000000
00000000
00000000
00000000
,
00020000
00000000
00000000
00000000
00000000
00030010
00000000
00000000
00000000
00000010
00000000
00000000
00000200
00000000
00000000
00000000
00000000
00000301
00000000
00000000
00000000
00000001
00000000
00000000
,
00000020
00000000
00000000
00000000
00000000
00001030
00000000
00000000
00000000
00001000
00000000
00000000
00010000
00000000
00000100
00000000
00000000
00000100
00000000
00000000
00000000
00000100
00000000
00000000
,
00020000
00000000
00000000
00000000
00000000
01030000
00000000
00000000
00000000
01000000
00000000
00000000
00100000
00000000
00000000
00001000
00000000
00000000
01000000
00000000
00000000
00010000
00000000
00000000
,
00010000
10000000
01000000
10000000
00200000
00000000
00300000
00000000
;

//---------------dance-double - Kekkle-EDP----------------
#NOTES:
     dance-double:
     Kekkle:
     Hard:
     10:
     0.395739,0.384634,0.137297,0.226137,0,343,326,17,28,0,0,0.395739,0.384634,0.137297,0.226137,0,343,326,17,28,0,0:
00000000
00000000
00000000
00000000
,
00000000
00000000
00000000
00000000
,
00000000
00000000
00000000
00000000
,
00000000
00000000
00000000
00000000
,
00000002
00000000
00000103
00000010
00001000
00000000
00001000
00000100
,
00000020
00000000
00000130
00010000
00001000
00000000
00001000
01000000
,
00200000
00000000
01300000
00010000
00100000
01000000
10000000
00010000
,
00010000
01000000
00001000
00010000
00000100
00000000
00010000
00000100
,
00002000
00000000
00003001
00001000
00000100
00000000
00000100
00001000
,
00000020
00000000
00000130
00000001
00001000
00000000
00001000
00000100
,
00000020
00000000
00000130
00001000
00000010
00010000
00000100
00010000
,
00001000
01000000
00020000
00000000
00030000
00000000
10000000
00000000
,
20000000
00000000
30010000
10000000
01000000
00000000
01000000
10000000
,
00200000
00000000
01300000
00001000
00010000
00000000
00010000
00001000
,
00200000
00000000
00301000
00010000
00000010
00001000
00000001
00000100
,
00000100
00000010
00010000
00001000
00010000
00000000
00001000
00100000
,
01000000
00000000
01000000
00100000
00010000
00000000
00010000
01000000
,
00020000
00000000
00230000
00000000
01300000
00000000
10000000
00010000
,
01000000
00000000
01000000
00001000
00010000
00000000
00010000
00001000
,
00200000
00000000
00000000
00000000
00300000
00000000
00001000
00010000
,
00000100
00000000
00000100
00001000
00000001
00000000
00000001
00001000
,
00000002
00000000
00000023
00000000
00000130
00000000
00001000
00000001
,
00000100
00000000
00000100
00000010
00010000
00000000
00010000
00001000
,
02000000
00000000
00100000
00000000
03100000
00000000
10000000
00010000
,
00100000
00100000
00001000
00001000
,
00010000
00010000
00000010
00000010
,
00000100
00000100
00000001
00000001
,
00001000
00002000
00003000
00000010
,
00000010
00000000
00010000
00000010
00010000
00000000
00001000
00100000
,
00001000
00000000
00010000
00000100
00010000
00000000
00001000
01000000
,
00001000
00000000
00010000
00000010
00010000
00000000
00001000
01000000
,
00001000
01000000
00020000
00030000
,
10010000
00000000
00010000
00000000
01000000
00001000
00010000
00000000
,
00000100
00000000
00001000
00000001
00000100
00000010
00001000
00000000
,
00001001
00000000
00001000
00000000
00000100
00010000
00001000
00000000
,
00100000
00000000
00010000
00100000
01000000
10000000
00010000
00000000
,
10010000
00000000
10000000
00000000
00010000
01000000
00001000
00000000
,
00011000
00000000
00010000
00000000
00000010
00000100
00000001
00000000
,
00001000
00000010
00010000
00000000
00001000
01000000
00010000
00000000
,
10000000
10000000
10000000
10010000
,
00110000
00000000
00110000
00000000
00100000
00001000
00010000
00000000
,
00001000
00010000
00000010
00000000
00001000
00000010
00000100
00000000
,
00000101
00000000
00000101
00000000
00000001
00001000
00000100
00000000
,
00001000
00000100
00010000
00000000
00001000
01000000
00010000
00000000
,
01010000
00000000
01010000
00000000
01000000
00100000
10000000
00000000
,
00010000
00100000
00001000
00000000
00010000
00000100
00001000
00000000
,
00001100
00000000
00001100
00000000
00000100
00000010
00000001
00000000
,
00001000
00000010
00010000
00000000
00000010
00010000
00011000
00000000
,
00002000
00000000
02003000
00000000
03010000
00100000
00010000
01000000
,
00000000
00000000
00200000
00000000
10300000
00010000
10000000
02000000
,
00000000
00000000
03010000
00001000
01000000
00100000
01000000
00002000
,
00000000
00000000
00003000
00011000
,
00020000
00000000
00030200
00000000
00001300
00000010
00001000
00000100
,
00000000
00000000
00000020
00000000
00000031
00001000
00000001
00000200
,
00000000
00000000
00000301
00001000
00000100
00000010
00000100
00010000
,
00001000
00001000
00001000
00011000
,
00020000
00000000
00031000
01000000
00010000
00000000
00010000
01000000
,
00100000
00000000
00100000
10000000
00010000
00000000
00010000
01000000
,
00100000
00000000
00100000
10000000
00100000
01000000
00010000
01000000
,
00001000
00010000
00000000
00010000
00000000
00010000
00011000
00000000
,
00010000
00000000
00010000
00000100
00001000
00000000
00001000
00000100
,
00000010
00000000
00000010
00000001
00001000
00000000
00001000
00000001
,
00000010
00000000
00000010
00000001
00000010
00000100
00001000
00000100
,
00000100
00010000
00001000
00010000
00001000
00000000
00000000
00000000
;

//---------------dance-single - Kekkle-DSP----------------
#NOTES:
     dance-single:
     Kekkle:
     Medium:
     7:
     0.298823,0.333349,0.064610,0.121145,0,259,251,8,15,0,0,0.298823,0.333349,0.064610,0.121145,0,259,251,8,15,0,0:
0000
0000
0000
0000
,
0000
0000
0000
0000
,
0000
0000
0000
0000
,
0000
0000
0000
0000
,
1000
0000
0001
0100
0001
0000
1000
0000
,
0001
0000
0010
0001
0010
0000
0001
0000
,
1000
0000
0010
0100
0010
0000
0100
0000
,
0200
0000
0300
0000
,
0001
0000
1000
0100
1000
0000
0001
0000
,
0100
0000
0010
0100
0010
0000
1000
0000
,
0001
0000
0010
0001
0010
0000
0001
0000
,
0100
0200
0300
0010
,
0010
0000
1000
0100
1000
0000
0001
0000
,
0100
0000
0010
0100
0010
0000
1000
0000
,
0001
0000
0100
0001
0100
0000
0010
0000
,
0020
0000
0030
1000
,
1000
0000
0001
0010
0001
0000
0100
0000
,
0010
0010
0010
1000
,
0001
0000
1000
0100
1000
0000
0100
0000
,
0020
0000
0030
0001
,
0100
0000
0010
1000
0010
0000
1000
0000
,
0100
0100
0100
0010
,
0001
0000
1000
0010
1000
0000
0010
0000
,
0020
0000
0030
0000
,
0100
0100
0010
0010
,
0100
0100
0010
0000
,
1000
1000
0001
0001
,
1000
2000
3000
0000
,
0100
0100
0010
0010
,
0100
0100
0010
0000
,
0001
0001
1000
1000
,
0002
0000
0003
0000
,
0110
0000
0010
0000
1000
0001
1000
0000
,
0001
0000
0010
0000
0100
0010
0100
0000
,
0110
0000
1000
0000
0001
1000
0001
0000
,
1000
0000
0010
0000
0100
0010
0100
0000
,
0101
0000
0001
0000
1000
0100
1000
0000
,
1100
0000
1000
0000
0001
0100
0001
0000
,
0100
0100
0010
0010
,
0200
0000
0000
0310
,
1001
0000
0001
0000
1000
0010
1000
0000
,
0100
0000
0010
0000
0001
1000
0001
0000
,
1001
0000
1000
0000
0001
0010
0001
0000
,
1000
0000
0010
0000
0100
0010
0100
0000
,
0110
0000
0001
0000
1000
0010
1000
0000
,
0100
0000
0010
0000
0001
1000
0001
0000
,
0110
0000
1000
0000
0001
0010
0001
0000
,
1000
0000
0010
0000
0100
0010
0100
0000
,
0001
0000
0001
0000
1000
0100
1000
0100
,
0000
0000
0010
0000
0001
1000
0001
2000
,
0000
0000
3010
0000
0100
0001
0100
0002
,
0000
0000
0000
1003
,
0001
0000
1000
0000
0001
0100
0001
0100
,
0000
0000
0020
0000
1030
0001
1000
0002
,
0000
0000
1003
0000
0100
0010
0100
0020
,
0000
0000
0000
0130
,
1000
0000
0001
0100
0001
0000
1000
0000
,
0001
0000
1000
0010
1000
0000
0001
0000
,
1000
0000
0100
0010
0100
0000
1000
0000
,
0001
0002
0000
0103
,
0010
0000
1000
0100
1000
0000
0001
0000
,
1000
0000
0001
0010
0001
0000
1000
0000
,
0010
0000
0100
0010
0100
0000
0010
0000
,
0020
0000
0030
0000
;

//---------------dance-double - Kekkle-DDP----------------
#NOTES:
     dance-double:
     Kekkle:
     Medium:
     7:
     0.280363,0.333349,0.040382,0.113068,0,243,238,5,14,0,0,0.280363,0.333349,0.040382,0.113068,0,243,238,5,14,0,0:
00000000
00000000
00000000
00000000
,
00000000
00000000
00000000
00000000
,
00000000
00000000
00000000
00000000
,
00000000
00000000
00000000
00000000
,
10000000
00000000
00010000
01000000
00010000
00000000
00100000
00000000
,
00001000
00000000
00010000
00001000
00010000
00000000
00000000
00000000
,
00000100
00000000
00000010
00000001
00000010
00000000
00000001
00000000
,
00000002
00000000
00000003
00000000
,
00001000
00000000
00000010
00010000
00000010
00000000
00010000
00000000
,
00001000
00000000
00100000
00001000
00100000
00000000
00000000
00000000
,
00010000
00000000
10000000
00100000
10000000
00000000
00010000
00000000
,
01000000
02000000
03000000
00001000
,
00001000
00000000
00010000
00000100
00010000
00000000
00000100
00000000
,
00000010
00000000
00000001
00001000
00000001
00000000
00000000
00000000
,
00000100
00000000
00000010
00010000
00000010
00000000
00010000
00000000
,
00020000
00000000
00030000
00000000
,
00001000
00000000
01000000
00010000
01000000
00000000
00010000
00000000
,
10000000
10000000
10000000
00000000
,
01000000
00000000
00100000
00010000
00100000
00000000
00001000
00000000
,
00002000
00000000
00003000
00010000
,
00010000
00000000
00000010
00001000
00000010
00000000
00000100
00000000
,
00000001
00000001
00000001
00000000
,
00001000
00000000
00000100
00000010
00000100
00000000
00010000
00000000
,
00020000
00000000
00030000
00000000
,
00001000
00001000
00010000
00010000
,
00001000
00001000
00010000
00000000
,
00100000
00100000
01000000
01000000
,
00100000
00200000
00300000
00000000
,
00010000
00010000
00001000
00001000
,
00010000
00010000
00001000
00000000
,
00000010
00000010
00000100
00000100
,
00000020
00000000
00000030
00000000
,
00001001
00000000
00000001
00000000
00001000
00000010
00001000
00000000
,
00000010
00000000
00010000
00000000
00001000
00010000
00001000
00000000
,
00011000
00000000
00001000
00000000
00100000
00010000
00100000
00000000
,
01000000
00000000
10000000
00000000
00010000
10000000
00010000
00000000
,
10010000
10000000
00010000
00010000
,
00100000
00001000
00010000
00010000
,
00000010
00000010
00000100
00000100
,
00000020
00000000
00000000
00000130
,
00001001
00000000
00000001
00000000
00001000
00000010
00001000
00000000
,
00000010
00000000
00010000
00000000
00000100
00001000
00000100
00000000
,
00010100
00000000
00010000
00000000
00001000
01000000
00001000
00000000
,
00100000
00000000
00010000
00000000
00100000
01000000
00100000
00000000
,
00010000
00010000
10000000
10000000
,
01000000
00000000
01000000
00000000
00100000
00010000
00100000
00000000
,
00001000
00001000
00010000
00010000
,
00000010
00000010
00000100
00000100
,
00000001
00000000
00000001
00000000
00001000
00000100
00001000
00000100
,
00000000
00000000
00010000
00000000
00001000
01000000
00001000
02000000
,
00000000
00000000
03100000
00000000
10000000
00010000
10000000
00020000
,
00000000
00000000
00000000
10030000
,
00010000
00000000
00010000
00000000
01000000
00001000
01000000
00001000
,
00000000
00000000
00010000
00000000
00000010
00001000
00000010
00002000
,
00000000
00000000
00003001
00000000
00000010
00000001
00000010
00000002
,
00000000
00000000
00000000
00001003
,
00000010
00000000
00010000
00001000
00010000
00000000
00001000
00000000
,
00100000
00000000
01000000
00100000
01000000
00000000
00000000
00000000
,
00010000
00000000
10000000
00100000
10000000
00000000
00010000
00000000
,
00100000
00200000
00000000
00310000
,
01000000
00000000
00001000
00010000
00001000
00000000
00010000
00000000
,
00000010
00000000
00000100
00000010
00000100
00000000
00000000
00000000
,
00000001
00000000
00001000
00000010
00001000
00000000
00000010
00000000
,
00020000
00000000
00030000
00000000
;

//---------------dance-single - Kekkle-BSP----------------
#NOTES:
     dance-single:
     Kekkle:
     Easy:
     5:
     0.216906,0.230780,0.024229,0.056534,0,188,185,3,7,0,0,0.216906,0.230780,0.024229,0.056534,0,188,185,3,7,0,0:
0000
0000
0000
0000
,
0000
0000
0000
0000
,
0000
0000
0000
0000
,
0000
0000
0000
0000
,
0001
1000
0010
0000
,
1000
0001
0100
0000
,
0001
0010
0010
0100
,
2000
0000
3000
0000
,
0001
1000
0010
0000
,
1000
0010
0100
0000
,
0010
1000
0010
0100
,
0001
0001
0000
0000
,
1000
0100
0010
0000
,
0001
1000
0100
0000
,
0010
0001
0010
0100
,
0100
0000
0000
1000
,
1000
0001
0100
0001
,
0010
0010
0010
0000
,
0001
1000
0010
0100
,
0020
0000
0030
0000
,
0100
0001
1000
0100
,
0010
0010
0010
0000
,
0001
1000
0010
1000
,
0200
0000
0300
0000
,
0010
0010
0001
0000
,
1000
1000
0010
0000
,
0100
0100
0010
0010
,
0100
0200
0300
0000
,
0001
0001
0100
0000
,
0010
0010
1000
0000
,
0100
0100
0010
0010
,
0200
0000
0300
0000
,
1000
0001
1000
1000
,
0010
0100
0010
0010
,
1000
0001
1000
1000
,
0100
0010
0100
0100
,
1000
1000
0001
0000
,
0001
0001
1000
0000
,
0010
0010
0100
0100
,
0020
0000
0000
0030
,
1000
1000
0100
0000
,
0010
0010
0001
0100
,
0010
0010
1000
0000
,
0010
0010
0100
0100
,
0001
0001
1000
0000
,
0100
0100
0010
0001
,
0100
0100
0010
0000
,
1000
1000
0001
0001
,
0100
0100
0010
0010
,
0000
1000
0001
0001
,
0000
1000
1000
0100
,
0010
0000
0000
1001
,
0001
0100
0010
0010
,
0000
1000
0001
0001
,
0000
0100
0100
0010
,
1000
0000
0000
1001
,
0001
1000
0010
0000
,
1000
0001
0100
0000
,
0001
0010
0010
0100
,
1000
0001
0000
1001
,
1000
0001
0010
0000
,
0001
1000
0100
0000
,
1000
0010
0010
0100
,
0020
0000
0030
0000
;

//---------------dance-double - Kekkle-BDP----------------
#NOTES:
     dance-double:
     Kekkle:
     Easy:
     5:
     0.216906,0.230780,0.024229,0.056534,0,188,185,3,7,0,0,0.216906,0.230780,0.024229,0.056534,0,188,185,3,7,0,0:
// measure 0
00000000
00000000
00000000
00000000
,  // measure 1
00000000
00000000
00000000
00000000
,  // measure 2
00000000
00000000
00000000
00000000
,  // measure 3
00000000
00000000
00000000
00000000
,  // measure 4
00000001
00001000
00000100
00000000
,  // measure 5
00000010
00000100
00001000
00000000
,  // measure 6
00000100
00010000
00010000
00001000
,  // measure 7
02000000
00000000
03000000
00000000
,  // measure 8
00100000
10000000
00010000
00000000
,  // measure 9
01000000
00001000
00010000
00000000
,  // measure 10
00001000
00010000
00000100
00000010
,  // measure 11
00000100
00000100
00000000
00000000
,  // measure 12
00001000
00000001
00000100
00000000
,  // measure 13
00000010
00010000
00001000
00000000
,  // measure 14
00010000
00001000
00100000
01000000
,  // measure 15
01000000
00000000
00000000
10000000
,  // measure 16
10000000
00010000
01000000
00001000
,  // measure 17
00010000
00010000
00010000
00000000
,  // measure 18
00000100
00001000
00000001
00000100
,  // measure 19
00000020
00000000
00000030
00000000
,  // measure 20
00001000
00000001
00000100
00000010
,  // measure 21
00010000
00010000
00010000
00000000
,  // measure 22
00001000
01000000
00100000
10000000
,  // measure 23
02000000
00000000
03000000
00000000
,  // measure 24
00100000
00100000
00001000
00000000
,  // measure 25
00010000
00010000
00000010
00000000
,  // measure 26
00010000
00010000
00001000
00001000
,  // measure 27
00010000
00020000
00030000
00000000
,  // measure 28
00001000
00001000
01000000
00000000
,  // measure 29
00001000
00001000
00010000
00000000
,  // measure 30
00000100
00000100
00010000
00010000
,  // measure 31
00002000
00000000
00003000
00000000
,  // measure 32
01000000
00010000
01000000
01000000
,  // measure 33
00001000
00010000
00001000
00001000
,  // measure 34
00010000
00000100
00001000
00001000
,  // measure 35
00000001
00001000
00000001
00000001
,  // measure 36
00001000
00001000
00000100
00000000
,  // measure 37
00010000
00010000
00001000
00000000
,  // measure 38
01000000
01000000
00100000
00100000
,  // measure 39
02000000
00000000
00000000
03000000
,  // measure 40
00010000
00010000
10000000
00000000
,  // measure 41
01000000
01000000
00100000
00001000
,  // measure 42
00010000
00010000
00001000
00000000
,  // measure 43
00010000
00010000
00000010
00000100
,  // measure 44
00000001
00000001
00000100
00000000
,  // measure 45
00000010
00000010
00010000
00001000
,  // measure 46
00010000
00010000
00001000
00000000
,  // measure 47
01000000
01000000
00100000
10000000
,  // measure 48
00010000
00010000
00100000
00100000
,  // measure 49
00000000
00001000
00001000
00010000
,  // measure 50
00000000
00000010
00000010
00001000
,  // measure 51
00000001
00000000
00000000
00001001
,  // measure 52
00001000
00001000
00000010
00000010
,  // measure 53
00000000
00010000
00010000
00001000
,  // measure 54
00000000
01000000
01000000
00100000
,  // measure 55
10000000
00000000
00000000
10010000
,  // measure 56
00010000
10000000
00100000
00000000
,  // measure 57
10000000
00010000
01000000
00000000
,  // measure 58
00001000
00010000
00000100
00000010
,  // measure 59
00000100
00000100
00000000
00001001
,  // measure 60
00000001
00001000
00000010
00000000
,  // measure 61
00001000
00000010
00010000
00000000
,  // measure 62
00001000
01000000
00100000
00100000
,  // measure 63
02000000
00000000
03000000
00000000
;

//---------------dance-single - Kekkle-bSP----------------
#NOTES:
     dance-single:
     Kekkle:
     Beginner:
     2:
     0.101531,0.128211,0,0.056534,0,88,88,0,7,0,0,0.101531,0.128211,0,0.056534,0,88,88,0,7,0,0:
0000
0000
0000
0000
,
0000
0000
0000
0000
,
0000
0000
0000
0000
,
0000
0000
0000
0000
,
0001
0000
0000
0000
,
1000
0000
0000
0000
,
0100
0000
0010
0000
,
0200
0000
0300
0000
,
1000
0000
0000
0000
,
0001
0000
0000
0000
,
0100
0000
0010
0000
,
0200
0000
0300
0000
,
0001
0000
0000
0000
,
1000
0000
0000
0000
,
0100
0000
0010
0000
,
0200
0000
0300
0000
,
1000
0000
0000
0000
,
0001
0000
0001
0000
,
0100
0000
0000
0000
,
0020
0000
0030
0000
,
1000
0000
0000
0000
,
0010
0000
0010
0000
,
1000
0000
0000
0000
,
0002
0000
0003
0000
,
1000
0000
1000
0000
,
0001
0000
0000
0000
,
0001
0000
0001
0000
,
1000
0000
0000
0000
,
0010
0000
0010
0000
,
0100
0000
0000
0000
,
0100
0000
0100
0000
,
0010
0000
0000
0000
,
1000
0000
0001
0000
,
0010
0000
0010
0000
,
0001
0000
1000
0000
,
0010
0000
0010
0000
,
0100
0000
0000
0001
,
0001
0000
0000
1000
,
1000
0000
0100
0000
,
0100
0000
0000
0000
,
0010
0000
0000
0000
,
0001
0000
0001
0000
,
1000
0000
0000
0000
,
0010
0000
0010
0000
,
0100
0000
0000
0000
,
0001
0000
0001
0000
,
1000
0000
0000
0000
,
0100
0000
0100
0000
,
0010
0000
0001
0000
,
0001
0000
1000
0000
,
1000
0000
0010
0000
,
0010
0000
0000
0000
,
0100
0000
0001
0000
,
0001
0000
1000
0000
,
1000
0000
0100
0000
,
0100
0000
0000
0000
,
1000
0000
0000
0000
,
0001
0000
0000
0000
,
0100
0000
0010
0000
,
0200
0000
0300
0000
,
0001
0000
0000
0000
,
1000
0000
0000
0000
,
0100
0000
0010
0000
,
0200
0000
0300
0000
;
