#VERSION:0.83;
#TITLE:HIGH SCORE;
#ARTIST:クラブ SODA feat. Puppy Smooth;
#ARTISTTRANSLIT:Kurabu SODA feat. Puppy Smooth;
#BANNER:HIGH SCORE.png;
#BACKGROUND:HIGH SCORE-bg.png;
#JACKET:HIGH SCORE-jacket.png;
#MUSIC:HIGH SCORE.ogg;
#SAMPLESTART:32.62;
#SAMPLELENGTH:15;
#BPMS:0=125,164=120,165=119,166=118,168=113,171=112,172=106,174=107,175=106,176=100;

//---------------dance-single - Nitrospan-bSP----------------
#NOTEDATA:;
#CHARTNAME:Nitrospan-bSP;
#STEPSTYPE:dance-single;
#DESCRIPTION:Nitrospan-bSP;
#DIFFICULTY:Beginner;
#METER:2;
#CREDIT:Nitrospan;
#NOTES:
0000
0000
0000
0000
,
0000
0000
0000
0000
,
0000
0000
0000
0000
,
0000
0000
0000
0000
,
0000
0000
0000
0000
,
1000
0000
1000
0000
,
0010
0000
0010
0000
,
0100
0000
0100
0000
,
0001
0000
0001
0000
,
0001
0000
0100
0000
,
0010
0000
0000
0000
,
1000
0000
0100
0000
,
0010
0000
0000
0000
,
0001
0000
1000
0000
,
0100
0000
0000
0000
,
0010
0000
0001
0000
,
1000
0000
0000
0000
,
1001
0000
0100
0000
,
0010
0000
0000
0000
,
1000
0000
0010
0000
,
0100
0000
0001
0000
,
1000
0000
0100
0000
,
0010
0000
0000
0000
,
0001
0000
0010
0000
,
0100
0000
1000
0000
,
1001
0000
0000
0000
,
0010
0000
0000
0000
,
0100
0000
0000
0000
,
0001
0000
0000
0000
,
0010
0000
0010
0000
,
0100
0000
0000
0000
,
1000
0000
1000
0000
,
0001
0000
0000
0000
,
1001
0000
0010
0000
,
0100
0000
0000
0000
,
0001
0000
0100
0000
,
0010
0000
1000
0000
,
0100
0000
0010
0000
,
0001
0000
0000
0000
,
0100
0000
0010
0000
,
1000
0000
0001
0000
,
0010
0000
0100
0000
,
1000
0000
0000
0000
,
0010
0000
0100
0000
,
0001
0000
0000
0000
,
0010
0000
0010
0000
,
0100
0000
0000
0000
,
1000
0000
1000
0000
,
0001
0000
0001
0000
,
0100
0000
0000
0000
;

//---------------dance-single - Nitrospan-BSP----------------
#NOTEDATA:;
#CHARTNAME:Nitrospan-BSP;
#STEPSTYPE:dance-single;
#DESCRIPTION:Nitrospan-BSP;
#DIFFICULTY:Easy;
#METER:5;
#CREDIT:Nitrospan;
#NOTES:
0000
0000
0000
0000
,
0000
0000
0000
0000
,
0000
0000
0000
0000
,
0000
0000
0000
0000
,
0000
0000
0000
0000
,
2000
3001
0000
0001
,
0100
0010
0000
1000
,
0002
0013
0000
0010
,
0100
1000
0000
0001
,
2001
0010
3010
0000
,
0002
0100
0103
0000
,
2000
0010
3010
0100
,
0002
0010
0013
0000
,
0100
1000
0100
2000
,
3010
0100
0000
0100
,
0001
0010
0001
0200
,
0310
0000
0000
0000
0100
0000
0000
0000
0000
0000
0020
0000
0000
0030
0000
0000
,
1001
0100
1000
0010
,
1000
0001
0100
0010
,
1000
0100
0010
0001
,
0100
0010
1000
0000
,
0010
0100
0001
1000
,
0100
0010
0001
1000
,
0010
1000
0001
0100
,
0010
1000
0100
0010
,
0002
0100
0000
0103
,
2000
0100
0000
3100
,
0001
0010
0100
1000
,
0100
0010
0001
0000
,
1000
1001
0001
0000
,
0100
0110
1000
0000
,
0100
0110
0001
0000
,
0010
0110
1000
0001
,
1001
0010
0001
0100
,
0001
1000
0010
0100
,
0001
0010
0100
1000
,
0010
0100
0001
0000
,
0100
0010
1000
0001
,
0010
0100
1000
0001
,
0100
0001
1000
0010
,
0100
0001
0010
0100
,
1001
1000
0010
0000
,
0010
0100
0001
0000
,
0010
0001
1000
0100
,
0010
0001
1000
0000
,
0010
0110
0100
0000
,
0001
0110
1000
0000
,
0100
0110
1000
0000
,
0010
1001
1000
0000
,
0001
0000
0000
0000
;

//---------------dance-single - Nitrospan-DSP----------------
#NOTEDATA:;
#CHARTNAME:Nitrospan-DSP;
#STEPSTYPE:dance-single;
#DESCRIPTION:Nitrospan-DSP;
#DIFFICULTY:Medium;
#METER:7;
#CREDIT:Nitrospan;
#NOTES:
0000
0000
0000
0000
,
0000
0000
0000
0000
,
0000
0000
0000
0000
,
0000
0000
0000
0000
,
0000
0000
0000
0000
,
2000
0000
3000
0010
0000
0010
0100
0000
,
1001
0000
0000
0010
0000
0010
0100
0000
,
2000
0000
3000
0001
0000
0001
0100
0000
,
0110
0000
0000
1000
0000
1000
0001
0000
,
1000
1100
0200
0310
,
0010
0011
0001
1001
,
0100
0101
0100
0110
,
0010
1010
1000
1001
,
0002
0000
0013
0000
0100
1000
0010
0000
,
0200
0000
0301
0000
0010
0100
1000
0000
,
0020
0000
1030
0000
0001
0100
0010
0000
,
2000
0000
0000
0000
3100
0000
0000
0000
0000
0000
0010
0000
0000
0010
0000
0000
,
0110
0000
1000
0100
0000
0100
0001
0000
,
1000
0000
0010
0000
0100
0001
1000
0000
,
1100
0000
0010
0001
0000
0001
0100
0000
,
0010
0000
1000
0000
0100
0010
0001
0000
,
1001
0000
1000
0010
0000
0010
0001
0000
,
0100
0000
0010
0000
1000
0001
0010
0000
,
1100
0000
0100
1000
0000
1000
0010
0000
,
0100
0000
0001
0000
0010
0000
0100
1000
,
0020
0100
0000
0130
,
0002
1000
0000
1003
,
0100
0010
0001
1001
,
0010
0100
0001
1001
,
0100
1100
0010
0011
,
0100
1100
0010
0011
,
0100
0101
0010
1010
,
0100
0000
0101
0000
0010
0100
0010
0100
,
1001
0000
0001
0010
0000
0010
1000
0000
,
0001
0000
0100
0000
0010
1000
0001
0000
,
0011
0000
0100
1000
0000
1000
0010
0000
,
0100
0000
0001
0000
0010
0100
1000
0000
,
1001
0000
0001
0100
0000
0100
1000
0000
,
0010
0000
0100
0000
0001
1000
0100
0000
,
0011
0000
0010
0001
0000
0001
0100
0000
,
0010
0000
1000
0000
0100
0000
0010
0001
,
0100
0000
0010
0000
1000
0100
0010
0000
,
0001
0000
0100
0000
0010
1000
0001
0000
,
0010
0000
0100
0000
1000
0001
0100
0010
,
1000
0000
0100
0000
0010
0001
1000
0000
,
0011
1100
0011
1100
,
1010
0101
1010
0101
,
0011
1000
1100
0001
,
0101
0000
0000
0000
1000
0000
0000
0000
0110
0000
0001
0000
0000
1000
0000
0000
,
0100
0000
0000
0000
;

//---------------dance-single - Nitrospan-ESP----------------
#NOTEDATA:;
#CHARTNAME:Nitrospan-ESP;
#STEPSTYPE:dance-single;
#DESCRIPTION:Nitrospan-ESP;
#DIFFICULTY:Hard;
#METER:11;
#CREDIT:Nitrospan;
#NOTES:
0000
0000
0000
0000
,
0000
0000
0000
0000
,
0000
0000
0000
0000
,
0000
0000
0000
0000
,
0000
0000
0000
0000
,
2000
0000
0000
0000
3010
0000
0200
0000
0000
0000
0301
0000
0010
0100
0010
0000
,
0002
0000
0103
0020
0000
1030
0100
0010
,
0002
0000
0000
0000
0013
0000
0200
0000
0000
0000
1300
0000
0001
1000
0001
0000
,
0200
0000
0310
2000
0000
3001
0200
0000
,
0310
0000
0000
0000
1000
0000
0100
2000
0000
0000
0001
0000
3000
0000
0000
0000
,
1000
0000
0000
0000
0010
0000
0100
0002
0000
0000
1000
0000
0103
0000
0010
0000
,
0001
0000
0000
0000
0010
0000
0100
2000
0000
0000
0010
0000
3000
0000
0000
0000
,
0000
0000
0100
0000
0001
0000
1000
0100
0000
0000
0010
0000
0001
1000
0010
0000
,
0101
0000
0000
0000
0000
0000
1001
0000
0000
0000
1100
0000
0010
0001
0100
0000
,
0010
1000
0100
1000
0001
0100
0001
0010
,
0011
0000
0000
0000
1001
0000
0000
0000
1010
0000
0000
0000
0100
0001
1000
0000
,
0010
0000
0100
0000
0001
0000
1000
0000
0000
0000
0100
0000
0000
0100
0000
0000
,
1001
0000
0000
0000
0101
0000
0000
0000
1000
0000
0100
0000
0010
0001
0100
0000
,
0010
1000
0100
1000
0010
1000
0100
0010
,
0011
0000
0000
0000
1100
0000
0000
0000
0001
0000
0010
0000
0100
1000
0100
0000
,
0010
0001
1000
0001
0010
0001
1000
0100
,
0101
0000
0000
0000
1100
0000
0000
0000
0001
0000
0010
0000
0100
1000
0001
0000
,
0010
1000
0010
0001
0010
0100
1000
0001
,
1010
0000
0000
0000
0011
0000
0000
0000
1000
0000
0010
0000
0100
0001
1000
0000
,
0100
0001
0100
1000
0100
0001
1000
0000
,
2001
0010
0000
3002
,
0000
0100
0000
1003
,
0010
1000
0100
1000
0010
1000
0101
0000
,
0010
0001
0100
0001
0010
0001
1100
0000
,
0010
0000
1000
0000
0100
0000
0000
0000
0010
0000
0001
0000
1000
0010
0100
0000
,
0001
1000
0010
0000
0100
0001
0010
0100
,
1000
0000
0001
0000
0100
0000
0000
0000
0010
0000
1000
0000
0100
0010
0001
0000
,
0100
0001
0010
0000
0100
1000
0001
0000
,
1001
0000
0000
0000
1100
0000
0000
0000
0001
0000
0100
0000
0010
1000
0100
0000
,
0010
0001
0100
0001
0010
0001
0100
0010
,
1010
0000
0000
0000
0101
0000
0000
0000
1000
0000
0010
0000
0100
0001
0100
0000
,
0010
1000
0001
1000
0010
1000
0001
0100
,
1100
0000
0000
0000
0101
0000
0000
0000
1000
0000
0010
0000
0100
0001
1000
0000
,
0010
0001
0010
1000
0010
0100
0001
1000
,
0011
0000
0000
0000
1010
0000
0000
0000
0001
0000
0010
0000
0100
1000
0001
0000
,
0100
1000
0100
0001
0100
1000
0001
0000
,
0010
0000
1100
0000
0010
0001
0100
0010
,
1000
0000
1100
0000
0010
0001
1000
0010
,
0100
0000
0101
0000
0100
0010
1000
0100
,
0010
0000
1001
0000
0100
0010
0001
0100
,
1010
0000
0101
0000
1010
0001
0100
0010
,
0101
0000
1100
0000
0101
0010
1000
0100
,
0011
0000
1100
0000
0011
0100
1000
0010
,
0101
0000
0000
0000
1100
0000
0000
0000
0010
0000
0101
0000
0000
1010
0000
0000
,
1001
0000
0000
0000
;

//---------------dance-double - forcednature-BDP----------------
#NOTEDATA:;
#CHARTNAME:forcednautre-BDP;
#STEPSTYPE:dance-double;
#DESCRIPTION:forcednature-BDP;
#DIFFICULTY:Easy;
#METER:5;
#CREDIT:forcednature;
#NOTES:
00000000
00000000
00000000
00000000
,
00000000
00000000
00000000
00000000
,
00000000
00000000
00000000
00000000
,
00000000
00000000
00000000
00000000
,
00000000
00000000
00000000
00000000
,
00002000
00013000
00000000
00010000
,
00000000
00000100
00000000
00001000
,
00000002
00000103
00000000
00000100
,
00000000
00001000
00000000
00020000
,
00031000
00000000
00001000
00000000
,
01000000
00010000
01000000
00000000
,
00100000
00000000
10000000
00000000
,
00010000
10000000
01000000
00000000
,
00100000
00010000
00000000
00010000
,
01000000
00001000
00010000
00000100
,
00001000
00000010
00000000
00000010
,
00000100
00000000
00000000
00000000
00000001
00000000
00000000
00000000
00000000
00000000
00000010
00000000
00000000
00000010
00000000
00000000
,
00000110
00000000
00001000
00000001
,
00000100
00000010
00001000
00000100
,
00010000
00001000
01000000
00010000
,
00100000
01000000
10000000
00010000
,
01000000
00000000
00100000
10000000
,
00010000
10000000
01000000
00100000
,
00010000
01000000
00001000
00010000
,
00000100
00001000
00000010
00000100
,
00000002
00000000
00000000
00000000
,
00002003
00000000
00000000
00000000
,
00003010
00001000
00000010
00001000
,
00000100
00010000
00001000
01000000
,
00010000
00100000
00010000
00100000
,
01000000
10000000
01000000
10000000
,
00100000
01000000
00100000
01000000
,
00010000
10000000
01000000
00100000
,
01100000
01000000
10000000
00010000
,
01000000
00001000
00010000
00000100
,
00001000
00000010
00001000
00000100
,
00000010
00000001
00001000
00000010
,
00000100
00000001
00001000
00000100
,
00010000
00001000
01000000
00010000
,
00100000
00001000
00010000
00001000
,
01000000
00010000
10000000
00000000
,
01000000
00100000
00000000
00100000
,
00000000
00010000
00000000
00010000
,
00000000
01000000
00000000
01000000
,
00000000
00001000
00000000
00001000
,
00010000
00010000
00000100
00000100
,
00001000
00001000
00000001
00000001
,
00000100
00000100
00000010
00000010
,
00001000
00000000
00000000
00000000
00001000
00000000
00000000
00000000
00000100
00000000
00010000
00000000
00000000
00010000
00000000
00000000
,
00001000
00000000
00000000
00000000
;

//---------------dance-double - forcednature-DDP----------------
#NOTEDATA:;
#CHARTNAME:forcednature-DDP;
#STEPSTYPE:dance-double;
#DESCRIPTION:forcednature-DDP;
#DIFFICULTY:Medium;
#METER:8;
#CREDIT:forcednature;
#NOTES:
00000000
00000000
00000000
00000000
,
00000000
00000000
00000000
00000000
,
00000000
00000000
00000000
00000000
,
00000000
00000000
00000000
00000000
,
00000000
00000000
00000000
00000000
,
00002000
00000000
00003000
00001000
00000000
00001000
00010000
00000000
,
00100000
00000000
00000000
00100000
00000000
01000000
00010000
10000000
,
00200000
00000000
00300000
00100000
00000000
00100000
01000000
00000000
,
00001000
00000000
00000000
00010000
00000000
00000100
00002000
00000000
,
00003001
00001000
00000000
00001000
,
00000000
00000010
00000000
00000010
,
00000000
00010000
00000000
00010000
,
00000000
00001000
00000000
00001000
,
00010000
00100000
01000000
00100000
,
10000000
00010000
00100000
00010000
,
01000000
00001000
00010000
00001000
,
00000010
00000000
00000000
00000000
00000100
00000000
00000000
00000000
00000000
00000000
00001000
00000000
00000000
00000001
00000000
00000000
,
00001001
00000000
00001000
00000000
00000010
00010000
00001000
00000000
,
00100000
00010000
01000000
00000000
10100000
00000000
00110000
00000000
,
10000000
00000000
00010000
00000000
01000000
00001000
00010000
00000000
,
00000100
00001000
00000100
00000010
00000001
00001000
00000010
00000000
,
00000100
00000000
00001000
00000000
00000100
00000001
00001000
00000000
,
00000010
00010000
00001000
00000010
00000100
00010000
00001000
00000000
,
01000000
00000000
00010000
00000000
00100000
01000000
10000000
00000000
,
00100000
01000000
00001000
00010000
01000000
00000000
01100000
00000000
,
10010000
10000000
00000000
10000000
,
00000000
01000000
00000000
01000000
,
00010000
00000100
00001000
00000010
,
00010000
00001000
00000010
00000100
,
00001000
00000000
00000001
00000000
00000100
00000000
00000001
00000010
,
00000100
00000000
00001000
00000000
00010000
00000000
00100000
01000000
,
10000000
00000000
00100000
00000000
01000000
00000000
00100000
00010000
,
00001000
00000100
00000001
00000010
,
00001001
00000000
00000001
00000010
00000100
00001000
00000001
00000000
,
00000100
00001000
00010000
00000000
00100000
00010000
00001000
01000000
,
00010000
00000000
10000000
00100000
01000000
00010000
00100000
00000000
,
00001000
00010000
00100000
00000000
00010000
00001000
00000010
00000100
,
00001000
00000000
00000001
00000100
00000010
00001000
00000100
00000000
,
00010000
00001000
00100000
00001000
00010000
00100000
01000000
00000000
,
00010000
10000000
00010000
00100000
01000000
00010000
00001000
00000000
,
00000100
00001000
00010000
00000000
00000010
00001000
00000100
00000000
,
00000010
00000001
00000010
00001000
,
00010000
00100000
10000000
00100000
,
00010000
00001000
00000100
00001000
,
00010000
01000000
10000000
01000000
,
00101000
00010100
01001000
00010010
,
00001100
00010010
00101000
01010000
,
00110000
01001000
00010100
00001010
,
00001001
00000000
00000000
00000000
00000110
00000000
00000000
00000000
00011000
00000000
00010000
00000000
00000000
00100000
00000000
00000000
,
10000000
00000000
00000000
00000000
;

//---------------dance-double - Nitrospan-EDP----------------
#NOTEDATA:;
#CHARTNAME:Nitrospan-EDP;
#STEPSTYPE:dance-double;
#DESCRIPTION:Nitrospan-EDP;
#DIFFICULTY:Hard;
#METER:11;
#CREDIT:Nitrospan;
#NOTES:
00000000
00000000
00000000
00000000
,
00000000
00000000
00000000
00000000
,
00000000
00000000
00000000
00000000
,
00000000
00000000
00000000
00000000
,
00000000
00000000
00000000
00000000
,
00000020
00000000
00000000
00000000
00000031
00000000
00000100
00000000
00000000
00000000
00000010
00000000
00001000
00000100
00000010
00000000
,
00000002
00000000
00000103
00000010
00000000
00001000
00000100
00010000
,
00002000
00000000
00000000
00000000
01003000
00000000
00100000
00000000
00000000
00000000
10000000
00000000
01000000
00100000
00010000
00000000
,
02000000
00000000
03100000
10000000
00000000
00010000
01000000
00000000
,
00020000
00100000
00000000
01030000
,
00002000
00100000
00000000
00013000
,
00000200
00001000
00002300
00000010
,
00003020
00000100
00000230
00000001
,
00000301
00000000
00000000
00000000
00001000
00000000
00000010
00000000
00000000
00000000
00000100
00000000
00000001
00000010
00000100
00000000
,
00001000
00000000
00000100
00010000
00000000
00001000
00100000
00010000
,
01000000
00000000
00000000
00000000
00100000
00000000
10000000
00000000
00000000
00000000
01000000
00000000
00100000
00010000
10000000
00000000
,
00100000
00000000
00000000
00000000
01000000
00000000
00010000
00000000
00000000
00000000
00110000
00000000
00000000
00011000
00000000
00000000
,
00001200
00000000
00000000
00000000
00000301
00000000
00000100
00000000
00001000
00000000
00000100
00000000
00000010
00000001
00000100
00000000
,
00000010
00001000
00000100
00010000
00001000
00000000
00100000
00001000
,
00201000
00000000
00000000
00000000
10300000
00000000
00100000
00000000
00010000
00000000
00100000
00000000
01000000
10000000
00010000
00000000
,
00100000
00010000
01000000
00001000
00010000
00000000
00000010
00010000
,
00010200
00000000
00000000
00000000
00000301
00000000
00000100
00000000
00001000
00000000
00000100
00000000
00000010
00000001
00000100
00000000
,
00000010
00001000
00000100
00010000
00001000
00100000
00010000
01000000
,
12000000
00000000
00000000
00000000
03010000
00000000
00100000
00000000
01000000
00000000
10000000
00000000
00100000
01000000
00010000
00000000
,
00100000
00001000
00010000
00000100
00000010
00000001
00001000
00000000
,
00001002
00000010
00000000
00001003
,
00000200
00010000
00000000
00001300
,
00000100
00010100
00001000
01001000
,
00010000
00110000
01000000
11000000
,
10000000
11000000
00010000
01010000
,
00100000
00101000
00000100
00010100
,
00000010
00000011
00000100
00001100
,
00000011
00000000
00001100
00000000
00000100
00010000
00001000
00100000
,
00210000
00000000
00000000
00000000
10300000
00000000
00100000
00000000
00010000
00000000
00100000
00000000
01000000
10000000
00100000
00000000
,
01000000
00010000
00100000
00001000
00010000
00000000
00000100
00010000
,
00010200
00000000
00000000
00000000
00000301
00000000
00000100
00000000
00001000
00000000
00000100
00000000
00000010
00000001
00001000
00000000
,
00000100
00001000
00000010
00010000
00001000
00000000
01000000
00001000
,
00201000
00000000
00000000
00000000
10300000
00000000
00100000
00000000
00010000
00000000
00100000
00000000
01000000
10000000
00100000
00000000
,
01000000
00010000
00100000
00001000
00010000
00000100
00001000
00000010
,
00000021
00000000
00000000
00000000
00001030
00000000
00000100
00000000
00000010
00000000
00000001
00000000
00000100
00000010
00001000
00000000
,
00000100
00010000
00001000
01000000
00100000
10000000
00010000
00000000
,
10000000
00000000
11000000
00000000
00100000
00010000
01000000
00001000
,
00100000
00000000
00101000
00000000
00001000
00010000
00000010
00000000
,
00001000
00000000
00000110
00000000
00000100
00000001
00000010
00000100
,
00001000
00000000
00001100
00000000
00010000
00001000
01000000
00000000
,
00110000
01100000
11000000
10100000
,
01010000
00101000
00010100
00001010
,
00000011
00000101
00001100
00101000
,
00110000
00000000
00000000
00000000
11000000
00000000
00000000
00000000
10000000
00000000
10100000
00000000
00000000
00110000
00000000
00000000
,
00011000
00000000
00000000
00000000
;
