#TITLE:HATSUYUME;
#ARTIST:Daniel Van Eden;
#BANNER:HATSUYUME.png;
#BACKGROUND:HATSUYUME-bg.png;
#MUSIC:HATSUYUME.ogg;
#OFFSET:1.412;
#SAMPLESTART:60.702;
#SAMPLELENGTH:14.980;
#DISPLAYBPM:85:170;
#BPMS:0=85,12=170,14=85,16=170,96=85,112=170,143=340,144=85,160=170,166=340,167=85,171=170,173=85,175=170,230=340,231=85,247=127.5,248=340,249.5=170,250=85,259.5=170,261=85,262=340,263=170,294=85,295=170,295.5=85;
#STOPS:12=0.265,12.75=0.265,13.5=0.176,143=0.176,166=0.176,166.333=0.176,166.667=0.176,171=0.265,171.75=0.265,172.5=0.176,230=0.176,247=0.118,247.5=0.118,248=0.132,248.75=0.132,259.5=0.176,260=0.353,262=0.176,295=0.176;

//---------------dance-single - Marten-bSP----------------
#NOTES:
     dance-single:
     Marten:
     Beginner:
     5:
     :
0000
0000
0000
0000
,
0000
0000
0000
0000
,
0000
0000
0000
0000
,
0000
0000
0000
0000
,
0001
0001
1000
0000
,
1000
1000
0001
0000
,
0010
0010
0100
0100
,
0001
1000
0001
0000
,
2000
3000
0001
0100
,
0002
0003
0010
0100
,
0020
0030
0100
1000
,
0200
0300
1000
0001
,
1000
0000
0010
0000
,
0100
0100
0001
0000
,
1000
0000
0001
0000
,
0010
0010
0100
0000
,
1000
1001
0000
1001
,
0000
1001
0000
1001
,
0001
0000
0100
0000
,
0010
0000
1000
0001
,
1000
1001
0000
1001
,
0000
0110
0000
0110
,
0000
1001
0000
0110
,
0000
1001
0001
0001
,
2000
0000
0000
3000
,
0020
0000
0000
0030
,
0200
0000
0000
0300
,
0002
0000
0000
0003
,
1000
1000
0100
0000
,
0001
0001
0100
0000
,
1000
1000
0010
0000
,
0001
0001
0010
0000
,
1000
0000
0010
0000
,
0001
0000
0100
0000
,
1000
1000
0001
0001
,
1001
0000
0000
0000
,
0001
0100
1000
0100
,
0001
0010
0100
0000
,
1000
0100
0001
0100
,
1000
0001
2000
3000
,
0020
0000
0000
0000
,
0030
0000
0100
0110
,
0000
1001
0000
0000
0110
0000
0002
0000
,
0000
0003
1000
2002
,
0000
0000
0000
0000
,
0000
0000
0000
0000
,
0000
0000
0000
0000
,
0000
3003
0000
0001
,
0001
1000
1000
0010
,
0000
0110
0000
1001
,
0000
0001
0000
1000
,
0000
1000
0000
0100
,
0100
0100
0000
0010
,
0000
0100
0000
1000
,
0001
1000
0000
0001
,
1000
0001
0000
0010
,
0010
0100
0100
0010
,
0100
0010
0000
0001
,
0010
1000
0010
0001
,
0100
0010
0000
1000
,
0010
0001
0010
1001
,
0110
1001
0001
2000
,
0000
0000
3000
1001
,
0001
0010
0100
1000
,
1001
0000
0000
1001
0000
0000
0110
0000
,
1001
0000
0000
0000
,
0001
0000
1000
0000
,
0001
0000
0010
0010
,
0100
0100
0010
0100
,
0010
0000
1001
0000
,
0001
0000
0010
0010
,
0100
0000
1000
0001
,
1000
1000
0001
0000
,
1000
0010
0020
0030
,
1000
0001
0010
0100
,
1000
0000
0001
0000
1001
0000
0000
1001
,
0000
0110
2002
0000
,
0000
0000
3003
0000
;

//---------------dance-single - Marten-BSP----------------
#NOTES:
     dance-single:
     Marten:
     Easy:
     8:
     :
0000
0000
0000
0000
,
0000
0000
0000
0000
,
0000
0000
0000
0000
,
1001
0000
0000
0110
0000
0000
1001
0000
0000
0000
0000
0000
2000
0000
0000
0000
,
3001
0100
0001
0001
,
1000
0100
1000
1000
,
0001
0010
1000
0010
,
0001
0000
1000
0010
,
0110
0000
0000
1000
1000
0000
0001
0001
,
0000
0000
0100
0000
0010
0000
1000
0010
,
0000
0000
0100
0000
0001
0000
0010
0001
,
0000
0010
0100
1000
,
1001
0000
0000
0001
0001
0000
0100
0000
,
0010
0100
0001
0010
,
0100
0100
1000
1000
,
0010
0000
0001
0000
0010
0100
0010
0000
,
1000
1001
0001
1001
,
0000
1001
1000
0100
,
0020
0000
0031
0000
0002
0000
1003
0200
,
0000
0000
1300
0000
0010
0100
0010
0000
,
1000
1001
0001
1001
,
0000
0000
1001
0000
0001
0000
0100
0010
,
0000
0000
1000
0000
0001
1000
0002
0000
,
0000
0013
0100
1000
,
1200
0010
0010
1300
,
0002
0100
0100
0013
,
0020
0100
0100
0031
,
0001
0001
1000
1000
0100
0010
0001
1000
,
1001
0000
0001
0100
0001
0000
0001
0000
,
1000
0100
1000
0000
0100
0000
0010
0000
,
0001
0000
1000
0100
1000
0000
1000
0000
,
0001
0100
0001
0000
0100
0000
0010
0000
,
1000
1000
0001
0001
,
0010
0010
0100
0100
,
1000
0000
0001
0000
1000
0001
1000
0000
,
2002
0000
0000
3003
,
1001
0001
0010
0110
0000
0100
1100
1000
,
0010
0100
0110
0100
0000
0001
1001
1000
,
1001
0010
1001
0100
0000
0010
1001
0001
,
2000
0000
0000
3200
0000
0000
0320
0000
0000
0000
0000
0031
1000
0000
0010
0000
,
0200
0000
0000
0010
0000
0000
0000
0000
0010
0000
0010
0000
,
0310
0000
0000
0000
0000
0000
0000
0000
2000
0000
0000
0000
3001
0000
0000
0010
,
0000
0000
0100
0000
1000
0000
0010
0000
0100
0000
0001
0000
0101
0000
0000
1100
,
0000
1001
0000
1000
0100
0010
0002
0000
,
0000
0000
0000
0000
,
0000
0000
0003
0002
,
0103
0000
0010
1000
0010
2000
0000
0000
,
3100
0010
0001
1000
,
1100
0001
0101
0100
,
0010
0100
1001
0001
,
0010
0000
0100
1000
0100
0000
1000
0000
,
0010
0000
0100
0001
0100
0000
0001
0000
,
1000
0010
0010
1000
,
0001
0010
0100
0000
,
1000
0001
0010
0001
,
0100
0001
0100
0000
0010
0000
1000
0000
,
0100
0010
0001
1000
,
0001
1000
0001
0000
0000
0000
1000
0010
,
0100
0000
0001
1000
0100
0000
1000
0010
,
0100
0000
0000
0100
0000
0000
0100
0000
0010
0000
1000
0000
0100
0000
0010
0000
,
0001
0000
0100
0001
1000
0010
0000
2000
,
3020
0230
0000
0301
1001
0000
1000
0001
,
0020
0000
0000
0000
0000
0000
0130
0000
0000
0000
0000
1000
0001
0000
1000
0000
,
0100
0010
0001
1001
1000
0010
0110
0010
,
1010
0000
0000
0101
0000
0000
1001
0000
0000
0000
1000
0000
0100
0000
0010
0000
,
0002
0003
0000
1001
,
0001
0100
1000
0100
,
0001
1000
0010
0010
,
1000
1000
0001
0010
,
0100
1000
0100
0000
1000
0000
0000
0000
,
0001
1000
0010
1000
,
0100
0000
0010
0010
0000
0000
0001
0000
,
1000
0000
0010
0010
0000
0000
1000
0000
,
0001
0000
1000
0002
0000
0000
1003
0000
,
0001
0100
0001
0010
0001
0000
1000
0010
,
0100
0000
0010
0000
1000
0000
0000
0000
0200
0000
0000
2300
0000
0000
3002
0000
,
0000
0103
0010
0000
2002
0000
0000
0000
,
0000
0000
3003
0000
;

//---------------dance-single - Marten-DSP----------------
#NOTES:
     dance-single:
     Marten:
     Medium:
     13:
     :
0000
0000
0000
0000
,
0000
0000
0000
0000
,
0000
0000
0000
0000
,
1100
0000
0000
0011
0000
0000
1001
0000
0000
0001
0100
0010
2000
0000
0000
0000
,
3001
0000
0000
0000
0100
0000
0000
0000
0010
0000
0000
1000
0000
0000
0001
0000
,
0000
1000
0100
0010
0001
0100
0001
0000
,
0100
0000
0100
0000
0010
0000
0010
0000
1000
0000
0000
0010
0000
0000
0100
0000
,
0001
0000
0000
0010
0000
0000
0100
0000
0000
0000
1000
0000
0001
0000
1000
0000
,
0002
0000
0003
0010
0001
0100
0010
0200
,
0000
0302
0000
1003
0100
0010
0001
2000
,
0000
3010
1000
1000
0001
0100
0010
2000
,
0000
3001
0010
1000
0010
0001
0100
0010
,
0210
0000
0301
0010
0100
0100
0010
2000
,
0000
3010
0001
2000
0000
3010
0100
0002
,
0000
1003
0100
0010
0001
0010
0100
2000
,
0000
3010
0010
0100
0001
1000
0100
0020
,
0000
0031
1000
0001
0100
0000
0010
1000
,
0000
0000
1000
0100
0010
0001
0010
0100
,
2000
0000
3020
0000
0230
0000
0301
0200
,
0000
0310
1000
0100
0010
0001
0010
1000
,
0010
0001
1000
0010
0200
0000
0301
0010
,
0200
0000
0310
0001
1000
0010
1000
0100
,
0000
0100
0001
1000
0010
0001
0020
0000
,
0130
1000
0010
0100
0001
0010
0100
1000
,
1001
0000
0000
0001
0100
0000
0001
1000
0000
0001
0100
0001
1000
0000
0001
0000
,
1001
0000
0000
1000
0100
0000
0001
0100
0000
1000
0010
0100
0001
0000
0010
0000
,
0200
0000
2300
0000
3020
0000
0032
0000
0200
0003
2300
0000
3020
0000
0032
0000
,
0103
1000
0010
0010
0100
0001
0010
0010
0002
0000
0203
0000
0320
0000
2030
0000
,
3001
0000
0000
0001
0010
0000
0100
0000
0010
0000
0000
0010
0001
0000
1000
0000
,
0010
0000
0000
0010
1000
0000
0100
0000
1000
0000
0000
1000
0001
0000
0100
0000
,
0001
0000
0000
0001
0100
0000
0010
0000
1000
0000
0000
1000
0100
0000
0010
0000
,
0001
0000
0000
0001
1000
0000
0001
0000
0100
0000
0010
0000
0100
0000
0000
0000
,
0001
0010
0001
0100
0001
0010
0001
0100
,
0010
1000
0100
1000
0010
1000
0100
0010
,
0001
0001
1000
1000
0010
0100
0001
0010
,
0210
0000
0000
0000
0000
0000
0000
0000
0300
0000
0010
0100
0010
0000
0000
0000
,
0001
0000
0000
0000
0100
0000
0000
0000
0010
0000
0000
1000
0000
0000
0100
0000
0000
0000
0010
0000
0001
0000
0000
0000
1000
0000
0001
0000
0010
0000
0001
0000
,
1000
0000
1000
0000
0001
0000
0001
0000
1000
0000
0000
0010
0000
0000
0100
0000
0001
0000
0000
0010
0000
0000
0100
0000
0000
0000
1000
0000
0010
0000
1000
0000
,
1010
0000
0000
0000
0101
0000
0000
0000
0110
0000
0000
0100
0000
0000
0010
0000
0000
0000
1000
0000
0100
0000
0010
0000
0001
0000
0010
0000
0100
0000
1000
0000
,
0001
0000
0100
0010
0000
1000
0002
0000
1003
0010
0100
0001
0020
0000
0031
1000
,
0200
0000
0000
1300
0000
0001
0100
0000
0010
2000
0000
0000
,
0000
0000
0000
0000
0000
0000
0000
0000
0000
0000
0000
0000
3001
0000
0000
0000
0010
0000
0000
0000
0100
0000
0000
0000
2000
0000
3000
0000
2000
0000
3000
0000
2000
0000
3000
0000
0001
0000
0000
0000
0000
0000
0100
0000
0000
0010
0000
0000
,
0000
0000
0000
0000
1000
0000
0000
0000
0200
0000
0000
0000
0000
0000
0000
0000
0000
0000
0000
0000
0310
0000
0000
0000
0001
0000
0000
0000
0010
0000
0000
0000
0100
0000
0000
0000
1000
0000
0000
0000
0001
0000
0000
0000
1000
0000
0000
0000
2020
3030
0000
0000
0000
0000
0000
0000
0000
0000
0000
0000
0022
0033
0000
0000
,
0000
0000
0000
0000
0000
0000
0000
0000
2002
3003
0000
0000
0000
0000
0000
0000
0000
0000
0000
0000
0001
0000
0000
0000
0100
0000
0000
0000
0010
0000
0000
0000
1000
0000
0000
0000
0000
0000
0000
0000
0001
0000
0000
0000
0000
0000
0000
0000
2002
0000
0000
0000
0000
0000
0000
0000
0000
0000
0000
0000
0000
0000
0000
0000
,
0000
0000
0000
0000
,
0000
0000
3003
2000
,
0100
0000
3100
0010
0001
2000
0000
0000
,
3020
0000
0130
0001
1000
0000
0001
0010
,
0100
0100
1000
0010
0100
0100
0002
0000
,
0023
0230
2300
3001
,
1000
0000
0000
0000
0100
1000
0100
0000
0010
0000
0001
0000
0000
0000
0001
0000
,
1000
0000
0010
0000
0001
0000
0010
0000
1000
0000
0001
0000
0100
0001
0100
0000
,
0010
0000
1000
0000
0001
0000
0000
0001
0000
0000
0001
0000
1000
0000
0000
1000
,
0000
1000
0010
0100
0001
0010
0110
0000
,
1100
0000
1001
0000
1000
0010
0110
0000
,
0101
0000
0000
0000
1001
0000
0000
0001
1000
0000
0001
0000
0010
0000
0010
0000
,
0001
0001
1000
1000
0010
0010
1000
0100
,
0010
0000
0000
0000
0000
0000
0000
0000
0001
0000
0000
0000
0000
0000
0000
0000
0100
0000
0000
0000
0000
0000
0000
0000
0010
0000
0000
0000
0100
0000
0000
0000
0020
0030
0000
0000
0000
0000
0000
0000
0000
0000
0000
0000
0000
0000
0000
0000
1000
0000
0000
0000
0010
0000
0000
0000
0100
0000
0000
0000
0010
0000
0000
0000
,
2000
0000
3001
0010
0200
0000
0310
0001
1000
0010
0100
0001
2000
0000
3200
0000
,
0320
0000
0031
2000
0000
3100
0010
0100
1000
0010
0100
0001
1000
0001
0100
0001
,
0020
0000
0130
1000
0020
0000
0130
0001
1000
0010
0100
0000
0101
0000
0000
1010
,
0000
0000
1100
0000
0000
1000
0100
0000
0010
0001
1000
0001
0100
0000
0010
0000
,
0110
0000
0000
0000
0000
0000
1001
0000
0000
0001
1000
0100
0010
0001
0010
0100
,
1000
0000
1000
0000
0001
0000
0001
0000
0010
0000
0000
0001
0000
0000
1000
0000
0010
0000
0000
1000
0000
0000
0001
0000
0000
0000
1000
0000
0010
0000
0100
0000
,
0101
0000
0000
0011
0000
0000
1002
0000
0000
1003
0010
0100
0001
0000
1000
0000
,
1001
0000
0000
0000
0001
0010
0100
1000
0001
0000
0000
0000
1001
0000
1000
0000
,
0010
0100
0010
1000
0100
0010
0001
0100
,
0010
0100
0001
0010
0100
0010
0001
0100
,
0010
1000
0001
1000
0100
0010
0001
0100
,
0010
0000
1000
0000
0001
0000
0100
0010
0100
0000
0000
0000
0001
0000
1000
0000
,
0100
0010
0100
1000
0001
0100
0010
0100
,
0001
0010
0100
1000
0001
0010
0100
0010
,
0001
1000
0010
0100
0001
0001
1000
1000
,
0001
0010
0000
0010
0100
0000
1000
0000
0020
0000
0000
0000
0130
0000
0001
0000
,
1000
0000
0100
0010
0001
0000
0010
0000
0100
0000
1000
0010
0100
0000
0010
0000
,
1000
0000
0010
0000
0100
0000
0001
1000
0200
0000
0000
0320
0000
0000
0032
0000
,
0000
0103
0010
1000
0001
0000
0000
0000
2002
0000
0000
0000
0000
0000
0000
0000
,
0000
0000
3003
0000
;

//---------------dance-single - Marten & darkanine-ESP----------------
#NOTES:
     dance-single:
     Marten & darkanine:
     Hard:
     15:
     :
0000
0000
0000
0000
,
0000
0000
0000
0000
,
0000
0000
0000
0000
,
1100
0000
0000
0011
0000
0000
1010
0000
0000
1000
0100
0010
0001
0000
0000
0000
,
0001
0000
0000
0000
0010
0000
0000
0000
1000
0000
0000
0010
0000
0000
0001
0000
,
0000
0000
0001
0000
0100
0000
0010
0100
0001
0000
0010
0100
1000
0100
1000
0000
,
0001
0000
0001
0000
0100
0000
0100
0000
1000
0000
0000
0100
0000
0000
0001
0000
,
1000
0000
0000
0010
0000
0000
0100
0000
0000
0000
0100
0000
0001
0000
1000
0000
,
0020
0000
0000
0000
0030
0000
1000
0100
0010
0000
0001
0000
0010
0000
0200
0000
,
0000
0000
2300
0000
0000
0000
3100
0010
0001
0000
1000
0000
0010
0000
0110
0000
,
0000
0100
0001
0001
1000
0100
0100
0001
,
0000
1000
0010
0001
0010
0100
0100
1000
,
0002
0000
0000
0000
0003
0000
0010
0001
0010
0000
0100
0000
1000
0000
0020
0000
,
0000
0000
0130
0000
0010
0000
2000
0000
0000
0000
3001
0010
0100
0000
2000
0000
,
0000
0000
3001
0000
0010
0000
0001
1000
0010
0000
0100
0000
0001
0000
2000
0000
,
0000
0000
3010
0100
0010
0000
1000
0000
0100
0000
0010
0000
0010
0000
2000
0000
,
0000
3010
0001
0100
0110
0000
1001
1100
,
0000
1000
0001
0100
1000
0100
0001
0010
,
2100
0000
3020
0000
0230
0000
0301
0200
,
0000
0000
1300
0000
0100
0000
0001
0000
0010
0000
0100
1000
0100
0000
0010
0001
,
1000
0010
0101
0001
0020
0000
1030
0010
,
0002
0000
0103
1000
0100
0010
0110
0100
,
0000
0001
0011
0010
0100
1000
2010
0000
,
3001
0000
0010
0001
0100
0000
0010
1000
0001
0000
0010
0100
1000
0000
0001
0000
,
0020
0000
0000
0031
0020
0000
1030
0020
0000
0031
0020
0130
2000
0000
3002
0000
,
0203
0000
0000
1300
0200
0000
0310
0200
0000
0301
0010
1000
0020
0000
0032
0000
,
2003
0000
3100
1000
0010
0100
0001
0020
0000
1030
0010
0001
1000
0010
0100
0001
,
1000
0001
0100
0100
0001
1000
0100
0100
0020
0000
0032
0000
2003
0000
3010
0000
,
1010
0000
0000
1000
0100
0000
0010
0000
0011
0000
0000
0001
0100
0000
0010
0000
,
1010
0000
0000
0010
0001
0000
0010
0000
0010
0000
1000
0000
0002
0000
0000
0000
,
0103
0000
0000
0010
1000
0000
0010
0000
0100
0000
0001
0010
0100
0000
0010
0000
,
0001
0000
0000
0001
0100
0000
0010
0000
0001
0000
0010
0100
0010
0000
1000
0001
,
1000
1000
0100
0100
0001
0001
0100
0100
,
1000
0001
0010
0010
1000
1000
0010
0010
,
0001
0000
0001
0000
1000
0000
1000
0000
0001
1000
0001
1000
0001
0010
0100
2000
,
0000
0000
0000
0000
0000
0000
0000
0000
0000
0000
0000
0000
0000
0000
0000
0000
0000
0000
0000
0000
3100
0000
0010
0000
0002
0003
0000
0000
0000
0000
0000
0000
,
0101
0000
0000
0000
0010
0000
0000
0000
1010
0000
0000
1001
0000
0000
1100
0000
0000
0000
1000
0000
0100
0000
0010
0000
0010
0000
0100
0000
1000
0000
0001
0000
,
0100
0000
0100
0000
0010
0000
0010
0000
0001
0000
0000
0010
0000
0000
1000
0000
0001
0000
0000
0010
0000
0000
1000
0000
0000
0000
0010
0000
0001
0000
1000
0000
,
1100
0000
0000
0000
1001
0000
0000
0000
0011
0000
0000
1001
0000
0000
0101
0000
0000
0000
0100
0000
0100
0000
0010
0000
1000
0000
0001
0000
0010
0000
0100
0000
,
2000
0000
0100
3002
0000
0010
2003
0000
0000
3010
0001
0010
2000
0000
3001
0010
,
0200
0000
0000
1300
0010
0100
0001
0010
0100
2000
0000
0000
,
0000
0000
0000
0000
0000
0000
0000
0000
0000
0000
0000
0000
3001
0000
0000
0000
0100
0000
0000
0000
0010
0000
0000
0000
2000
0000
0000
0000
3200
0000
0000
0000
0320
0000
0000
0000
0031
0000
0000
0000
0000
0000
0010
0000
0000
0110
0000
0000
,
0000
0100
2100
0000
0000
3010
0100
1000
0100
0001
0010
0100
2100
3000
0000
0012
,
0003
0000
1020
0000
0030
1000
0100
0010
0001
0000
1000
0000
2002
0000
0000
0000
,
0000
0000
0000
0000
,
0000
0000
3003
2000
,
3001
0100
0010
1000
0001
2000
0000
3100
,
0010
0001
1000
0010
0001
0010
1000
0100
,
0010
0010
0001
0100
0010
0010
2000
0000
,
3200
0320
0031
0101
,
0001
0000
0010
0100
1000
0100
1000
0000
0010
0000
0100
0000
1000
0000
0100
0000
,
0010
0000
1000
0001
1000
0001
0010
0000
0100
0000
0010
0000
0001
0100
0001
0000
,
1000
0100
1000
0000
0010
0000
0100
0010
0000
0000
1000
0000
0001
0000
0010
0100
,
0000
0010
0100
0000
1000
0000
0010
0100
0001
0000
1000
0000
1100
0000
0000
0000
,
0110
0000
0000
0000
0011
0000
0000
0001
0100
0000
0001
0000
0101
0000
0000
0000
,
0110
0000
0000
0000
1010
0000
0000
1000
0100
0000
0010
0001
1000
0000
1000
0000
,
0010
0000
0010
0000
0001
0000
0001
0000
0100
0000
0100
0000
1000
0100
1000
0100
,
0010
0000
0001
0000
0010
0000
0001
0000
1000
0000
0010
0000
0100
0000
0001
0000
0020
0030
0000
0000
0000
0000
0000
0000
0110
0000
0000
0000
1000
0000
0100
0000
,
0001
0000
1000
0010
0001
0010
0100
0010
0001
1000
0010
0100
0001
0100
1000
0100
,
0010
0000
1000
0001
0010
0100
0010
0001
1000
0010
0100
0000
0100
0010
1000
0100
,
0010
0000
0010
0001
0100
0010
0100
0010
0001
0010
1000
0001
0100
0000
0010
1000
,
1010
0000
0011
0000
0000
0001
0010
1000
0010
0100
0001
0100
0010
0000
0010
0000
,
0110
0000
0000
0011
0000
0000
1010
0000
0000
1000
0010
0100
0100
0001
0010
0100
,
1000
0000
1000
0000
0001
0000
0001
0000
0020
0000
0000
0032
0000
0000
1003
0000
0020
0000
0000
2030
0000
0000
3001
0000
0100
0000
1000
0000
0001
0000
0010
0000
,
1000
0000
0000
0110
0000
0000
2001
0000
0000
3001
0010
0100
1000
0000
0001
0000
,
1001
0000
0000
0000
0000
0000
0000
0000
0100
0001
0100
0001
1000
0100
1000
0100
0010
0000
0000
0000
0000
0000
0000
0000
1001
0000
0000
0000
0001
0000
0100
0000
,
0010
0000
1000
0000
0010
0000
0100
0000
0001
0000
1000
0000
0001
0000
1000
0100
,
0010
1000
0001
0110
0000
0010
0200
0000
,
1300
0010
0100
0101
0000
1000
0100
0001
,
0100
0000
1000
0100
1000
0000
0001
0100
0020
0000
0000
0000
0030
0000
0100
0001
,
0100
0010
0001
1000
0100
0010
1000
0001
,
0010
0000
0100
0010
0001
0000
0100
0000
0010
0000
0100
0010
1000
0000
1000
0001
,
0010
0000
0100
0000
1000
0000
1002
0000
0000
0000
0013
0000
0100
0010
0000
0001
,
0100
0000
0000
0010
0000
0000
0100
0000
0000
0010
0000
0000
1000
0000
0000
0000
0000
0000
0100
0000
0000
0010
0000
0000
0200
0000
0000
0000
0000
0000
1300
0000
0100
0000
0010
0000
0001
0000
0000
0000
0000
0000
1000
0000
0000
0000
0000
0000
,
0010
0000
0100
0001
0010
0000
1000
0000
0010
0000
0100
1000
0010
0000
0001
0000
,
0010
0000
1000
0000
0100
0000
0010
0001
0200
0000
0000
0320
0000
0000
2030
0000
,
0000
3100
0010
0001
2000
0000
3000
0000
2002
0000
0000
0000
0000
0000
0000
0000
,
0000
0000
3003
0000
;

//---------------dance-single - Marten & darkanine-CSP----------------
#NOTES:
     dance-single:
     Marten & darkanine:
     Challenge:
     17:
     :
0000
0000
0000
0000
,
0000
0000
0000
0000
,
0000
0000
0000
0000
0000
0000
0000
0000
0000
0000
0000
0000
0000
0000
0000
0000
0000
0000
0000
0000
0000
0000
0000
0000
0000
0000
0000
0000
0001
0010
0100
1000
,
0010
0000
0000
0110
0000
0000
1001
0000
0000
0001
0100
0010
1000
0000
0000
0000
,
1100
0000
0000
0000
1001
0000
0000
0000
0011
0000
0000
0001
0010
0000
0100
0000
,
0010
0000
0001
0000
0100
0000
1000
0100
0001
0000
1000
0010
1000
0010
0100
0000
,
0010
1000
0010
0000
0100
0001
0100
0000
0010
0000
1000
0100
0000
0000
0100
0000
,
0010
0000
0001
0100
0000
0000
0100
0000
0010
0000
0100
0000
0001
0000
0010
0000
,
0200
0000
0300
0000
MMMM
0000
0001
0010
1000
0000
0010
0000
0001
0000
1000
0000
,
MMMM
0000
0010
0000
MMMM
0000
1000
0010
0100
0000
1000
0000
0100
0000
0002
0000
,
0000
0013
0100
0100
0001
0100
1000
0002
,
0000
0000
0010
0000
1003
0000
0010
0100
0001
0000
0010
0100
1000
0000
0010
0100
,
0002
0000
0003
0000
MMMM
0000
0010
1000
0010
0000
0100
0000
0100
0000
1000
0000
,
MMMM
0000
0001
0000
0010
0000
0100
0000
MMMM
0000
0100
0001
0100
0000
1000
0000
,
MMMM
0000
0100
0000
0100
0000
0010
0001
0010
0000
1000
0000
0001
0000
0100
0000
,
MMMM
0000
1000
0001
1000
0000
0010
0000
0100
0001
1000
0100
0010
0000
0010
0001
,
1000
1000
0001
0001
1010
0000
1001
1000
,
0000
MMMM
1001
0001
0010
1000
0010
0001
,
0200
0000
1000
0000
0301
1000
0001
1010
,
0000
0000
0001
0000
0100
0000
0010
0000
1000
0000
0100
1000
0010
0000
0010
1000
,
0100
0010
0001
0010
2000
0000
3001
0100
,
2000
0000
3100
0010
0001
1000
0010
0001
,
MMMM
0001
0010
1000
0001
0010
0220
0000
,
0330
0000
0100
0000
1000
0000
0010
0001
0010
0000
1000
0000
0100
0000
0010
0000
,
0002
0000
0000
0100
1000
0000
0100
1000
0000
0100
1000
0100
1000
0000
0010
0000
,
2003
0000
0000
0100
0001
0000
0010
0001
0000
0100
0100
0001
0001
0000
0010
0000
,
3001
0000
1000
0100
0001
0010
1000
0001
0000
0010
0001
0100
1000
0100
0001
1000
,
0001
0000
0000
0010
0000
0000
0100
1000
0100
1000
0000
0000
0010
0000
0000
1000
0000
0000
0001
0100
0001
0100
0000
0000
0020
0000
0000
0000
0000
0000
2030
0000
0000
0000
0000
0000
3002
0000
0000
0000
0013
0100
2000
0000
0000
3000
0000
0000
,
1010
0000
0000
0010
1000
0000
0010
0000
0101
0000
0000
0001
0100
0000
0001
0000
,
0011
0000
0000
0010
0001
0000
0010
0000
1100
0000
0000
1000
0100
0000
1000
0000
,
0110
0000
0000
0010
0100
0000
0010
0000
1001
0000
0000
1000
0001
0000
2000
0000
,
0000
0000
0000
0000
0000
0000
3010
0000
0000
0000
0000
0000
0100
0000
0000
0000
0000
0000
1000
0000
0000
0000
0000
0000
0100
0000
0000
0000
0000
0000
0010
0000
1000
0000
0010
0000
1000
0000
0000
0000
0000
0000
0001
0000
0000
0100
0000
0000
,
0010
0010
0001
0001
0010
0010
1000
1000
,
0010
1000
0100
0100
0001
0001
0100
0100
,
1000
0000
1001
0000
0001
0000
1001
0000
0001
1000
0001
1000
0001
0100
0010
2000
,
0000
0000
0000
0000
0000
0000
0000
0000
0000
0000
0000
0000
0000
0000
0000
0000
0000
0000
0000
0000
3100
0000
1000
0000
0002
0003
0000
0000
0000
0000
0000
0000
,
1001
0000
0000
0000
1000
0000
0000
0000
1010
0000
0000
0010
0000
0000
0001
0000
0000
0000
0001
0000
0010
0000
0010
1000
0001
0000
0011
0000
0000
MMMM
0000
0000
,
1100
0000
1000
0000
0001
0000
0001
0000
0010
0000
0010
0100
0000
0000
1000
0000
0010
0000
0010
0100
0000
0000
0001
0000
1001
0000
1000
0000
0100
0000
0001
0000
,
0110
0000
0000
0000
1100
0000
0000
0000
1010
0000
0000
0010
0001
0000
1000
0000
MMMM
0000
1000
0000
0100
0000
0100
0001
0010
0000
0100
0000
0010
0000
0100
0000
,
1100
MMMM
0010
1010
MMMM
0001
1001
1000
0100
0010
0001
0100
0020
0000
1030
0001
,
2000
0000
0000
3001
0001
0100
1000
1000
0100
0020
0100
0000
,
0130
0000
0000
0000
0000
0000
0000
0000
0010
0000
0000
0000
1000
0000
0000
0000
1000
0000
0000
0000
0100
0000
0000
0000
0002
0000
0000
0000
2003
0000
0000
0000
3020
0000
0000
0000
0032
0000
0000
0000
0000
0000
0013
0000
0000
0100
0000
0000
,
0101
0000
0100
0000
2100
0000
0000
0000
3001
0000
0010
0000
0100
0000
1000
0000
0100
0000
0001
0000
0100
1000
0010
0100
0001
0000
MMMM
0000
0000
0000
1010
0000
,
MMMM
0000
0000
0000
1002
0000
0000
0000
0000
0000
1003
0000
0010
0000
0100
0000
1001
0000
0000
0001
0010
0000
0100
0000
1002
0000
0000
0000
0000
0000
0000
0000
,
0100
0000
0000
0000
0100
0000
0000
0100
0000
0000
0100
0000
2003
0000
0000
0000
,
0100
0000
0000
0000
0100
0000
0000
0100
0000
0000
0100
0000
3002
0000
0000
0000
,
0010
0000
0000
0000
0010
0000
0000
0010
0000
0000
0010
0000
1003
0000
0010
0000
,
0001
0100
0001
0010
1000
0100
1000
0001
,
0100
0010
0100
0010
0000
0000
1000
0000
0000
0001
0000
0000
0010
0100
0010
0100
0000
0000
0020
0000
0000
0000
0000
0000
,
0032
0000
0000
0000
0000
0000
0000
0000
0000
0000
0000
0000
2003
0000
0000
0000
0000
0000
0000
0000
3010
0000
0100
0000
0001
0000
0000
0000
0000
0000
0000
0000
0000
0000
0000
0000
1000
0000
0000
0000
0000
0000
0010
0000
0000
1000
0000
0000
,
0100
0000
0010
0001
0100
0001
1000
0000
0010
0000
0001
0000
0010
1000
0001
0000
,
0010
0000
1000
0010
0001
0100
0010
0000
1000
0000
0001
0000
1000
0100
0001
0000
,
0001
0100
1000
0000
0001
0000
0010
1000
0000
0010
0001
0000
1000
0000
0010
0001
,
0000
0000
0000
0010
0000
0000
1000
0000
0000
0000
0000
0000
0001
0000
0000
0000
0000
0000
0010
0000
0000
0100
0000
0000
1000
0000
0000
0000
0000
0000
0001
0000
0100
0000
0010
0000
1000
0000
0000
0000
0000
0000
0000
0000
0000
0000
0000
0000
,
1010
0000
0000
0000
1100
0000
0000
1000
0100
0000
0110
0000
1001
0000
0000
0000
,
0011
0000
0000
0000
0101
0000
0000
0001
0100
0000
0100
0010
1000
0000
0000
0000
,
MMMM
0000
0000
0000
MMMM
0000
MMMM
0000
MMMM
0000
MMMM
0000
1000
0100
1000
0100
,
0001
0100
0001
0100
1000
0010
0001
0010
1000
0000
0000
0000
1000
0010
0010
0010
,
0110
0000
0001
0001
1000
1000
0100
1000
1100
0100
0010
0010
0001
0001
0001
0001
,
0101
0000
1010
1000
0000
0001
0010
0100
0110
0010
0001
1000
0001
0100
0100
0100
,
0110
0000
0010
1000
0001
0010
0010
1000
0101
0100
1000
0010
0001
0010
0100
1010
,
0100
0010
0011
0000
0000
0010
0001
0100
1000
0100
0001
1000
1100
0000
0101
0000
,
2020
3030
0000
0000
0000
0000
0022
0033
0000
0000
0000
0000
2002
3003
0000
0000
0000
0000
0001
0000
1000
0000
0100
0010
0001
0000
0101
0000
0100
0000
0001
0000
,
0011
0000
1010
0000
1001
0000
1000
0100
0010
0001
0010
0100
1000
0000
0010
0000
0001
0000
0000
0010
0000
0000
1000
0000
1001
0000
0001
0000
0010
0000
0100
0000
,
2000
0000
3010
0001
0010
0100
0002
0000
0013
1000
0010
0100
2000
0000
0000
0000
3000
0000
0001
0000
0100
0000
0010
0000
1000
0000
0000
0100
0010
0000
0000
0000
,
1001
0000
0000
0000
0000
0000
0000
0000
0010
0100
0001
0010
0100
1000
0010
0100
0001
0000
0000
0000
0000
0000
0000
0000
1001
0000
0000
0000
1000
0000
0100
0000
,
0010
0000
0010
0001
1000
0000
1000
0001
0100
0000
0100
0010
1000
0000
1000
0010
,
0001
0000
0001
0010
0100
0000
1100
0000
MMMM
0000
0100
0000
0101
0000
0000
0000
,
0001
0010
0010
2000
0000
3010
0100
0100
,
1000
0000
1000
0010
0001
0000
0001
0010
2000
0000
0000
0000
3001
0000
0001
0100
,
0010
0000
0010
1000
0001
0000
0001
0010
0100
0000
0100
1000
0010
0000
0010
0100
,
0001
0000
0001
0100
1000
0000
1000
0100
0001
0000
0001
1000
0010
0000
0100
0001
,
0010
0000
0100
1000
0001
0000
1000
0000
1001
0000
0000
0000
0001
1000
0000
0010
,
1000
0000
0000
0100
0000
0000
0000
0000
0000
0010
0000
0000
0001
0000
0000
0100
0000
0000
0010
0000
0000
1000
0000
0000
0001
0000
0000
1000
0100
0010
0001
0000
0100
0000
0010
0000
1000
0000
0000
0000
0000
0000
0010
0000
0000
0000
0000
0000
,
0001
0000
0010
1000
0100
0000
0001
0000
1000
0000
0010
0001
0100
0000
1000
0000
,
0100
0000
0000
0000
0010
0000
0000
0000
1000
0000
0000
0000
0010
0100
0010
1000
0001
0000
0000
0000
MMMM
0000
0011
0000
0000
0000
MMMM
0000
1010
0000
0000
0000
,
0000
1000
0100
0001
0010
0000
MMMM
0000
2002
0000
0000
0000
0000
0000
0000
0000
,
0000
0000
3003
0000
;

//---------------dance-double - DDRDAIKENKAI-BDP----------------
#NOTES:
     dance-double:
     DDRDAIKENKAI:
     Easy:
     9:
     :
00000000
00000000
00000000
00000000
,
00000000
00000000
00000000
00000000
,
00000000
00000000
00000000
00000000
,
10000000
00000000
00000000
00010000
00000000
00000000
20020000
00000000
00000000
00000000
00000000
00000000
30030000
00000000
00000000
00000000
,
01000000
00100000
00010000
01000000
,
00010000
00100000
00001000
00010000
,
00001000
00001000
00000100
00000100
,
00000010
00000000
00000010
00000000
00001000
00000000
00000001
00001000
,
00000002
00000000
00000003
00001000
00001000
00000000
00000100
00000000
,
00000010
00000000
00000000
00000001
00000001
00000000
00000100
00000000
,
00000010
00000001
00000010
00000010
,
00001000
00000000
00000100
00000000
00010000
00000000
00001000
00010000
,
00002000
00000000
00003000
00010000
00010000
00000000
01000000
00000000
,
00100000
00100000
00010000
00010000
,
01000000
00100000
10000000
01000000
,
00100000
00000000
01000000
00000000
10000000
00000000
00010000
20000000
,
00000000
00000000
30010000
00100000
00010000
00000000
10010000
00000000
,
10000000
11000000
00010000
01010000
,
00100000
00000000
00001000
00000000
00010000
00000000
00000100
00001000
,
00000000
00000000
00001100
00000000
00000010
00000000
00000001
00000100
,
00000001
00000101
00001000
00001100
,
00010000
00011000
00100000
00110000
,
01000000
00000000
11000000
00000000
10000000
00010000
20000000
00000000
,
30010000
00000000
01000000
00000000
00001000
00010000
00001000
00010000
,
00002000
00000000
00000000
00000000
00010000
00000000
00000000
00013000
00000000
00000000
00000100
00000000
00001000
00000000
00000100
00000000
,
00000020
00000000
00000000
00000000
00000001
00000000
00000000
00000031
00000000
00000000
00001000
00000000
00000010
00000000
00000100
00000000
,
00000020
00000000
00000000
00000000
00002030
00000000
00000000
00003100
00000000
00000000
00010000
00000000
00002000
00000000
00000000
00000000
,
00103000
00001000
00100000
00001000
00100000
00010000
01000000
10000000
,
01000000
00010000
01000000
00010000
,
00100000
00000000
00100000
00010000
00100000
00000000
00001000
00000000
,
00010000
00000100
00010000
00000100
,
00001000
00000000
00001000
00000010
00001000
00000000
00000001
00000000
,
00000010
00000100
00000010
00000001
,
00000100
00000010
00000000
00001000
00000000
00001000
00000100
00000000
,
00010000
00000000
00001000
00000000
00100000
00001000
00100000
00000000
,
00010000
01000000
00000000
00100000
00000000
10000000
10000000
00000000
,
10010000
10000000
00010000
02000000
00000000
03100000
00010000
00100000
,
10000000
00100000
00010000
00001000
00010000
00001000
00000100
00000001
,
00001000
00001100
00001001
00000002
00000000
00000103
00001000
00000100
,
00000002
00000000
00000000
00000023
00000000
00000000
00000130
00000000
00010000
00000000
00001000
00010000
00002000
00000000
00203000
00000000
,
00320000
00000000
01030000
00200000
,
00000000
00000000
00000000
00000000
00000000
00000000
00000000
00000000
00000000
00000000
00000000
00000000
10300000
00000000
00000000
00000000
00000000
00000000
00000000
00000000
00000000
00000000
00000000
00000000
20020000
00000000
00000000
00000000
00000000
00000000
00000000
00000000
30030000
00000000
00000000
00000000
02000000
00000000
00000000
00000000
00000000
00000000
00000000
00000000
00000000
03200000
00000000
00000000
,
00000000
00000000
00320000
00000000
00000000
10030000
10000000
00000000
01000000
00000000
00100000
00000000
00010000
00000000
00000000
00001000
,
00000000
00012000
00000000
00003100
00000010
00000001
00000200
00000000
,
00000000
00000000
00000000
00000301
,
00000001
00000002
00002003
00003100
,
00000010
00000100
00010000
00001000
,
00001000
01000000
00100000
00010000
,
00100000
10000000
01000000
00100000
,
00001000
00010000
00001000
00011000
,
00001100
00000000
00000110
00000000
00000001
00001000
00000001
00000000
,
00000100
00000000
00000001
00000010
00000001
00000000
00001000
00000000
,
00000100
00001000
00000100
00000000
00000001
00000000
00000100
00000000
,
00010000
00000000
00001000
00000000
00100000
01000000
00100000
00000000
,
00010000
01000000
10000000
01000000
,
00010000
00100000
00001000
00000000
00010000
00000000
00000100
00000000
,
00010000
00001000
00000100
00000001
,
00000010
00000100
00000020
00000000
00000030
00000000
00001001
00000100
,
00000010
00001002
00000000
00001003
00000100
00000010
00000100
00010000
,
00001000
00000000
00100000
00010000
00000000
10000000
00100000
00000000
01000000
00000000
00010000
00000000
10000000
00000000
01000000
00000000
,
00010000
00000000
01000000
10000000
01000000
00000000
00100000
01000000
00100000
00000000
00010000
10000000
00010000
00000000
00000000
00110000
,
00000000
00021000
00000000
00030100
00000010
00000001
00001000
00000001
,
00000010
00000000
00000000
00000010
00000000
00000000
00000200
00000000
00000300
00000000
00001000
00000000
00001000
00000000
00000100
00000000
,
00010000
00001000
00100000
01000000
00010000
01000000
10000000
00100000
,
01100000
00000000
00000000
00110000
00000000
00000000
00011000
00000000
00000000
00010000
00001000
00010000
00001000
00000000
00000100
00000000
,
00000020
00000000
00000000
00000000
00000030
00000000
00001000
00000002
00002000
00000000
00000000
00000000
00003003
00000000
00000000
00000000
,
00001000
00000000
00000001
00001000
00000000
00000100
00000000
00000000
,
00000010
00000001
00000010
00000002
00000000
00000000
00000103
00000000
,
00000010
00001000
00000010
00002000
00000000
00000000
00003100
00000000
,
00010000
00001000
00010000
00002000
00020000
00000000
00033000
00000000
,
01000000
00000000
10000000
00010000
00000000
00010000
10000000
00010000
,
00000000
00010000
00100000
00001000
00000000
00000000
00011000
00000000
,
00001000
00000000
00000100
00000001
00000000
00000001
00000100
00000000
,
00000001
00001000
00000001
00001000
00000020
00000000
00000030
00000110
,
00000010
00000001
00000100
00001000
00000001
00001000
00000100
00010000
,
00001000
00000000
00100000
00000000
00010000
00000000
01000000
00100000
20000000
00000000
00000000
30020000
00000000
00000000
00230000
00000000
,
00000000
00001000
00302000
00000000
00020000
00000000
00000000
00000000
,
00000000
00000000
00000000
00033000
;

//---------------dance-double - forcednature-DDP----------------
#NOTES:
     dance-double:
     forcednature:
     Medium:
     12:
     :
00000000
00000000
00000000
00000000
,
00000000
00000000
00000000
00000000
,
00000000
00000000
00000000
00000000
,
00010000
00000000
00000000
00001000
00000000
00000000
00022000
00000000
00000000
00000000
00000000
00000000
00000000
00000000
00033000
00000000
,
01000000
00000000
00000000
00000000
00010000
00000000
00000000
00000000
00100000
00000000
00000000
01000000
00000000
00000000
00100000
00000000
,
00000000
00000000
00001000
00000000
00010000
00000010
00010000
00000000
,
00000100
00000000
00000000
00000000
00001000
00000000
00000000
00000000
00000001
00000000
00000000
00000100
00000000
00000000
00000001
00000000
,
00001000
00000000
00000000
00000100
00000000
00000000
00001000
00000000
00000000
00000000
00000000
00000000
00000010
00000000
00000000
00000000
,
00020000
00000000
00030000
00001000
00100000
00010000
00100000
02000000
,
00000000
23000000
00000000
30100000
01000000
00010000
01000000
00002000
,
00000000
00013000
00000100
00001000
00000100
00000010
00000001
00002000
,
00000000
00003010
00010000
00001000
00010000
00000100
00001000
00000100
,
00020000
00000000
00030000
00001000
00001000
01000000
00010000
02000000
,
00000000
03100000
10000000
00020000
00000000
00130000
01000000
00200000
,
00000000
00301000
00010000
00000010
00001000
00000010
00000100
00000002
,
00000000
00000013
00000010
00000100
00001000
00000010
00010000
00001000
,
00100000
00000000
01100000
00000000
01000000
10000000
00010000
00000000
,
01000000
00001000
00010000
00000010
00001000
00000000
00000100
00000010
,
00000001
00000000
00000100
00000000
00001000
00000000
00010000
00000010
,
00000000
00000010
00001000
00000000
00000100
00001000
00000100
00010000
,
00001000
00000000
01000000
00010000
00100000
00000000
01000000
10000000
,
00010000
00000000
01000000
00010000
01000000
00000000
00001000
00010000
,
00000000
00000100
00001000
00000100
00000010
00000001
00000020
00000000
,
00000000
00000130
00010000
00001000
01000000
00000000
00010000
00100000
,
02000000
00000000
00000000
00000000
,
03200000
00000000
00000000
00000000
,
00302000
00000000
00000000
00000000
,
00013000
00000000
00000000
00000020
00000000
00000000
00010030
00000000
00000000
00000200
00000000
00000000
00001300
00000000
00000000
00000001
00000000
00000000
00000100
00000000
00000010
00000100
00000000
00000000
,
00001001
00000000
00001000
00000100
00010000
00000000
00001000
01000000
,
00000000
00010000
00100000
01000000
00100000
00000000
00010000
00000000
,
10010000
00000000
10000000
00100000
01000000
00100000
00010000
00001000
,
00000000
00010000
00000100
00001000
00000001
00001000
00000010
00010000
,
00002000
00203000
02300000
23000000
,
30100000
01000000
00000000
01100000
00000000
01000000
00001000
00010000
,
00000100
00000100
00001000
00001000
00000001
00000100
00000001
00001000
,
00000020
00000000
00000000
00010030
,
00001001
00000000
00000000
00000000
00001000
00000000
00000000
00000000
00000100
00000000
00000000
00010000
00000000
00000000
00001000
00000000
00000000
00000000
01000000
00000000
00010000
00000000
00000000
00000000
00100000
00000000
01000000
00000000
00100000
00000000
00000000
00000000
,
00010000
00000000
01000000
00000000
00010000
00000000
00000000
00000000
10000000
00000000
00000000
00100000
00000000
00000000
10000000
00000000
01000000
00000000
00000000
00100000
00000000
00000000
01000000
00000000
00000000
00000000
00010000
00000000
00001000
00000000
00000000
00000000
,
00010100
00000000
00000000
00000000
00010100
00000000
00000000
00000000
00000100
00000000
00000000
00001000
00000000
00000000
00000001
00000000
00000000
00000000
00000100
00000000
00000010
00000000
00000000
00000000
00001000
00000000
00000100
00000000
00001000
00000000
00000000
00000000
,
00000010
00000000
00010000
00001000
00000000
00100000
00020000
00000000
01000000
00000000
10000000
00000000
00230000
00000000
00000000
00000000
,
01300000
00000000
00000000
00100000
00000000
00100000
00001000
00000000
00001000
00010000
00000000
00000000
,
00000010
00000000
00000000
00000000
00000000
00000000
00000000
00000000
00000000
00000000
00000000
00000000
00001000
00000000
00000000
00000000
00000001
00000000
00000000
00000000
00001000
00000000
00000000
00000000
00000002
00000000
00000000
00000000
00000023
00000000
00000000
00000000
00000230
00000000
00000000
00000000
00001300
00000000
00000000
00000000
00000000
00000000
00000010
00000000
00000000
00010000
00000000
00000000
,
00000000
00000000
00000000
00000000
00000100
00000000
00000000
00000000
00001000
00000000
00000000
00000000
00000000
00000000
00000000
00000000
00000000
00000000
00000000
00000000
00000001
00000000
00000000
00000000
00000010
00000000
00000000
00000000
00000100
00000000
00000000
00000000
00001000
00000000
00000000
00000000
00000010
00000000
00000000
00000000
00010000
00000000
00000000
00000000
00001000
00000000
00000000
00000000
00200000
00300000
00000000
00000000
00000000
00000000
00000000
00000000
00000000
00000000
00000000
00000000
02000000
03000000
00000000
00000000
,
00000000
00000000
00000000
00000000
00000000
00000000
00000000
00000000
20020000
30000000
00000000
00000000
00000000
00000000
00000000
00000000
00000000
00000000
00000000
00000000
01030000
00000000
00000000
00000000
00010000
00000000
00000000
00000000
00100000
00000000
00000000
00000000
00002000
00000000
00000000
00000000
00000000
00000000
00000000
00000000
00023000
00000000
00000000
00000000
00000000
00000000
00000000
00000000
00030020
00000000
00000000
00000000
00000000
00000000
00000000
00000000
00000000
00000000
00000000
00000000
00000000
00000000
00000000
00000000
,
00000000
00000000
00000000
00000000
,
00000000
00000030
00000000
00000100
,
00000001
00000000
00000010
00000100
00001000
00000100
00000000
00010000
,
00001000
01000000
00010000
00000000
00100000
00000000
01000000
10000000
,
01000000
00000000
00010000
00001000
00010000
00000000
00000020
00000000
,
00002030
00000000
00000000
00003001
00000000
00000010
00000200
00000000
00000000
00010300
00000000
00000000
,
00001000
00000000
00000000
00000000
01000000
00000000
00000000
00010000
00000000
00000000
00100000
00000000
00000000
00000000
01000000
00000000
,
10000000
00100000
01000000
00010000
01000000
00001000
00010000
00010000
,
00000100
00000000
00000100
00000000
00001000
00000000
00000000
00000001
00000000
00000000
00001000
00000000
00000010
00000000
00000000
00010000
,
00000000
00000010
00000000
00001000
00000100
00010000
00001000
00000000
,
02000000
03020000
00230000
00302000
,
00013000
00000010
00002000
00000000
00003200
00000000
00000320
00000000
,
00000032
00000000
00000203
00000000
00002300
00000000
00013000
00010000
,
00100000
00000000
00100000
00000000
01000000
00000000
00010000
00000000
10000000
00000000
00000000
00000000
01000000
00100000
00010000
00100000
,
00002000
00000000
00013000
00000010
00002000
00000000
00003001
00000010
00000100
00000010
00000001
00001000
00000020
00000000
00020030
00000000
,
00032000
00000000
01003000
00020000
00000000
00130000
01000000
00100000
00010000
01000000
00010000
10000000
00100000
01000000
00010000
01000000
,
00002000
00000000
00013000
00000100
00002000
00000000
00003010
00000100
00000001
00000010
00000001
00001000
00000010
00000000
00000000
00010010
,
00000000
00000000
00201000
00000000
00000000
01000000
10300000
00010000
01000000
00000000
00001000
00010000
00000100
00000000
00000100
00000000
,
00000010
00000000
00000000
00000001
00000000
00000000
00001001
00000000
00000000
00001000
00000010
00010000
00001000
00100000
00010000
00100000
,
01000000
00000000
01000000
00000000
01000000
00000000
00000000
00000000
10000000
00000000
00000000
00010000
00000000
00000000
00100000
00000000
00010000
00000000
00000000
01000000
00000000
00000000
00001000
00000000
00000000
00000000
00010000
00000000
00000100
00000000
00001000
00000000
,
00000100
00000000
00000000
00000110
00000000
00000000
00001002
00000000
00000000
00000013
00000100
00001000
00000010
00000000
00010000
00000000
,
00012000
00000000
00000000
00000000
00103000
00100000
00010000
01000000
00000000
00000000
00000000
00000000
01100000
00000000
00000000
00000000
,
00100000
10000000
01000000
00100000
00001000
01000000
00010000
00000000
,
00100000
00001000
00010000
00000010
00001000
00000100
00000010
00000000
,
00000100
00001000
00000001
00000100
00000010
00010000
00001000
00100000
,
00010000
01000000
00001000
00000000
00011000
00000000
00010000
00000100
,
00001000
00000010
00010000
00001000
00100000
00000000
00010000
01000000
,
00001000
00010000
00001000
00100000
00010000
00000000
10000000
00100000
,
10000000
00010000
10000000
01000000
00010000
00000000
00001000
00001000
,
00000010
00000000
00000010
00000000
00000001
00000000
00001000
00000001
00002000
00000000
00000000
00000000
00003100
00000000
00001001
00000000
,
00000001
00000000
00000100
00000010
00010000
00000000
00001000
00000000
00100000
00000000
00010000
00100000
01000000
00000000
10000000
00000000
,
00010000
00000000
01000000
00000000
00001000
00000000
00010000
00000100
00002000
00000000
00000000
00003002
00000000
00000000
00000203
00000000
,
00000000
00001300
00010000
00001000
00010000
00000000
00000000
00000000
20020000
00000000
00000000
00000000
00000000
00000000
00000000
00000000
,
00000000
00000000
30030000
00000000
;

//---------------dance-double - DDRDAIKENKAI-EDP----------------
#NOTES:
     dance-double:
     DDRDAIKENKAI:
     Hard:
     15:
     :
00000000
00000000
00000000
00000000
,
00000000
00000000
00000000
00000000
,
00000000
00000000
00000000
00000000
,
10100000
00000000
00000000
00110000
00000000
00000000
00021000
00000000
00000000
00030100
00000010
00000001
00002000
00000000
00000000
00000000
,
00003100
00000000
00000000
00000000
00000010
00000000
00000000
00000000
00000001
00000000
00000000
00001000
00000000
00000000
00000100
00000000
,
00000000
00000000
00000100
00000000
00000010
00000000
00000100
00001000
00000100
00000000
00010000
00000000
00001000
00000000
00010000
00000000
,
00000100
00000000
00000100
00000000
00010000
00000000
00010000
00000000
00001000
00000000
00000000
00100000
00000000
00000000
01000000
00000000
,
00010000
00000000
00000000
01000000
00000000
00000000
10000000
00000000
00000000
00000000
10000000
00000000
01000000
00000000
00010000
00000000
,
00002000
00000000
00000000
00000000
00003000
00000000
00100000
00010000
00100000
00000000
00001000
00000000
00100000
00000000
00020000
00000000
,
00000000
00000000
02030000
00000000
00000000
00000000
03010000
10000000
01000000
00000000
00010000
00000000
01000000
00000000
00200000
00000000
,
00000000
00310000
00001000
00001000
00000100
00001000
00000001
00000020
,
00000000
00000031
00001000
00000100
00010000
01000000
00100000
01000000
,
20000000
00000000
00000000
00000000
30000000
00000000
00010000
01000000
00010000
00000000
00100000
00000000
00001000
00000000
00200000
00000000
,
00000000
00000000
00310000
00000000
10000000
00000000
00020000
00000000
00000000
00000000
01030000
00010000
00100000
00000000
00020000
00000000
,
00000000
00000000
00130000
00000000
00001000
00000000
00100000
00010000
10000000
00000000
00100000
00000000
10000000
00000000
02000000
00000000
,
00000000
00000000
03010000
00001000
00010000
00000000
00000100
00000000
00000001
00000000
00000100
00000000
00000010
00000000
00000002
00000000
,
00000000
00001003
00000100
00001000
00000010
00000000
00001010
00000001
,
00001000
00000000
00000011
00000100
00010000
00001000
00100000
00010000
,
10000000
00000000
10100000
00000000
00010000
00000000
00101000
00020000
,
00000000
00030100
00000010
00000100
00000001
00000100
00010000
00001000
,
00100000
00010000
01000000
00100000
20000000
00000000
30010000
10000000
,
00200000
00000000
01300000
00010000
00100000
01000000
10000000
00010000
,
00000000
00010000
00001000
00010000
00100000
01000000
00020000
00000000
,
00030100
00000010
00000100
00010000
00001000
00100000
00010000
10000000
,
00200000
00000000
00300000
01000000
00200000
00000000
01300000
00100000
00000000
01000000
00010000
00100000
00002000
00000000
00003200
00000000
,
00000320
00000000
00000030
00001000
00000020
00000000
00000130
00000010
00000000
00010000
00001000
01000000
00010000
00000000
00010000
00000000
,
20000000
00000000
31000000
10000000
00010000
00001000
00010000
20000000
00000000
30100000
01000000
00001000
00010000
00001000
01000000
00100000
,
10000000
00000000
00000000
00010000
00000000
00000000
01000000
00100000
01000000
00100000
00000000
00000000
10000000
00000000
00000000
00010000
00000000
00000000
00100000
01000000
00100000
01000000
00000000
00000000
00200000
00000000
00000000
00000000
00000000
00000000
00302000
00000000
00000000
00000000
00000000
00000000
00003020
00000000
00000000
00000000
00000000
00000031
00001000
00000000
00000000
00000000
00000000
00000000
,
00001001
00000000
00000000
00000001
00001000
00000000
00000001
00000000
00000100
00000000
00000000
00000001
00001000
00000000
00000001
00000000
,
00000010
00000000
00000000
00000100
00000010
00000000
00000100
00000000
00010000
00000000
00000100
00010000
00001000
00000000
00100000
00000000
,
00010000
00000000
00000000
10000000
01000000
00000000
10000000
00000000
00010000
00000000
00000000
10000000
01000000
00000000
00100000
00000000
,
01000000
00000000
00000000
10000000
00010000
00000000
00100000
00000000
00001000
00000000
00010000
00000100
00001000
00000000
00000100
00000000
,
00001100
00000010
00000001
00000100
00001000
00010000
00100000
10000000
,
01000000
00100000
00010000
00001000
00000100
00000010
00000001
00000100
,
00001000
00000000
00001000
00000000
00100000
00000000
00100000
00000000
01000000
10000000
01000000
10000000
01000000
00100000
01000000
00100000
,
00010000
00000000
00100000
00000000
00001000
00000000
00010000
00000000
00000000
00000000
00000100
00000010
00000001
00000000
00000000
00000000
,
00000201
00000000
00000000
00000000
00000010
00000000
00000000
00000000
00002300
00000000
00000000
00003200
00000000
00000000
00000301
00000000
00000000
00000000
00000010
00000000
00000100
00000000
00000010
00000000
00000001
00000000
00000010
00000000
00000100
00000000
00001000
00000000
,
00000100
00000000
00000100
00000000
00010000
00000000
00010000
00000000
00002000
00000000
00000000
00203000
00000000
00000000
01300000
00000000
20000000
00000000
00000000
30200000
00000000
00000000
00310000
00000000
00000000
00000000
00001000
00000000
00100000
00000000
00010000
00000000
,
00100000
00000000
00000000
00000000
01100000
00000000
00000000
00000000
20010000
00000000
00000000
30020000
00000000
00000000
01030000
00000000
00000000
00000000
00001000
00000000
00100000
00000000
00001000
00000000
00010000
00000000
00000100
00000000
00000010
00000000
00000100
00000000
,
00002000
00000000
00013000
01000000
00000000
00100000
10100000
10000000
01000000
10000000
00010000
00100000
00002000
00000000
00103000
00010000
,
20000000
00000000
00000000
31000000
10000000
00010000
00100000
00001000
00010000
00002000
00000000
00000000
,
00000000
00000000
00000000
00000000
00000000
00000000
00000000
00000000
00000000
00000000
00000000
00000000
00003100
00000000
00000000
00000000
00000001
00000000
00000000
00000000
00000010
00000000
00000000
00000000
00000001
00000000
00000000
00000000
00000001
00000000
00000000
00000000
00000001
00000000
00000000
00000000
00000011
00000000
00000000
00000000
00000000
00000000
00000001
00000000
00000000
00000100
00000000
00000000
,
00000000
00000010
00020010
00000000
00000000
00031000
00000100
00001000
00010000
00001000
00100000
00010000
10010000
00000000
00000000
01100000
,
00000000
00000000
20010000
00000000
00000000
31000000
00100000
00010000
20000000
00000000
30200000
00000000
02300000
00000000
00000000
00000000
,
13000000
00000000
00000000
00000000
01000000
00000000
00000000
00010000
00000000
00000000
10000000
00000000
01000000
00000000
00000000
00000000
,
00010000
00000000
00000000
00000000
01000000
00000000
00000000
10000000
00010000
00000000
01000000
00000000
00200000
00000000
00000000
00000000
,
00310000
00100000
01000000
00010000
00100000
00002000
00000000
00103000
,
01000000
00100000
00010000
01000000
00100000
00010000
00001000
00000100
,
00000001
00001000
00000001
00001000
00000000
00000000
00000100
00000000
00000000
00001000
00000000
00000000
00000001
00001000
00000001
00001000
00000000
00000000
00000200
00000000
00000000
00000000
00000000
00000000
,
00010300
00000000
00000000
00000000
00011000
00000000
00000000
00001000
00100000
00010000
00000000
00010000
10000000
00000000
00000000
00000000
,
10100000
00000000
00000000
00000000
10010000
00000000
00000000
01000000
10000000
00000000
01000000
00000000
00100000
00000000
01000000
00000000
,
10000000
00000000
00100000
10000000
00100000
00000000
10000000
00000000
00010000
00000000
01000000
00000000
00100000
00000000
00100000
00000000
,
10000000
00000000
10000000
00000000
01000000
00000000
00000000
00010000
00000000
00000000
00001000
00000000
00100000
00000000
00000000
00001000
,
00000000
00000100
00000000
00000100
00000001
00000010
00000100
00000000
,
00000101
00000011
00001010
00011000
,
00010000
00000000
01000000
00000000
00100000
00000000
00000000
00000000
01100000
00000000
00100000
01000000
00100000
00000000
00100000
00000000
,
10000000
00000000
10000000
00000000
01000000
00000000
01000000
00000000
00010000
00000000
00010000
00000000
00001000
00010000
00001000
00010000
,
00000100
00001000
00000100
00001000
00000001
00001000
00000100
00010000
00001000
00000000
00000000
00000000
00021000
00001000
00001000
00031000
,
00200000
00000000
02300000
10000000
13000000
00000000
02000000
00010000
03010000
02000000
00100000
03100000
01200000
00000000
00302000
00000000
,
00023000
00000000
00031000
00000200
00000000
00000301
00000010
00000100
00000001
00000100
00000010
00000001
00000100
00000010
00001000
00000100
,
00000020
00000000
00000031
00000100
00000002
00000000
00000103
00000001
00000010
00001000
00010000
01000000
10000000
01000000
00010000
00001000
,
00000010
00000001
00002000
00000000
00000000
00003001
00000010
00000001
00001000
00000100
00010000
00001000
01000000
00000000
00100000
00000000
,
00010000
00000000
00000000
00000000
00000000
00000000
00110000
00000000
00000000
00000000
00000000
00000000
00021000
00000000
00000000
00000000
00000000
00000000
00030100
00000000
00000010
00000000
00000000
00000001
00001000
00000000
00000010
00000000
00010000
00000000
00001000
00000000
,
00010000
00000000
00010000
00000000
00000100
00000000
00010000
00000000
00002000
00000000
00000000
00203000
00000000
00000000
01300000
00000000
00020000
00000000
00000000
02030000
00000000
00000000
13000000
00000000
00000000
00000000
10000000
00000000
00010000
00000000
10000000
00000000
,
11000000
00000000
00000000
00100000
00000000
00000000
00110000
00000000
00000000
00001000
00000000
00000000
00012000
00000000
00000000
00000000
00003000
00000000
00100000
00000000
00001000
00000000
00010000
00000000
00000100
00000000
00000000
00000000
00010100
00000000
00000000
00000000
,
00021000
00000000
00000000
00000000
00000000
00000000
00000000
00000000
00030001
00001000
00000010
00001000
00000200
00000000
00000320
00000000
00000031
00000000
00000000
00000000
00000000
00000000
00000000
00000000
00001100
00000000
00000000
00000000
00000001
00000000
00001000
00000000
,
00000001
00000000
00001000
00000000
00000100
00000000
00000001
00000000
00000100
00000000
00010000
00000000
00001000
00000000
00100000
00010000
,
00100000
10000000
00010000
02000000
10000000
13000000
00020000
00100000
,
00130000
00001000
00010000
00000200
00001300
00000010
00010000
00001000
,
00100000
00000000
00010000
01000000
00010000
00000000
10000000
00000000
01000000
00000000
00000000
00000000
00110000
00000000
10000000
00010000
,
10000000
00010000
00100000
00001000
00000010
00001000
00100000
00010000
,
01000000
00000000
00001000
00100000
00010000
00000000
01000000
00000000
00010000
00000000
00100000
00000000
00001000
00000000
00010000
00000100
,
00001000
00000000
00000100
00000000
00000001
00000000
00000100
00000000
00001000
00000000
00000010
00000000
00010000
00001000
00000000
00100000
,
01000000
00100000
01000000
00100000
01000000
00000000
10000000
00010000
20000000
00000000
00000000
00000000
31000000
00000000
00021000
00000000
,
00030010
00000000
00000100
00000001
00000010
00000000
00001000
00000000
00010000
00000000
00100000
10000000
01000000
00000000
00010000
00000000
,
00000100
00000000
00000000
00000000
00000010
00000000
00000000
00000000
00000001
00000000
00000000
00000000
00000100
00000001
00001000
00000100
00020000
00000000
00000000
00000000
00000000
00000000
00032000
00000000
00000000
00000000
00000000
00000000
00203000
00000000
00000000
00000000
,
00000000
01300000
10000000
00100000
00020000
00000000
00000000
00000000
00002000
00000000
00000000
00000000
00000000
00000000
00000000
00000000
,
00000000
00000000
00033000
00000000
;

//---------------dance-double - forcednature-CDP----------------
#NOTES:
     dance-double:
     forcednature:
     Challenge:
     17:
     :
00000000
00000000
00000000
00000000
,
00000000
00000000
00000000
00000000
,
00000000
00000000
00000000
00000000
00000000
00000000
00000000
00000000
00000000
00000000
00000000
00000000
00000000
00000000
00000000
00000000
00000000
00000000
00000000
00000000
00000000
00000000
00000000
00000000
00000000
00000000
00000000
00000000
10000000
01000000
00100000
00001000
,
00010000
00000000
00000000
00010100
00000000
00000000
00000010
00000000
00000000
00000001
00000100
00001000
00020000
00000000
00000000
00000000
,
00130000
00000000
00000000
00000000
01000000
00000000
00000000
00000000
00010000
00000000
00000000
00100000
00000000
00000000
01000000
00000000
,
00000000
00000000
10000000
00000000
01000000
00000000
00010000
00001000
00010000
00000000
00000010
00000000
00000100
00000000
00001000
00000000
,
00000100
00000000
00000100
00000000
00000001
00000000
00000001
00000000
00000010
00000000
00000000
00000100
00000000
00000000
00010000
00000000
,
00001000
00000000
00000000
01000000
00000000
00000000
00100000
00000000
00000000
00000000
10000000
00000000
01000000
00000000
00010000
00000000
,
00002000
00000000
00000000
00000000
00003000
00000000
00000010
00000100
00000010
00000000
00000100
00000000
00010000
00000000
00002000
00000000
,
00000000
00000000
02003000
00000000
00000000
00000000
03010000
10000000
00100000
00000000
10000000
00000000
01000000
00000000
00020000
00000000
,
00000000
00031000
00000010
00000100
00010000
00000010
00000100
00002000
,
00000000
00000000
00013000
00000000
00100000
00000000
10000000
00000000
00010000
00000000
10000000
00000000
01000000
00000000
00100000
00001000
,
00020000
00000000
00000000
00000000
00030000
00000000
00100000
01000000
00100000
00000000
01000000
00000000
00001000
00000000
00020000
00000000
,
00000000
00000000
00030010
00000000
00001000
00000000
00000200
00000000
00000000
00000000
00000310
00000001
00000010
00000000
00002000
00000000
,
00000000
00000000
01003000
00000000
00010000
00000000
00100000
01000000
00100000
00000000
01000000
00000000
10000000
00000000
00020000
00000000
,
00000000
00000000
01030000
00001000
01000000
00000000
00010000
00000000
00100000
00000000
01000000
00000000
00010000
00000000
00001000
00000010
,
00000100
00010000
00000010
00000100
00001000
00000100
00000001
00000020
,
00000000
00000000
00001030
00000010
00000100
00010000
00001000
01000000
,
00200000
00000000
00001000
00000000
10300000
00100000
01000000
20000000
,
00000000
00000000
31000000
00000000
00001000
00000000
00100000
00000000
00010000
00000000
00001000
00000100
00010000
00000000
00001000
00010000
,
00000010
00000100
00001000
01000000
00020000
00000000
00130000
01000000
,
00020000
00000000
00031000
00000010
00000001
00000100
00000001
00000010
,
MMMMMMMM
00010000
00100000
10000000
01000000
00010000
00002000
00000000
,
00103000
00000000
00010000
00000000
00001000
00000000
00000100
00010000
00000100
00000000
00001000
00000000
00000010
00000000
00000001
00000000
,
00002000
00000000
00000000
00000100
00000100
00000000
00010000
00010000
00000000
01000000
01000000
01000000
01000000
00000000
00100000
00000000
,
00023000
00000000
00000000
01000000
01000000
00000000
00001000
00001000
00000000
00000100
00000100
00000100
00000100
00000000
00000010
00000000
,
00032000
00000000
01000000
00010000
00100000
00010000
01000000
00010000
00000000
00100000
00010000
01000000
00010000
00000100
00010000
01003000
,
00001000
00000000
00000000
00010000
00000000
00000000
00100000
01000000
00100000
01000000
00000000
00000000
00010000
00000000
00000000
10000000
00000000
00000000
01000000
00100000
01000000
00100000
00000000
00000000
00020000
00000000
00000000
00000000
00000000
00000000
00032000
00000000
00000000
00000000
00000000
00000000
00003200
00000000
00000000
00000000
00000310
00000001
00002000
00000000
00000000
00003000
00000000
00000000
,
00001001
00000000
00000001
00000100
00001000
00000000
01000000
00001000
,
00000000
00100000
00001000
00010000
00100000
00000000
01100000
00000000
,
10010000
00000000
10000000
01000000
00010000
00001000
00000100
00000001
,
00000000
00000000
00000000
00000000
00000000
00000000
00000010
00000000
00000000
00000000
00000000
00000000
00000100
00000000
00000000
00000000
00000000
00000000
00010000
00000000
00000000
00000000
00000000
00000000
00000010
00000000
00000000
00000000
00000000
00000000
00001000
00000000
00000100
00000000
00000010
00000000
00000001
00000000
00000000
00000000
00000000
00000000
00000100
00000000
00000000
00000001
00000000
00000000
,
00000100
00001000
00010000
00001000
00100000
00001000
00010000
00001000
,
00000010
00001000
00010000
00001000
01000000
00001000
00010000
00001000
,
00100000
00000000
00100000
00000000
01000000
00000000
01000000
00000000
00010000
00001000
00010000
00000100
00001000
00000100
00000010
00000001
,
00000200
00000000
00000302
00000000
00000023
00000000
00002030
00000000
00000000
00000000
01000000
01003000
00001000
00000000
00000000
00000000
,
00201000
00000000
00000000
00000000
01000000
00000000
00000000
00000000
10300000
00000000
00000000
00100000
00000000
00000000
00010000
00000000
00000000
00000000
00001000
00000000
00000100
00000000
00000010
00000001
00001000
00000000
00000010
00000000
00000001
00000000
00000010
00000000
,
00000100
00000000
00000100
00000000
00000001
00000000
00000001
00000000
00000010
00000000
00000000
00000100
00000000
00000000
00010000
00000000
00100000
00000000
00000000
01000000
00000000
00000000
00001000
00000000
00010000
00000000
01000000
00000000
10000000
00000000
00100000
00000000
,
01100000
00000000
00000000
00000000
00011000
00000000
00000000
00000000
00000110
00000000
00000000
00000001
00000000
00000000
00001000
00000000
00000000
00000000
00000010
00000000
00001000
00000000
00010000
01000000
00100000
00000000
00010000
00000000
00100000
00000000
10000000
00000000
,
02000000
03010000
00001000
00000200
00001300
00010000
00120000
00130000
10000000
01000000
10000000
00100000
00020000
00000000
00030100
00001000
,
00000020
00000000
00000000
00000130
00001000
00010000
00100000
10000000
01000000
00020000
01000000
00000000
,
01000000
00000000
00000000
00000000
00000000
00000000
00000000
00000000
00031000
00000000
00000000
00000000
00010000
00000000
00000000
00000000
00100000
00000000
00000000
00000000
10000000
00000000
00000000
00000000
00020000
00000000
00000000
00000000
00032000
00000000
00000000
00000000
00003020
00000000
00000000
00000000
00000230
00000000
00000000
00000000
00000000
00000000
00000310
00000000
00000000
00010000
00000000
00000000
,
00001000
00000000
00100000
00000000
02100000
00000000
00000000
00000000
13000000
00000000
00100000
00000000
00010000
00000000
00001000
00000000
00000100
00000000
00000001
00000000
00000010
00000100
00001000
00000010
00002000
00000000
00013000
00000000
00000000
00000000
00021000
00000000
,
10030000
00000000
00000000
00000000
02200000
00000000
03300000
00000000
00000000
00000000
10000000
00000000
00100000
00000000
01000000
00000000
01000000
00000000
00000000
01000000
00001000
00000000
00010000
00000000
00000200
00000000
00000000
00000000
00000000
00000000
00000000
00000000
,
00000000
00000000
00000000
00000000
,
00000000
00000300
00000000
00000020
,
00000031
00000100
00001000
00010000
00001000
00200000
00000000
01300000
,
00010000
01000000
10000000
00100000
00010000
00100000
01000000
00001000
,
00010000
00000010
00010000
00001000
00000000
00000000
00100000
00000000
00000000
00001000
00000000
00000000
00010000
00000100
00010000
00001000
00000000
00000000
00000020
00000000
00000000
00000000
00000000
00000000
,
00000230
00000000
00000000
00000000
00000000
00000000
00000000
00000000
00000000
00000000
00000000
00000000
00002300
00000000
00000000
00000000
00000000
00000000
00000000
00000000
00003001
00000000
00000100
00000000
00000020
00000000
00000000
00000000
00000000
00000000
00000000
00000000
00000000
00000000
00000000
00000000
00000130
00000000
00000000
00000000
00000000
00000000
00000000
00000000
00000000
00000100
00000000
00000000
,
00001000
00000000
00000000
00001000
00010000
00000000
00000000
01000000
00000000
00000000
00100000
00000000
00000000
00000000
00001000
00000000
,
00010000
00000000
00100000
10000000
01000000
00000000
00010000
00000000
00001000
00000000
00010000
00000000
00000010
00000000
00000100
00000000
,
00001000
00000000
00010000
00000000
00100000
00000000
00000000
00100000
10000000
00000000
01000000
00000000
00010000
00000000
00000000
00010000
,
00001000
00000000
00000000
00000010
00000000
00000000
00000000
00000000
00000000
00000100
00000000
00000000
00001000
00000000
00000000
00000010
00001000
00000010
00010000
00000000
00000000
00000000
00000000
00000000
,
00000100
00001000
00000000
00000000
00010000
01000000
00000000
00000000
00010000
00100000
00000000
00000000
00011000
00000000
00000000
00000000
,
00001000
00000000
00000010
00000000
00000001
00000010
00000000
00000000
00000100
00001000
00000000
00000000
MMMM0020
00000030
00000000
00000000
,
0200MMMM
03000000
00000000
00000000
MMMM0200
00000300
00000000
00000000
0020MMMM
00300000
00000000
00000000
00000100
00001000
00000100
00010000
,
00001000
01000000
00010000
01000000
00100000
00010000
00001000
00010000
00000100
00000000
00000000
00000000
00000110
00000010
00000001
00000100
,
00000120
00000000
00000130
00001000
01000000
00010000
00100000
00001000
00010000
00100000
10000000
01000000
00100000
00001000
00010000
00001000
,
00001020
00000000
00000130
00002000
00000000
00003001
00000100
00001000
00010000
00000100
00001000
00000010
00000100
00001000
01000000
00001000
,
00201000
00000000
00000000
00000000
01300000
00000000
10000000
00000000
00010000
00000000
01010000
00000000
01010000
00000000
01000000
00000000
00001000
00000000
00010000
00000100
00010000
00000000
00000100
00001000
00000100
00000000
00000010
00000000
00001000
00000000
00010000
00000000
,
00001000
00000100
00000120
00000000
00000000
00001030
00010000
01000000
00001000
00100000
01000000
10000000
00010000
00000000
01000000
00000000
,
00002000
00000000
00000000
00000000
00000000
00000000
00100000
00000000
00000000
00000000
00000000
00000000
00003010
00000000
00000000
00000000
00000000
00000000
00001000
00000000
00010000
00000000
00000100
00001000
00000001
00000000
00000100
00000000
00001000
00000000
00000100
00000000
,
00000110
00000000
00000110
00000000
00000110
00000000
00000010
00001000
00000010
00010000
00001000
01000000
00010000
00000000
00100000
00000000
01000000
00000000
00000000
00010000
00000000
00000000
00001000
00000000
00010000
00000000
00100000
00000000
10000000
00000000
01000000
00000000
,
01100000
00000000
00100000
00010000
01000000
00001000
00010000
00000000
00000010
00001000
00000100
00010000
00002000
00000000
00000000
00000000
00000000
00000000
00003100
00000000
00000010
00000000
00010000
00000000
00001000
00000000
00000000
00001000
00100000
00000000
00000000
00000000
,
10010000
00000000
00000000
00000000
00000000
00000000
00000000
00000000
10000000
01000000
00100000
00010000
00001000
00000100
00000010
00000001
00000200
00000000
00000000
00000000
00000000
00000000
00000000
00000000
00001300
00000000
00000000
00000000
00000100
00000000
00000001
00000000
,
00000010
00000100
00000010
00000001
00001000
00000000
00000010
00000000
00001000
00000000
00010000
01000000
00100000
00000000
10000000
01000000
,
00100000
00010000
01000000
00010000
00100000
00000000
01000000
10000000
01000000
00000000
00010000
00000000
00001000
00000000
00100000
00010000
,
01000000
00001000
00010000
00001000
00100000
00000000
00010000
00000000
00001000
00000000
00000100
00000000
00010000
00000000
00001000
01000000
,
00100000
00000000
00100000
00010000
00001000
00000000
00010000
00001000
00000200
00000000
00000000
00000000
00000301
00000000
00000010
00000100
,
00001000
00000100
00000010
00000001
00001000
00000000
00000010
00000000
00010000
00000000
00001000
00000000
00100000
00000000
01000000
10000000
,
00100000
10000000
00010000
01000000
00001000
00000000
00010000
00000100
00001000
00000000
00000010
00000000
00000001
00000000
00000010
00000100
,
00000001
00000010
00000100
00001000
00000010
00000000
00010000
00000000
00100000
00000000
01000000
00010000
00100000
00010000
00000000
00001000
,
00000100
00000000
00000000
00010000
00000000
00000000
00001000
00000000
00000000
01000000
00000000
00000000
00100000
00000000
00000000
10000000
00000000
00000000
00010000
00000000
00000000
00100000
00000000
00000000
00010000
00000000
00000000
10000000
01000000
00100000
00002000
00000000
00010000
00000000
00010000
00000000
01003000
00000000
00000000
00000000
00000000
00000000
01100000
00000000
00000000
00000000
00000000
00000000
,
00100000
00000000
10000000
01000000
00010000
00000000
00001000
00000000
00000010
00000000
00000100
00010000
00001000
00000000
00000100
00000000
,
00000001
00000000
00000000
00000000
00000010
00000000
00000000
00000000
00000100
00000000
00000000
00000000
00010000
00001000
01000000
00010000
00200000
00000000
00000000
00000000
00000000
00000000
02300000
00000000
00000000
00000000
00000000
00000000
03020000
00000000
00000000
00000000
,
00000000
00030200
00002300
00003020
00020030
00000000
00000000
00000000
00002000
00000000
00000000
00000000
00000000
00000000
00000000
00000000
,
00000000
00000000
00033000
00000000
;
