#VERSION:0.83;
#TITLE:HARSH WORDS;
#ARTIST:bhyper;
#BANNER:HARSH WORDS.png;
#BACKGROUND:HARSH WORDS-bg.png;
#JACKET:HARSH WORDS-jacket.png;
#MUSIC:HARSH WORDS.ogg;
#OFFSET:-0.004;
#SAMPLESTART:104.727;
#SAMPLELENGTH:15;
#BPMS:0=165;

//---------------dance-single - Kekkle-ESP----------------
#NOTEDATA:;
#CHARTNAME:Kekkle-ESP;
#STEPSTYPE:dance-single;
#DESCRIPTION:Kekkle-ESP;
#DIFFICULTY:Hard;
#METER:15;
#RADARVALUES:0.667984,0.744943,0.251831,0.687430,0.527484,687,650,37,101,0,0,0,0,0,0.667984,0.744943,0.251831,0.687430,0.527484,687,650,37,101,0,0,0,0,0;
#CREDIT:Kekkle;
#NOTES:
0000
0000
0000
0000
,
0000
0000
0000
0000
,
0000
0000
0000
0000
,
0000
0000
0000
0000
,
1001
0000
0000
0000
0001
0000
0000
1000
0000
1000
0020
0000
0130
0000
0001
1000
,
0001
0000
0000
0000
1000
0000
0000
0001
0000
0001
0010
0000
0100
2000
0000
3000
,
0001
0000
0000
0000
0100
0000
0000
0010
0000
0010
2000
0000
3001
0000
0100
0010
,
0100
0000
0000
0000
0000
0000
0000
0000
0000
0000
0000
0000
0001
0000
0000
0000
1000
0000
0000
0000
0000
0100
0000
0000
0000
0000
0000
0010
0000
0000
0001
0000
0000
0000
0000
0000
1000
0000
0000
0001
0000
0000
0000
0000
0000
0000
0000
0000
,
1002
0000
0000
0000
0103
0000
0000
0010
1000
0010
0100
0000
0001
0000
2000
0000
,
0000
0000
0000
0000
3100
0000
0000
0010
0001
0010
0100
0000
1000
0000
0002
0000
,
0000
0000
0000
0003
0100
0000
0000
0001
1000
0001
0100
0000
0010
0000
0200
0000
,
0000
0000
0000
0000
0000
0000
0000
0000
0000
0000
0000
0000
0310
0000
0000
0000
1000
0000
0000
0000
0000
0001
0000
0000
0000
0000
0000
1000
0000
0000
0100
0000
0000
0000
0000
0000
0010
0000
0000
0001
0000
0000
0000
0000
0000
0000
0000
0000
,
2001
0000
3001
0100
0020
1000
0100
0230
,
0000
0000
0301
0000
1000
0000
0200
0000
0000
0000
0310
0000
0001
1000
0000
0000
,
0002
0000
0103
0010
2000
3002
0013
0200
,
0000
0001
0000
0010
0000
1300
0001
0200
,
0000
0000
0000
0000
0310
0000
0000
1000
0001
1000
0100
0000
0010
0000
0002
0000
,
0000
0000
0000
0000
0103
0000
0000
0010
1000
0010
0100
0000
0001
0000
2000
0000
,
0000
0000
0000
0000
3100
0000
0000
0010
0001
1000
0001
0000
1000
0000
0020
0000
,
0000
0000
0000
0000
0000
0000
0000
0000
0000
0000
0000
0000
0130
0000
0000
0000
0001
0000
0000
0000
0000
1000
0000
0000
0000
0000
0000
0001
0000
0000
0020
0000
0000
0000
0000
0000
0000
0000
0000
0000
0000
0000
0130
0000
0000
0000
0000
0000
,
2000
0000
0000
0000
3001
0000
0000
1000
0000
1000
0100
0000
1000
0000
0002
0000
,
0000
0000
0000
0000
1000
0000
0000
0100
0000
0000
0100
0000
0103
0000
0000
0000
,
0020
0000
0000
0000
1030
0000
0000
0001
0000
0001
0020
0000
0130
0000
2000
0000
,
0000
0000
0000
0000
0000
0000
3001
0000
0000
0000
0000
0000
0100
0000
0000
0000
0010
0000
0000
0000
0000
1000
0000
0000
0000
0000
0000
0001
0000
0000
1000
0000
0000
0000
0000
0000
0100
0000
0000
0010
0000
0000
0000
0000
0000
0000
0000
0000
,
1001
0000
0000
0000
0001
0000
0010
0001
0010
0001
0010
0001
0010
0001
0010
0000
,
0100
1000
0001
1000
0000
1001
0001
0000
,
0010
0000
0000
0000
0001
0000
1000
0000
0010
1000
0010
1000
0010
1000
0010
0000
,
0100
0001
1000
0100
0000
0110
0000
0000
,
0010
0000
0000
0000
0001
0000
1000
0100
1000
0100
1000
0100
1000
0100
1000
0000
,
0001
0100
0010
1000
0000
1001
0001
0000
,
1000
0000
0001
0100
0010
1010
0000
1001
,
0000
0000
0011
0000
0010
0000
0010
0000
0000
0001
2000
0000
0000
3000
0000
0000
,
1001
0000
0000
0000
0001
0000
0100
0010
0100
0010
0100
0010
0100
0010
0100
0000
,
0001
1000
0010
1000
0000
1100
0100
0000
,
1000
0000
0000
0000
0001
0000
0010
0000
0100
0010
0100
0010
0100
0010
0100
0000
,
1000
0010
0100
0001
0000
0101
0000
0000
,
0100
0000
0000
0000
0010
0000
1000
0010
1000
0010
1000
0010
1000
0010
1000
0000
,
0001
0100
0010
1000
0000
1010
0010
0000
,
1000
0000
0000
0000
0001
0000
1000
0100
1000
0000
1001
0000
0000
0000
1010
0000
,
0000
0010
0100
0000
0001
0000
0001
0000
0000
1000
0200
0000
0000
0300
0000
0000
,
0120
0000
0000
0000
0031
0000
0000
1000
0001
0100
0010
0000
1000
0000
0010
1000
,
0020
0000
0000
0000
0130
0000
0000
0001
1000
0100
0010
0000
0001
1000
0000
0000
,
0002
0000
0000
0000
0103
0000
0000
0010
1000
0001
0100
0000
0010
0000
1000
0001
,
2000
0000
0000
0000
0000
0000
0000
0000
0000
0000
0000
0000
3001
0000
0000
0000
0100
0000
0000
0000
0000
0010
0000
0000
0000
0000
0000
1000
0000
0000
0001
0000
0000
0000
0000
0000
1000
0000
0000
0100
0000
0000
0000
0000
0000
0000
0000
0000
,
0120
0000
0031
1000
0020
0100
1000
2030
,
0000
0000
3001
0000
0010
0000
0200
0000
0000
0000
1300
0000
0001
0100
0000
0000
,
0020
0000
1030
0001
0020
0230
1300
0020
,
0000
0001
0000
0100
0000
2000
3030
0000
,
1002
0000
0000
0000
0103
0000
0000
0010
1000
0001
0100
0000
0001
0000
1000
0100
,
2000
0000
0000
0000
3001
0000
0000
1000
0100
0010
0001
0000
1000
0010
0000
0000
,
0200
0000
0000
0000
0301
0000
0000
0100
0001
1000
0100
0000
0010
0000
0001
1000
,
0002
0000
0000
0000
0000
0000
0000
0000
0000
0000
0000
0000
0103
0000
0000
0000
0010
0000
0000
0000
0000
1000
0000
0000
0000
0000
0000
0001
0000
0000
0010
0000
0000
0000
0000
0000
0100
0000
0000
1000
0000
0000
0000
0000
0000
0000
0000
0000
,
1002
0000
0000
0000
0103
0000
0000
0010
0000
0010
2000
0000
3001
0000
0200
0000
,
0000
0000
0000
0000
0001
0000
0000
0010
0000
0000
0010
0000
0310
0000
0000
0000
,
2000
0000
0000
0000
3001
0000
0000
0010
0000
0010
0002
0000
1003
0000
0020
0000
,
0000
0000
0000
0000
0000
0000
0130
0000
0000
0000
0000
0000
0001
0000
0000
0000
1000
0000
0000
0000
0000
0100
0000
0000
0000
0000
0000
0010
0000
0000
0001
0000
0000
0000
0000
0000
1000
0000
0000
0010
0000
0000
0000
0000
0000
0000
0000
0000
,
0120
0000
0000
0000
1000
0000
0000
0100
0000
0000
0130
0000
0002
0000
2003
0000
,
0000
0000
0000
0000
0100
0000
0000
0001
0000
0000
3001
0000
0020
0100
0000
0000
,
0230
0000
0000
0000
1000
0000
0000
0010
0000
0000
0310
0000
0002
0000
2003
0000
,
0000
0000
0000
0000
0001
0000
0000
0010
0000
0000
3010
0000
0100
0001
0000
0000
,
2001
0000
3100
0010
0002
1000
0100
0203
,
0000
0000
0310
0000
1000
0000
0002
0000
0000
0000
0013
0000
0100
1000
0000
0000
,
0002
0000
0103
0010
2000
3002
0013
0200
,
0000
0001
0000
1000
0000
0310
0002
0000
,
2003
0000
0000
0000
0001
0000
0000
0010
0000
0000
3010
0000
0200
0000
0302
0000
,
0000
0000
0000
0000
0010
0000
0000
1000
0000
0000
1003
0000
0200
0010
0000
0000
,
0320
0000
0000
0000
0001
0000
0000
0100
0000
0000
0130
0000
2000
0000
3002
0000
,
0000
0000
0000
0000
0100
0000
0000
0010
0000
0000
0023
0000
0000
0000
0000
0000
,
0230
0000
0000
0000
1000
0000
0000
0010
0000
0000
0310
0000
0002
0000
2003
0000
,
0000
0000
0001
0002
0000
0000
3003
0000
,
0002
0000
0000
0000
0103
0000
0000
0010
0000
0010
2000
0000
3001
0000
0020
0000
,
0000
0000
0000
0000
0000
0000
0000
0000
0000
0000
0000
0000
0130
0000
0000
0000
1000
0000
0000
0000
0000
0001
0000
0000
0000
0000
0000
0100
0000
0000
0010
0000
0000
0000
0000
0000
1000
0000
0000
0001
0000
0000
0000
0000
0000
0000
0000
0000
,
1000
0010
0010
1000
0001
0010
0010
0100
,
1000
0001
0101
0100
0010
2010
0000
0001
,
3001
1000
1000
0100
0010
0001
0001
0100
,
0010
1000
1100
0100
0010
0012
0000
1000
,
1003
0010
0010
1000
0001
0010
0010
0100
,
1000
0001
0011
0010
0100
2100
0000
0001
,
3001
1000
1000
0010
0100
0001
0000
1001
,
0000
0000
1100
0000
0100
0000
0100
0000
0000
1000
0002
0000
0000
0003
0000
0000
,
0100
0000
0000
0000
0010
0000
1000
0001
1000
0001
1000
0001
1000
0100
0010
0000
,
0001
0100
0100
0010
1000
1001
0000
0001
,
1000
0000
0000
0000
0100
0000
0010
0001
0010
0001
0010
0001
1000
0100
0010
0000
,
0001
0100
0100
0010
1000
1001
0001
0000
,
1000
0000
0000
0000
0001
0000
1000
0010
1000
0010
1000
0010
0100
0001
1000
0000
,
0001
0010
0010
0100
1000
1001
0000
0001
,
0100
0000
0000
0000
0010
0000
1000
0001
1000
0000
1100
0000
0000
0000
1001
0000
,
0000
0001
0100
0000
0010
0000
0010
0000
0000
1000
0002
0000
0000
0003
0000
0000
,
2001
0000
0000
0000
3001
0000
0000
0100
0000
0100
0020
0000
1030
0000
0001
0100
,
0010
0000
0000
0000
1000
0000
0000
0001
0000
0001
0010
0000
0100
2000
0000
3000
,
0001
0000
0000
0000
1000
0000
0000
0100
0000
0100
0020
0000
0031
0000
1000
0010
,
0100
0000
0000
0000
0000
0000
0000
0000
0000
0000
0000
0000
0001
0000
0000
0000
1000
0000
0000
0000
0000
0010
0000
0000
0000
0000
0000
1000
0000
0000
0100
0000
0000
0000
0000
0000
0010
0000
0000
0001
0000
0000
0000
0000
0000
0000
0000
0000
,
1001
0000
0001
1000
0200
0010
1000
2300
,
0000
0000
3001
0000
0100
0000
0020
0000
0000
0000
1030
0000
0001
0010
0000
0000
,
0200
0000
1300
0010
0200
0302
0103
0020
,
0000
0001
0000
0100
0000
2000
3030
0000
,
0002
0000
0000
0000
1003
0000
0000
0100
0000
0100
0020
0000
0100
0000
0200
0000
,
0000
0000
0000
0000
,
0000
0000
0000
0000
,
0000
0000
0330
0000
;

//---------------dance-double - Kekkle-EDP----------------
#NOTEDATA:;
#CHARTNAME:Kekkle-EDP;
#STEPSTYPE:dance-double;
#DESCRIPTION:Kekkle-EDP;
#DIFFICULTY:Hard;
#METER:14;
#RADARVALUES:0.602838,0.643360,0.163350,0.558112,0.330103,620,596,24,82,0,0,0,0,0,0.602838,0.643360,0.163350,0.558112,0.330103,620,596,24,82,0,0,0,0,0;
#CREDIT:Kekkle;
#NOTES:
00000000
00000000
00000000
00000000
,
00000000
00000000
00000000
00000000
,
00000000
00000000
00000000
00000000
,
00000000
00000000
00000000
00000000
,
00011000
00000000
00000000
00000000
00001000
00000000
00000000
01000000
00010000
00000000
00010000
00000000
10000000
00000000
01000000
10000000
,
01000000
00000000
00000000
00000000
00100000
00000000
00000000
00001000
00000000
00001000
00010000
00000000
00000010
00001000
00000000
00000000
,
00000200
00000000
00000000
00000000
00000310
00000000
00000000
00000001
00001000
00000000
00001000
00000000
00000010
00000000
00010000
00001000
,
00010000
00000000
00000000
00000000
00000000
00000000
00000000
00000000
00000000
00000000
00000000
00000000
00001000
00000000
00000000
00000000
01000000
00000000
00000000
00000000
00000000
00010000
00000000
00000000
00000000
00000000
00000000
00000000
00000000
00000000
10000000
00000000
00000000
00000000
00000000
00000000
00010000
00000000
00000000
00100000
00000000
00000000
00000000
00000000
00000000
00000000
00000000
00000000
,
00002000
00000000
00000000
00000000
00013000
00000000
00000000
00000010
00001000
00000000
00000010
00000000
00000100
00000000
00000002
00000000
,
00000000
00000000
00000000
00000000
00001003
00000000
00000000
00000100
00010000
00000000
00001000
00000000
01000000
00010000
00000000
00000000
,
02000000
00000000
00000000
00000000
03100000
00000000
00000000
10000000
00010000
00000000
00100000
00000000
01000000
00000000
00200000
00000000
,
00000000
00000000
00000000
00000000
00000000
00000000
00000000
00000000
00000000
00000000
00000000
00000000
00301000
00000000
00000000
00000000
00010000
00000000
00000000
00000000
00000000
00000010
00000000
00000000
00000000
00000000
00000000
00000000
00000000
00000000
00000100
00000000
00000000
00000000
00000000
00000000
00000001
00000000
00000000
00001000
00000000
00000000
00000000
00000000
00000000
00000000
00000000
00000000
,
00000200
00000000
00010300
00001000
01000000
00100000
00010000
00002000
,
00000000
00000000
01003000
00000000
00010000
00000000
00200000
00000000
00000000
00000000
01300000
00000000
10000000
00010000
00000000
00000000
,
02000000
00000000
03010000
00100000
00001000
00000010
00000100
00002000
,
00000000
00000100
00000000
00000001
00000000
00003010
00010000
00000200
,
00000000
00000000
00000000
00000000
00010300
00000000
00000000
00001000
01000000
00000000
00010000
00000000
00100000
00000000
02000000
00000000
,
00000000
00000000
00000000
00000000
13000000
00000000
00000000
00010000
01000000
00000000
00001000
00000000
00100000
00000000
00020000
00000000
,
00000000
00000000
00000000
00000000
00031000
00000000
00000000
00000100
00000010
00000000
00000100
00000000
00001000
00000000
00000002
00000000
,
00000000
00000000
00000000
00000000
00000000
00000000
00000000
00000000
00000000
00000000
00000000
00000000
00000103
00000000
00000000
00000000
00000010
00000000
00000000
00000000
00000000
00010000
00000000
00000000
00000000
00000000
00000000
00000000
00000000
00000000
00000100
00000000
00000000
00000000
00000000
00000000
00010000
00000000
00000000
00001000
00000000
00000000
00000000
00000000
00000000
00000000
00000000
00000000
,
02000000
00000000
00000000
00000000
03100000
00000000
00000000
10000000
00010000
00000000
00100000
00000000
01000000
00000000
00200000
00000000
,
00000000
00000000
00000000
00000000
01000000
00000000
00000000
00001000
00000000
00000000
00001000
00000000
00301000
00000000
00000000
00000000
,
00020000
00000000
00000000
00000000
00030010
00000000
00000000
00001000
00000100
00000000
00000010
00000000
00000001
00000000
00001000
00000000
,
00000000
00000000
00000000
00000000
00000000
00000000
00000010
00000000
00000000
00000000
00000000
00000000
00010000
00000000
00000000
00000000
00001000
00000000
00000000
00000000
00000000
01000000
00000000
00000000
00000000
00000000
00000000
00000000
00000000
00000000
00100000
00000000
00000000
00000000
00000000
00000000
10000000
00000000
00000000
00010000
00000000
00000000
00000000
00000000
00000000
00000000
00000000
00000000
,
20000000
00000000
00000000
00000000
30010000
00000000
01000000
00010000
01000000
00000000
00001000
00000000
00010000
00000000
00000100
00000000
,
00000010
00000001
00001000
00001000
00000000
00010010
00000010
00000000
,
00020000
00000000
00030100
00000010
00000001
00000100
00001000
00010000
,
00100000
10000000
00010000
00010000
00000000
10010000
00000000
00000000
,
20000000
00000000
00000000
00000000
30010000
00000000
01000000
00100000
01000000
00000000
00001000
00000000
00100000
00000000
00001000
00000000
,
00010000
00000010
00001000
00001000
00000000
00001100
00000100
00000000
,
00020000
00000000
00031000
01000000
00100000
10000000
00000000
10010000
,
00000000
00000000
00110000
00000000
00100000
00000000
00100000
00000000
00000000
00001000
00020000
00000000
00000000
00030000
00000000
00000000
,
00000020
00000000
00000000
00000000
00001030
00000000
00000001
00000100
00000001
00000000
00001000
00000100
00001000
00000000
00000010
00000000
,
00010000
00001000
01000000
01000000
00000000
10010000
00010000
00000000
,
20000000
00000000
30010000
01000000
00100000
00010000
00001000
00000100
,
00000001
00001000
00000100
00000100
00000000
00000110
00000000
00000000
,
00000020
00000000
00000000
00000000
00000031
00000000
00001000
00000100
00001000
00000000
00000010
00010000
00000010
00000000
00010000
00000000
,
00001000
00100000
01000000
01000000
00000000
10010000
10000000
00000000
,
00020000
00000000
01030000
00001000
00010000
00010010
00000000
00001100
,
00000000
00000000
00000110
00000000
00000010
00000000
00000010
00000000
00000000
00000001
00002000
00000000
00000000
00003000
00000000
00000000
,
00020010
00000000
00000000
00000000
00031000
00000000
00000000
00010000
00001000
00000000
00001000
00000000
01000000
00000000
00100000
10000000
,
00200000
00000000
00000000
00000000
01300000
00000000
00000000
00010000
10000000
00000000
10000000
00000000
01000000
00100000
00000000
00000000
,
00002000
00000000
00000000
00000000
00013000
00000000
00000000
00000010
00001000
00000000
00001000
00000000
00000001
00000000
00001000
00000100
,
00002000
00000000
00000000
00000000
00000000
00000000
00000000
00000000
00000000
00000000
00000000
00000000
00003010
00000000
00000000
00000000
00010000
00000000
00000000
00000000
00000000
00000100
00000000
00000000
00000000
00000000
00000000
00000000
00000000
00000000
00010000
00000000
00000000
00000000
00000000
00000000
00001000
00000000
00000000
00100000
00000000
00000000
00000000
00000000
00000000
00000000
00000000
00000000
,
02000000
00000000
13000000
00010000
00100000
01000000
00010000
00002000
,
00000000
00000000
00103000
00000000
00001000
00000000
00020000
00000000
00000000
00000000
00030010
00000000
00001000
00000001
00000000
00000000
,
00000200
00000000
00000301
00001000
00000100
00010000
01000000
00200000
,
00000000
00001000
00000000
00010000
00000000
02000000
03300000
00000000
,
02000000
00000000
00000000
00000000
13000000
00000000
00000000
00010000
01000000
00000000
01000000
00000000
00001000
00000000
00100000
00010000
,
00200000
00000000
00000000
00000000
00301000
00000000
00000000
00010000
00000010
00000000
00000010
00000000
00001000
00000100
00000000
00000000
,
00000020
00000000
00000000
00000000
00000031
00000000
00000000
00001000
00000100
00000000
00000100
00000000
00010000
00000000
00000010
00001000
,
00000020
00000000
00000000
00000000
00000000
00000000
00000000
00000000
00000000
00000000
00000000
00000000
00010030
00000000
00000000
00000000
00000100
00000000
00000000
00000000
00000000
00010000
00000000
00000000
00000000
00000000
00000000
00000000
00000000
00000000
00001000
00000000
00000000
00000000
00000000
00000000
00100000
00000000
00000000
01000000
00000000
00000000
00000000
00000000
00000000
00000000
00000000
00000000
,
00200000
00000000
00000000
00000000
00301000
00000000
00000000
01000000
00010000
00000000
10000000
00000000
00100000
00000000
02000000
00000000
,
00000000
00000000
00000000
00000000
00001000
00000000
00000000
00010000
00000000
00000000
00010000
00000000
03010000
00000000
00000000
00000000
,
20000000
00000000
00000000
00000000
30010000
00000000
00000000
00100000
00010000
00000000
01000000
00000000
00001000
00000000
00020000
00000000
,
00000000
00000000
00000000
00000000
00000000
00000000
00030100
00000000
00000000
00000000
00000000
00000000
00001000
00000000
00000000
00000000
00000001
00000000
00000000
00000000
00000000
00000100
00000000
00000000
00000000
00000000
00000000
00000000
00000000
00000000
00000010
00000000
00000000
00000000
00000000
00000000
00010000
00000000
00000000
00001000
00000000
00000000
00000000
00000000
00000000
00000000
00000000
00000000
,
00200000
00000000
00000000
00000000
00010000
00000000
00000000
00010000
00000000
00000000
01300000
00000000
10000000
00000000
00020000
00000000
,
00000000
00000000
00000000
00000000
10000000
00000000
00000000
10000000
00000000
00000000
01030000
00000000
00002000
00000000
00000000
00000000
,
00023000
00000000
00000000
00000000
00000010
00000000
00000000
00000010
00000000
00000000
00031000
00000000
00010000
00000000
00000200
00000000
,
00000000
00000000
00000000
00000000
00000010
00000000
00000000
00000010
00000000
00000000
00001300
00000000
00000001
00001000
00000000
00000000
,
00000020
00000000
00010030
00001000
00000010
00000100
00010000
00002000
,
00000000
00000000
01003000
00000000
00100000
00000000
20000000
00000000
00000000
00000000
30010000
00000000
00100000
01000000
00000000
00000000
,
00200000
00000000
00301000
01000000
00010000
00100000
00001000
00000020
,
00000000
00001000
00000000
00000100
00000000
00000031
00002000
00000000
,
00003200
00000000
00000000
00000000
00010000
00000000
00000000
00010000
00000000
00000000
00001300
00000000
00000010
00000000
00020000
00000000
,
00000000
00000000
00000000
00000000
00001000
00000000
00000000
00001000
00000000
00000000
00030100
00000000
00010000
00001000
00000000
00000000
,
02000000
00000000
00000000
00000000
00100000
00000000
00000000
00100000
00000000
00000000
03010000
00000000
10000000
00000000
02000000
00000000
,
00000000
00000000
00000000
00000000
10000000
00000000
00000000
10000000
00000000
00000000
03200000
00000000
00000000
00000000
00000000
00000000
,
00302000
00000000
00000000
00000000
00010000
00000000
00000000
00010000
00000000
00000000
00003100
00000000
00000010
00000000
00002000
00000000
,
00000000
00000000
00000001
00000002
00000000
00000000
00003003
00000000
,
00000002
00000000
00000000
00000000
00001003
00000000
00000000
00000010
00010000
00000000
00000100
00000000
00010000
00000000
00002000
00000000
,
00000000
00000000
00000000
00000000
00000000
00000000
01003000
00000000
00000000
00000000
00000000
00000000
00100000
00000000
00000000
00000000
10000000
00000000
00000000
00000000
00000000
00010000
00000000
00000000
00000000
00000000
00000000
00000000
00000000
00000000
00100000
00000000
00000000
00000000
00000000
00000000
00001000
00000000
00000000
00010000
00000000
00000000
00000000
00000000
00000000
00000000
00000000
00000000
,
00000010
00001000
00000001
00000010
00000100
00010000
00001000
00000000
,
01000000
00100000
00200000
00000000
10000000
20300000
00000000
00010000
,
30010000
00100000
00001000
00010000
00000100
00000010
00000100
00000000
,
00001000
00000001
00000200
00000000
00000010
00000320
00000000
00010000
,
00010030
00000100
00010000
00001000
01000000
00100000
10000000
00000000
,
00010000
00100000
00002000
00000000
00010000
00023000
00000000
00000010
,
00030010
00001000
00000001
00000010
00000100
00010000
00000000
00011000
,
00000000
00000000
01001000
00000000
01000000
00000000
01000000
00000000
00000000
00010000
20000000
00000000
00000000
30000000
00000000
00000000
,
00010000
00000000
00000000
00000000
00100000
00000000
00001000
00010000
00001000
00000000
00010000
00000010
00010000
00000000
00000100
00000000
,
00001000
00000100
00000010
00000001
00001000
00001010
00000000
00000010
,
00010000
00000000
00000000
00000000
00000100
00000000
00010000
00001000
00010000
00000000
00001000
01000000
00001000
00000000
00100000
00000000
,
00010000
00000000
10010000
00000000
10000000
10100000
00000000
00100000
,
01000000
00000000
00000000
00000000
00001000
00000000
00010000
00001000
00010000
00000000
00000010
00001000
00000010
00000000
00000100
00000000
,
00000001
00001000
00000100
00010000
00001000
01001000
00000000
01000000
,
00100000
00000000
10000000
00010000
00100000
00101000
00000000
00011000
,
00000000
00000000
00010010
00000000
00000010
00000000
00000010
00000000
00000000
00001000
00000002
00000000
00000000
00000003
00000000
00000000
,
00001001
00000000
00000000
00000000
00001000
00000000
00000000
00000010
00010000
00000000
00010000
00000000
00001000
00000000
00100000
00010000
,
00100000
00000000
00000000
00000000
00010000
00000000
00000000
10000000
00000000
10000000
00100000
00000000
01000000
00001000
00000000
00000000
,
00020000
00000000
00000000
00000000
00030010
00000000
00000000
00001000
00000001
00000000
00000001
00000000
00001000
00000000
00000100
00000000
,
00010000
00000000
00000000
00000000
00000000
00000000
00000000
00000000
00000000
00000000
00000000
00000000
00001000
00000000
00000000
00000000
01000000
00000000
00000000
00000000
00000000
00100000
00000000
00000000
00000000
00000000
00000000
00000000
00000000
00000000
10000000
00000000
00000000
00000000
00000000
00000000
00010000
00000000
00000000
00100000
00000000
00000000
00000000
00000000
00000000
00000000
00000000
00000000
,
00101000
00000000
00001000
00010000
00001000
00000100
00000010
00020000
,
00000000
00000000
00030100
00000000
00001000
00000000
00000020
00000000
00000000
00000000
00000130
00000000
00000001
00001000
00000000
00000000
,
00000200
00000000
00001300
00000010
00010000
00000100
00010000
02000000
,
00000000
00010000
00000000
00100000
00000000
20000000
33000000
00000000
,
20000000
00000000
31000000
00010000
00001000
00000010
00000001
00000200
,
00000000
00000000
00000000
00000000
,
00000000
00000000
00000000
00000000
,
00000000
00000000
00000300
00000000
;

//---------------dance-single - Kekkle-DSP----------------
#NOTEDATA:;
#CHARTNAME:Kekkle-DSP;
#STEPSTYPE:dance-single;
#DESCRIPTION:Kekkle-DSP;
#DIFFICULTY:Medium;
#METER:11;
#RADARVALUES:0.451156,0.474055,0.136125,0.285862,0.006806,464,444,20,42,0,0,0,0,0,0.451156,0.474055,0.136125,0.285862,0.006806,464,444,20,42,0,0,0,0,0;
#CREDIT:Kekkle;
#NOTES:
0000
0000
0000
0000
,
0000
0000
0000
0000
,
0000
0000
0000
0000
,
0000
0000
0000
0000
,
1001
0000
0001
0000
0100
0010
1000
0000
,
0001
0000
0000
0000
1000
0000
0000
1000
0000
0000
1000
0000
0100
0000
0000
0000
,
0010
0000
0001
0000
1000
0010
0100
0000
,
0001
0000
0100
0010
1000
0001
0010
0000
,
0200
0000
1300
0000
0001
0000
0100
0020
,
0000
0000
1030
0000
0001
0000
0010
0200
,
0000
0000
1300
0000
0001
0000
0100
0020
,
0000
0000
1030
0001
0010
0100
1000
0000
,
1001
0000
0001
0000
0100
0010
0100
0000
,
0001
0000
1000
0002
0000
0000
1003
0000
,
0100
0000
0010
0000
0001
1000
0000
0001
,
0000
0001
0000
0001
0000
0001
0000
0200
,
0000
0000
0301
0000
1000
0000
0001
0020
,
0000
0000
0130
0000
1000
0000
0001
0200
,
0000
0000
0310
0000
1000
0000
0100
0020
,
0000
0000
0031
1000
0010
0100
0001
0000
,
2000
0000
3001
0000
0010
0000
0100
0020
,
0000
0000
0001
0031
,
1000
0000
0001
0000
1000
0010
0100
0000
,
0001
0000
1000
0100
0010
0001
1000
0000
,
0001
0000
1000
1000
0100
1000
0100
0000
,
0010
0000
0001
1000
0000
0001
1000
0000
,
0001
0000
0100
0100
0001
0100
0001
0000
,
0100
0000
0010
0000
0000
1001
0000
0000
,
1000
0000
0001
0001
0100
0001
0100
0000
,
0010
0000
1000
0001
0000
1000
0001
0000
,
1000
0000
0100
0100
1000
0100
0000
0010
,
0000
0001
1000
1000
0000
1001
0000
0000
,
0001
0000
1000
1000
0100
0010
0001
0000
,
1000
0010
0100
0001
0000
0100
0001
0000
,
1000
0000
0001
0001
0010
0100
1000
0000
,
0001
0100
0010
0000
0000
0110
0000
0000
,
0100
0000
0010
0010
1000
0001
0100
0000
,
0001
1000
0100
0010
0000
0100
0010
0000
,
0001
0000
1000
1000
0001
1000
0000
0100
,
0000
0010
0001
0001
0000
1001
0000
0000
,
2000
0000
3010
0000
0100
0001
1000
0200
,
0000
0000
0310
0000
0001
0010
0100
0000
,
2000
0000
3001
0000
0100
0010
1000
0002
,
0000
0000
0103
0010
1000
0001
0010
0000
,
0110
0000
0100
0000
1000
0001
1000
0000
,
0001
0000
0100
0020
0000
0000
0130
0000
,
0001
0000
1000
0000
0001
0010
0000
0100
,
0000
0100
0000
0100
0000
0100
0000
0000
,
0020
0000
0031
0000
1000
0010
0100
0000
,
0020
0000
1030
0000
0001
0010
0100
0000
,
2000
0000
3001
0000
0100
0010
1000
0000
,
0020
0000
0130
0000
0001
1000
0000
0000
,
0200
0000
0310
0000
0001
1000
0010
0200
,
0000
0000
0010
0310
,
1000
0000
0001
0000
1000
0100
0010
0000
,
0001
0000
0100
0010
1000
0001
0100
0000
,
0002
0000
1000
0000
1003
0000
0100
0020
,
0000
0001
0031
0100
,
0020
0000
1000
0000
1030
0000
0001
0200
,
0000
0000
0010
0310
,
1001
0000
0001
0000
1000
0100
1000
0000
,
0001
0000
0100
0020
0000
0000
1030
0000
,
0001
0000
1000
0000
0100
0010
0000
0001
,
0000
0001
0000
0001
0000
0001
1000
0000
,
0020
0000
1000
0000
1030
0000
0001
0020
,
0000
0100
0130
1000
,
0002
0000
0100
0000
0103
0000
0010
2000
,
0000
0000
0100
0000
3100
0010
0000
0001
,
2000
0000
0010
0000
3010
0000
0100
0002
,
0000
1000
2000
3003
,
0001
0000
1000
0000
0001
0010
0100
0000
,
0010
0000
0001
1000
0010
0100
0001
0000
,
1000
0010
0100
0000
0001
0010
0100
0000
,
1000
0000
1001
0000
0000
1001
0000
0001
,
1000
0100
0010
0000
0001
0010
0100
0000
,
1000
0000
1001
0000
0000
1001
0000
1000
,
0010
0100
0001
0000
0010
0100
1000
0000
,
0010
0000
0110
0000
0000
0110
0000
0100
,
0001
1000
0100
0000
0010
0001
0000
1000
,
0000
0010
0000
0100
0000
1001
0000
0000
,
0002
0000
1003
0100
0010
0001
0100
0010
,
1000
0010
0100
0000
0000
0110
0000
0000
,
0020
0000
1030
0001
1000
0100
0010
0001
,
0100
0001
0010
0000
0000
0110
0000
0000
,
0200
0000
1300
0010
0100
0001
0010
0100
,
1000
0100
0010
0000
0000
0110
0000
0000
,
0200
0000
0310
0000
0001
1000
0000
0010
,
0000
0100
0000
0001
0000
1001
0000
0000
,
2000
0000
3100
0000
0010
0001
0100
0000
,
0010
0000
0000
0000
1000
0000
0000
1000
0000
0000
1000
0000
0100
0000
0000
0000
,
0010
0000
0001
0000
0100
0010
1000
0000
,
0100
0000
0010
0001
1000
0010
0100
0000
,
0110
0000
0010
0000
1000
0001
0010
0000
,
0100
0000
1000
0002
0000
0000
0013
0000
,
0001
0000
0100
0000
0010
1000
0000
0001
,
0000
0001
0000
0010
0000
0020
0000
0000
,
0130
0000
1000
0000
0001
0000
0100
0020
,
0000
0000
0000
0000
,
0000
0000
0000
0000
,
0000
0000
0030
0000
;

//---------------dance-double - Kekkle-DDP----------------
#NOTEDATA:;
#CHARTNAME:Kekkle-DDP;
#STEPSTYPE:dance-double;
#DESCRIPTION:Kekkle-DDP;
#DIFFICULTY:Medium;
#METER:11;
#RADARVALUES:0.438516,0.474055,0.170156,0.285862,0.006806,451,426,25,42,0,0,0,0,0,0.438516,0.474055,0.170156,0.285862,0.006806,451,426,25,42,0,0,0,0,0;
#CREDIT:Kekkle;
#NOTES:
00000000
00000000
00000000
00000000
,
00000000
00000000
00000000
00000000
,
00000000
00000000
00000000
00000000
,
00000000
00000000
00000000
00000000
,
10010000
00000000
10000000
00000000
00010000
01000000
00001000
00000000
,
00010000
00000000
00000000
00000000
00000010
00000000
00000000
00000010
00000000
00000000
00000010
00000000
00001000
00000000
00000000
00000000
,
00000002
00000000
00001003
00000000
00000100
00010000
00001000
00000000
,
01000000
00000000
00100000
00010000
00001000
01000000
00010000
00000000
,
20000000
00000000
31000000
00000000
00100000
00000000
00001000
02000000
,
00000000
00000000
03010000
00000000
00100000
00000000
00001000
00020000
,
00000000
00000000
00030010
00000000
00010000
00000000
00001000
00000200
,
00000000
00000000
00000301
00001000
00000100
00010000
00000100
00000000
,
00010100
00000000
00010000
00000000
00001000
01000000
00001000
00000000
,
00100000
00000000
00010000
20000000
00000000
00000000
30100000
00000000
,
01000000
00000000
00001000
00000000
00100000
00010000
00000000
00001000
,
00000000
00000100
00000000
00000010
00000000
00000001
00000000
00002000
,
00000000
00000000
00003010
00000000
00010000
00000000
00000100
00002000
,
00000000
00000000
00003010
00000000
00010000
00000000
00001000
02000000
,
00000000
00000000
03010000
00000000
00100000
00000000
01000000
20000000
,
00000000
00000000
30010000
01000000
00001000
00100000
00010000
00000000
,
00002000
00000000
00003100
00000000
00000010
00000000
00000001
00002000
,
00000000
00000000
00000010
00003010
,
00020000
00000000
00031000
00000000
01000000
00100000
10000000
00000000
,
00010000
00000000
00100000
00001000
00010000
00000100
00010000
00000000
,
00001000
00000000
01000000
00000000
00100000
10000000
00100000
00000000
,
10000000
00000000
01000000
00010000
00000000
00011000
00000000
00000000
,
00001000
00000000
00000010
00000000
00000001
00001000
00000001
00000000
,
00000100
00000000
00001000
00000000
00000000
00011000
00000000
00000000
,
00010000
00000000
00100000
00000000
10000000
01000000
10000000
00000000
,
00100000
00000000
00010000
00001000
00000000
00011000
00000000
00000000
,
00010000
00000000
00001000
00000000
00000100
00000001
00000000
00000010
,
00000000
00000100
00000000
00010000
00000000
00011000
00000000
00000000
,
00001000
00000000
01000000
00000000
00100000
00010000
00100000
00000000
,
10000000
00000000
01000000
00010000
00000000
00011000
00000000
00000000
,
00001000
00000000
00000010
00000000
00000001
00000100
00000001
00000000
,
00000010
00000000
00001000
00000000
00000000
00011000
00000000
00000000
,
00010000
00000000
01000000
00000000
00100000
00001000
00100000
00000000
,
00010000
00000000
01000000
00001000
00000000
00011000
00000000
00000000
,
00010000
00000000
00000010
00000000
00000100
00001000
00000000
00010000
,
00000000
00001000
00000000
00000100
00000000
00000110
00000000
00000000
,
00000020
00000000
00010030
00000000
00001000
01000000
00001000
00000000
,
02000000
00000000
03100000
00000000
10000000
00010000
10000000
00000000
,
02000000
00000000
03100000
00000000
00001000
00010000
00001000
00020000
,
00000000
00000000
00030010
00010000
00000100
00001000
00000010
00000000
,
00001001
00000000
00000001
00000000
00000100
00000010
00000100
00000000
,
00001000
00000000
00010000
00000200
00000000
00000000
00010300
00000000
,
00001000
00000000
01000000
00000000
00010000
00100000
00000000
01000000
,
00000000
10000000
00000000
00010000
00000000
01000000
00000000
00000000
,
00002000
00000000
00013000
00000000
00000010
00001000
00000010
00002000
,
00000000
00000000
00003001
00000000
00000010
00000100
00000010
00000000
,
00000200
00000000
00010300
00000000
00001000
01000000
00001000
02000000
,
00000000
00000000
03010000
00000000
00100000
01000000
00000000
01000000
,
00200000
00000000
00310000
00000000
10000000
00000000
01000000
00200000
,
00000000
00000000
00001000
00301000
,
00020000
00000000
00030100
00000000
00010000
00000010
00001000
00000000
,
00000100
00000000
00000010
00000001
00001000
00000100
00010000
00000000
,
00002000
00000000
01000000
00000000
01003000
00000000
00100000
20000000
,
00000000
01000000
31000000
00100000
,
00002000
00000000
00010000
00000000
00013000
00000000
00000010
00000200
,
00000000
00000001
00000001
00000301
,
00001001
00000000
00001000
00000000
00000010
00010000
00000010
00000000
,
00001000
00000000
00000100
00020000
00000000
00000000
00031000
00000000
,
00100000
00000000
00001000
00000000
00010000
01000000
00000000
10000000
,
00000000
00010000
00000000
01000000
00000000
00100000
00020000
00000000
,
00032000
00000000
00010000
00000000
00013000
00000000
00000100
00000020
,
00000000
00000001
00000031
00000100
,
00000020
00000000
00010000
00000000
00010030
00000000
00000100
00020000
,
00000000
00000000
00001000
00000000
00031000
01000000
00000000
00100000
,
20000000
00000000
00010000
00000000
30010000
00000000
00100000
00002000
,
00000000
00010000
00020000
00033000
,
00002000
00000000
01003000
00000000
00001000
00010000
00000010
00000000
,
00001000
00000000
00000100
00000010
00000100
00010000
00000010
00000000
,
00010000
00001000
00100000
00000000
00001000
00010000
00000010
00000000
,
00010000
00000000
00011000
00000000
00000000
00011000
00000000
00000000
,
00001000
00010000
00000100
00000000
00010000
00001000
01000000
00000000
,
00001000
00000000
00011000
00000000
00000000
00011000
00000000
00000000
,
00001000
00010000
01000000
00000000
00010000
00001000
00000100
00000000
,
00001000
00000000
00011000
00000000
00000000
00011000
00000000
00000000
,
00001000
00010000
00100000
00000000
00010000
00001000
00000000
00000010
,
00000000
00000100
00000000
00010000
00000000
00011000
00000000
00000000
,
00001000
00000000
01000000
00100000
10000000
00100000
01000000
00001000
,
00010000
00000100
00001000
00000000
00000000
00001001
00000000
00000000
,
00000001
00000000
00001000
00000010
00010000
00001000
01000000
00010000
,
00100000
01000000
10000000
00000000
00000000
10010000
00000000
00000000
,
00010000
00000000
01000000
00100000
00010000
00001000
00100000
00001000
,
00010000
00000100
00000010
00000000
00000000
00000011
00000000
00000000
,
00000001
00000000
00000100
00001000
00010000
00000010
00000000
00010000
,
00000000
00001000
00000000
00100000
00000000
01100000
00000000
00000000
,
10010000
00000000
10000000
00000000
00010000
01000000
00100000
00000000
,
00010000
00000000
00000000
00000000
00001000
00000000
00000000
00001000
00000000
00000000
00001000
00000000
00010000
00000000
00000000
00000000
,
00000020
00000000
00001030
00000000
00000001
00000010
00000100
00000000
,
00010000
00000000
00000010
00010000
00001000
00000010
00000100
00000000
,
00010100
00000000
00010000
00000000
00001000
01000000
00100000
00000000
,
00010000
00000000
00001000
02000000
00000000
00000000
03100000
00000000
,
10000000
00000000
00010000
00000000
00100000
00001000
00000000
00010000
,
00000000
00000100
00000000
00000010
00000000
00000001
00000000
00000000
,
00001000
00000000
00000010
00000000
00000100
00000000
00001000
00020000
,
00000000
00000000
00000000
00000000
,
00000000
00000000
00000000
00000000
,
00000000
00000000
00030000
00000000
;

//---------------dance-single - Kekkle-BSP----------------
#NOTEDATA:;
#CHARTNAME:Kekkle-BSP;
#STEPSTYPE:dance-single;
#DESCRIPTION:Kekkle-BSP;
#DIFFICULTY:Easy;
#METER:9;
#RADARVALUES:0.351980,0.372471,0.013612,0.210993,0,362,360,2,31,0,0,0,0,0,0.351980,0.372471,0.013612,0.210993,0,362,360,2,31,0,0,0,0,0;
#CREDIT:Kekkle;
#NOTES:
0000
0000
0000
0000
,
0000
0000
0000
0000
,
0000
0000
0000
0000
,
0000
0000
0000
0000
,
1001
0001
0100
0100
,
0010
0000
1000
1000
,
0001
0010
0100
0100
,
0010
0001
0001
1000
,
1001
0001
0100
0100
,
0020
0030
1000
1000
,
0002
0003
0010
0010
,
0200
0000
0010
0310
,
0001
0000
1000
0000
0001
1000
0001
0000
,
0100
0010
0010
0000
,
1000
0001
0010
0100
,
0010
0010
0001
0001
,
2000
3000
0010
0010
,
2000
3000
0100
0100
,
0020
0030
0001
0001
,
0200
0310
0010
1000
,
0002
0003
1000
0100
,
0020
0000
0100
0130
,
1000
0001
0100
0100
,
0010
1000
1000
0001
,
1000
0000
0001
0100
0001
0100
0001
0000
,
1000
0000
1000
0000
0000
1000
0000
0000
,
0001
0000
1000
0100
1000
0100
1000
0000
,
0001
0000
0001
0000
0000
0001
0000
0000
,
1000
0000
0001
0010
0001
0010
0001
0000
,
1000
0000
1000
0000
0000
1000
0000
0000
,
0001
0000
1000
0010
1000
0010
0000
0100
,
0000
0100
0000
0100
0000
0100
0000
0000
,
0001
0000
1000
0100
1000
0100
1000
0000
,
0001
0000
0001
0000
0000
0001
0000
0000
,
1000
0000
0001
0010
0001
0010
0001
0000
,
1000
0000
1000
0000
0000
1000
0000
0000
,
0001
0000
1000
0010
1000
0010
1000
0000
,
0001
0000
0001
0000
0000
0001
0000
0000
,
1000
0000
0001
0100
0001
0100
0000
0010
,
0000
0010
0000
0010
0000
0010
0000
0000
,
2000
3000
0001
0001
,
0200
0300
0010
0010
,
2000
0000
3000
0000
0100
0000
0100
0020
,
0000
0000
0001
0031
,
1000
0000
0001
0000
0100
0010
0100
0000
,
0010
1000
1000
0000
,
0001
1000
0100
0100
,
0010
0001
0001
1000
,
0020
0030
0100
0100
,
0002
0003
1000
1000
,
0200
0300
0010
0010
,
0002
0003
0100
0100
,
0020
0000
0030
0000
1000
0000
0001
2000
,
0000
0000
0001
3001
,
0100
0010
1000
1000
,
0001
0010
0010
0100
,
2000
0000
3000
0000
0001
0000
0100
0020
,
0000
0030
1000
0001
,
0020
0000
0030
0000
0100
0000
1000
0002
,
0000
0000
1000
1003
,
0010
0000
0100
0000
0001
1000
0001
0000
,
1000
0100
0100
0000
,
0010
0001
1000
1000
,
0010
0100
0100
0001
,
2000
0000
3000
0000
0100
0000
0010
0002
,
0000
0003
1000
0010
,
0200
0000
0300
0000
0001
0000
1000
0020
,
0000
0030
1000
0001
,
0020
0000
0030
0000
0100
0000
1000
0002
,
0000
0000
1000
0003
,
1000
0010
0100
0100
,
0001
0000
1000
0000
0001
1000
0001
0000
,
1000
0001
0001
1000
,
0001
0010
0000
0010
0000
0010
0000
0000
,
0001
1000
0010
0010
,
1000
0001
0010
0010
,
0100
1000
1000
0001
,
0100
0010
0000
0010
0000
0000
1000
0000
,
0001
0000
0010
0000
0100
1000
0000
1000
,
0000
1000
0000
1000
0000
1000
0000
0000
,
0001
0000
1000
0010
1000
0010
1000
0010
,
1000
0000
0001
0000
0000
0001
0000
0000
,
1000
0000
0001
0010
0001
0010
0001
0010
,
0001
0000
1000
0000
0000
1000
0000
0000
,
0010
0000
0100
0001
0100
0001
0100
0001
,
0100
0000
0001
0000
0000
0001
0000
0000
,
1000
0000
0100
0010
0100
0010
0000
0001
,
0000
0001
0000
0001
0000
0001
0000
0000
,
1000
0010
0100
0100
,
0001
0000
1000
0000
0001
1000
0001
0000
,
1000
0001
0010
0010
,
0001
0000
1000
0000
0001
1000
0001
0000
,
0100
0000
0010
0000
1000
0001
1000
0000
,
0100
0010
0010
0000
,
0001
1000
0010
0010
,
0100
0001
0001
1000
,
0200
0000
0300
0000
0010
0000
0010
0200
,
0000
0000
0000
0000
,
0000
0000
0000
0000
,
0000
0000
0300
0000
;

//---------------dance-double - Kekkle-BDP----------------
#NOTEDATA:;
#CHARTNAME:Kekkle-BDP;
#STEPSTYPE:dance-double;
#DESCRIPTION:Kekkle-BDP;
#DIFFICULTY:Easy;
#METER:9;
#RADARVALUES:0.355869,0.406333,0.040837,0.204187,0,366,360,6,30,0,0,0,0,0,0.355869,0.406333,0.040837,0.204187,0,366,360,6,30,0,0,0,0,0;
#CREDIT:Kekkle;
#NOTES:
00000000
00000000
00000000
00000000
,
00000000
00000000
00000000
00000000
,
00000000
00000000
00000000
00000000
,
00000000
00000000
00000000
00000000
,
10010000
00010000
01000000
01000000
,
00001000
00010000
00010000
00010000
,
00000100
00000010
00000001
00000001
,
00000100
00000010
00000010
00000010
,
00020000
00030000
00001000
00001000
,
02000000
03000000
00010000
00010000
,
20000000
30000000
01000000
01000000
,
00200000
00000000
00001000
00301000
,
00010000
00000000
00000010
00000000
00001000
00000010
00001000
00000000
,
00000001
00001000
00001000
00000000
,
00000100
00010000
00001000
01000000
,
00100000
00100000
10000000
10000000
,
00020000
00030000
00100000
00100000
,
00002000
00003000
00010000
00010000
,
00000020
00000030
00001000
00001000
,
00000200
00000300
00000010
00000010
,
00000002
00000003
00001000
00001000
,
00000020
00000000
00010000
00010030
,
00001000
01000000
00100000
00100000
,
10000000
00010000
00010000
00010000
,
00100000
00000000
00001000
00010000
00001000
00010000
00001000
00000000
,
00010000
00000000
00000010
00000000
00000000
00000010
00000000
00000000
,
00010000
00000000
00001000
00010000
00001000
00010000
00001000
00000000
,
01000000
00000000
00010000
00000000
00000000
00010000
00000000
00000000
,
10000000
00000000
00010000
00100000
00010000
00100000
00010000
00000000
,
01000000
00000000
00001000
00000000
00000000
00001000
00000000
00000000
,
00010000
00000000
00000010
00001000
00000010
00001000
00000000
00000001
,
00000000
00000001
00000000
00000001
00000000
00000001
00000000
00000000
,
00001000
00000000
00000100
00010000
00000100
00010000
00000100
00000000
,
00010000
00000000
00001000
00000000
00000000
00001000
00000000
00000000
,
01000000
00000000
00001000
01000000
00001000
01000000
00001000
00000000
,
00100000
00000000
00010000
00000000
00000000
00010000
00000000
00000000
,
10000000
00000000
00100000
01000000
00100000
01000000
00100000
00000000
,
10000000
00000000
00010000
00000000
00000000
00010000
00000000
00000000
,
00100000
00000000
00001000
00010000
00001000
00010000
00000000
00000010
,
00000000
00000010
00000000
00000010
00000000
00000010
00000000
00000000
,
00001001
00000000
00000001
00000001
,
00002000
00003000
00000100
00000100
,
00020000
00000000
00030000
00000000
00001000
00000000
00001000
02000000
,
00000000
00000000
00100000
03100000
,
10000000
00000000
00010000
00000000
00100000
00001000
00100000
00000000
,
00001000
00010000
00010000
00000000
,
00000010
00001000
00000001
00000010
,
00000100
00000100
00010000
00010000
,
00002000
00003000
01000000
01000000
,
00200000
00300000
10000000
10000000
,
00020000
00030000
00100000
00100000
,
00002000
00003000
00010000
00010000
,
00000020
00000000
00000030
00000000
00000100
00000000
00000100
00000002
,
00000000
00000000
00001000
00001003
,
00000010
00010000
00001000
00001000
,
01000000
00100000
00100000
00100000
,
20000000
00000000
00000000
00000000
30010000
00000000
00100000
00002000
,
00000000
00000000
00013000
00000010
,
00000200
00000000
00000000
00000000
00000301
00000000
00001000
00000200
,
00000000
00000000
00010000
00010300
,
00001000
00000000
01000000
00000000
00010000
00100000
00010000
00000000
,
10000000
00010000
00010000
00000000
,
01000000
00001000
00010000
00000010
,
00000100
00000100
00000001
00000001
,
00002000
00000000
00000000
00000000
00003010
00000000
00010000
00002000
,
00000000
00000000
01003000
00100000
,
20000000
00000000
00000000
00000000
30010000
00000000
00100000
00002000
,
00000000
00000000
00013000
00000010
,
00000200
00000000
00000000
00000000
00000301
00000000
00001000
00000200
,
00000000
00000000
00010000
00000300
,
00010000
00001000
01000000
01000000
,
00010000
00100000
00100000
00100000
,
01000000
10000000
00100000
00010000
,
00001000
00000000
00010000
00000000
00000000
00011000
00000000
00000000
,
00001000
00000100
00000001
00000010
,
00001000
00000000
00010000
00000000
00000000
00011000
00000000
00000000
,
00001000
00010000
01000000
10000000
,
00100000
00000000
00010000
00000000
00000000
00011000
00000000
00000000
,
00001000
00000000
00000100
00000000
00000010
00001000
00000000
00000001
,
00000000
00000001
00000000
00000001
00000000
00000001
00000000
00000000
,
00001000
00000000
00000100
00010000
00000100
00010000
00000100
00010000
,
00000100
00010000
00000100
00000000
00000000
00010000
00000000
00000000
,
00001000
00000000
01000000
00010000
01000000
00010000
01000000
00010000
,
01000000
00010000
01000000
00000000
00000000
00100000
00000000
00000000
,
10000000
00000000
00010000
00100000
00010000
00100000
00010000
00100000
,
00010000
00100000
00010000
00000000
00000000
00100000
00000000
00000000
,
00001000
00000000
00010000
00000010
00010000
00000010
00000000
00000100
,
00000000
00000100
00000000
00000001
00000000
00000001
00000000
00000000
,
00001001
00001000
00000010
00000010
,
00010000
00000000
00001000
00000000
01000000
00010000
01000000
00000000
,
00100000
10000000
00010000
00010000
,
00100000
00000000
00001000
00000000
00010000
00000100
00010000
00000000
,
00000100
00000000
00001000
00000000
00000001
00001000
00000001
00000000
,
00000100
00000000
00000010
00001000
00000000
00000000
00000010
00000000
,
00010000
00000000
00001000
00000000
00100000
00010000
00000000
10000000
,
00000000
10000000
00000000
00100000
00000000
00100000
00000000
00000000
,
01000000
00000000
00001000
00000000
00010000
00000000
00001000
00020000
,
00000000
00000000
00000000
00000000
,
00000000
00000000
00000000
00000000
,
00000000
00000000
00030000
00000000
;

//---------------dance-single - Kekkle-bSP----------------
#NOTEDATA:;
#CHARTNAME:Kekkle-bSP;
#STEPSTYPE:dance-single;
#DESCRIPTION:Kekkle-bSP;
#DIFFICULTY:Beginner;
#METER:4;
#RADARVALUES:0.216827,0.237027,0.020419,0.197381,0,223,220,3,29,0,0,0,0,0,0.216827,0.237027,0.020419,0.197381,0,223,220,3,29,0,0,0,0,0;
#CREDIT:Kekkle;
#NOTES:
// measure 0
0000
0000
0000
0000
,  // measure 1
0000
0000
0000
0000
,  // measure 2
0000
0000
0000
0000
,  // measure 3
0000
0000
0000
0000
,  // measure 4
1001
0000
1000
1000
,  // measure 5
0000
0010
0010
0000
,  // measure 6
0100
0000
0001
0000
,  // measure 7
1000
1000
1000
0000
,  // measure 8
0002
0003
0000
1000
,  // measure 9
2000
3000
0000
0010
,  // measure 10
0020
0030
0000
0100
,  // measure 11
0200
0300
0000
0001
,  // measure 12
0001
0000
1000
1000
,  // measure 13
0000
0010
0010
0000
,  // measure 14
0100
0000
0001
0000
,  // measure 15
1000
1000
1000
0000
,  // measure 16
0002
0003
0000
0100
,  // measure 17
0200
0300
0000
0010
,  // measure 18
0020
0030
0000
1000
,  // measure 19
2000
3000
0000
0001
,  // measure 20
0002
0003
0000
0010
,  // measure 21
0020
0030
0000
0100
,  // measure 22
0100
0000
1000
0000
,  // measure 23
0001
0001
0001
0000
,  // measure 24
0100
0000
0010
0010
,  // measure 25
0010
1000
1000
0000
,  // measure 26
0001
0000
1000
1000
,  // measure 27
1000
0000
0001
0000
,  // measure 28
0100
0000
0010
0010
,  // measure 29
0010
1000
1000
0000
,  // measure 30
0001
0000
1000
0000
,  // measure 31
0001
0000
0001
0000
,  // measure 32
1000
0000
0001
0001
,  // measure 33
0001
0010
0010
0000
,  // measure 34
0100
0000
1000
1000
,  // measure 35
1000
0000
0001
0000
,  // measure 36
0100
0000
0010
0010
,  // measure 37
0010
0100
0100
0000
,  // measure 38
0001
0000
1000
0000
,  // measure 39
0001
0000
0001
0000
,  // measure 40
1001
0000
0000
0001
,  // measure 41
0200
0300
0000
0001
,  // measure 42
2000
3000
0000
0001
,  // measure 43
0020
0030
0000
0100
,  // measure 44
0100
0000
1000
1000
,  // measure 45
0000
0010
0010
0000
,  // measure 46
0100
0000
0001
0000
,  // measure 47
1000
1000
1000
0000
,  // measure 48
0002
0003
0000
1000
,  // measure 49
0200
0300
0000
0010
,  // measure 50
0002
0003
0000
0100
,  // measure 51
0020
0030
0000
1000
,  // measure 52
0002
0003
0000
1000
,  // measure 53
0200
0300
0000
0010
,  // measure 54
0010
0000
0001
0000
,  // measure 55
0100
0100
0100
0000
,  // measure 56
0020
0030
1000
0000
,  // measure 57
0002
0003
0010
0000
,  // measure 58
0200
0300
1000
0000
,  // measure 59
0002
0003
0000
0100
,  // measure 60
0100
0000
0010
0010
,  // measure 61
0000
1000
1000
0000
,  // measure 62
0001
0000
0010
0000
,  // measure 63
0100
0100
0100
0000
,  // measure 64
2000
3000
0001
0000
,  // measure 65
0200
0300
0010
0000
,  // measure 66
2000
3000
0001
0000
,  // measure 67
0020
0030
0100
0000
,  // measure 68
2000
3000
0001
0000
,  // measure 69
0100
0000
0100
0000
,  // measure 70
0010
0000
1000
0000
,  // measure 71
0001
0001
0001
0000
,  // measure 72
1000
0000
0100
0000
,  // measure 73
0010
0010
0010
0000
,  // measure 74
0001
0000
0100
0000
,  // measure 75
0010
0010
0010
0000
,  // measure 76
1000
0000
0001
0000
,  // measure 77
0100
0100
0100
0000
,  // measure 78
0010
0000
1000
0000
,  // measure 79
0001
0000
0001
0000
,  // measure 80
1000
0000
0001
0001
,  // measure 81
0010
0001
0001
0000
,  // measure 82
1000
0000
0001
0001
,  // measure 83
0100
0001
0001
0000
,  // measure 84
0100
0000
0010
0010
,  // measure 85
1000
0010
0010
0000
,  // measure 86
1000
0000
0100
0000
,  // measure 87
1000
0000
0001
0000
,  // measure 88
1001
0000
1000
0000
,  // measure 89
0010
0010
0100
0000
,  // measure 90
0001
0000
1000
0000
,  // measure 91
0100
0100
0010
0000
,  // measure 92
0001
0000
1000
1000
,  // measure 93
0000
0001
0001
0000
,  // measure 94
0100
0000
0010
0000
,  // measure 95
1000
1000
0001
0000
,  // measure 96
0010
0000
0200
0000
,  // measure 97
0000
0000
0000
0000
,  // measure 98
0000
0000
0000
0000
,  // measure 99
0000
0000
0300
0000
;
