#VERSION:0.83;
#TITLE:Grenade;
#ARTIST:sky_delta;
#BANNER:Grenade.png;
#BACKGROUND:Grenade-bg.png;
#JACKET:Grenade-jacket.png;
#MUSIC:Grenade.ogg;
#OFFSET:-2.46;
#SAMPLESTART:97.925285;
#SAMPLELENGTH:15;
#DISPLAYBPM:91:181;
#BPMS:0=181,31=362,32=181,64=90.5,96=181,159=362,160=181,224=362,225=181;
#STOPS:31.979=0.166,159=0.166,224=0.166;

//---------------dance-single - Kekkle-ESP----------------
#NOTEDATA:;
#CHARTNAME:Kekkle-ESP;
#STEPSTYPE:dance-single;
#DESCRIPTION:Kekkle-ESP;
#DIFFICULTY:Hard;
#METER:17;
#RADARVALUES:0.915910,1.191274,0.339182,0.140637,0.996865,775,734,41,17,0,0,0,0,0,0.915910,1.191274,0.339182,0.140637,0.996865,775,734,41,17,0,0,0,0,0;
#CREDIT:Kekkle;
#NOTES:
0000
0000
0000
0000
,
0000
0000
0000
0000
,
0000
0000
0000
0000
,
0000
0000
0000
0000
,
0001
0010
0001
1000
0001
0010
0001
1000
,
0100
0010
0100
1000
0100
0010
0100
1000
,
0010
0100
0010
0100
0010
0100
0010
0100
0001
1000
0001
1000
0001
1000
0001
1000
,
0001
0000
0100
0010
0100
0000
0001
0100
0001
0000
1000
0000
0200
0000
0000
0000
,
1300
0010
0001
1000
0100
0001
0010
0100
,
1000
0000
0010
0000
0100
0000
0001
0010
0001
0000
1000
0000
1001
0000
0000
0000
,
0001
0100
1000
0001
0010
1000
0100
0010
,
0100
0000
1000
0000
0010
0000
0100
0001
0100
0000
0010
0000
1010
0000
1000
0000
,
0010
0000
0000
0000
0110
0000
0000
0101
0000
0000
0001
0010
0000
0100
1000
0100
,
0010
0000
0000
0000
0011
0000
0000
0110
0000
1000
0100
0010
0001
0000
0000
0000
,
0001
0000
0001
0000
1000
0000
1000
0000
0010
0100
0010
0100
0001
1000
0001
1000
,
0100
0010
0000
0000
0110
0000
0100
1000
0000
0010
0100
0010
0100
0001
0100
0001
,
0010
0000
0100
1000
0000
0100
0010
0000
0100
1000
0000
0100
0010
0000
0001
0000
,
0200
0000
0000
0000
0000
0000
0010
0320
0000
0000
0000
0000
0000
1000
0000
0000
,
2030
0000
0000
0000
0000
0000
0100
3200
0000
0000
0000
0000
0000
0010
0000
0000
,
0320
0000
0000
0000
0000
0000
0000
0032
0000
0000
0000
0000
0000
0000
0000
0000
,
1003
0000
0010
0000
1000
0000
0010
0100
0010
0000
1000
0000
0010
0000
0100
0000
0001
0000
0100
0000
0001
0000
0100
0010
0100
0000
0001
0000
0010
0000
0000
0000
,
0100
0000
1000
0000
0100
0000
1000
0010
1000
0000
0100
0000
1000
0000
0010
0000
0100
0000
0001
0000
0010
0000
0100
1000
0100
0000
1000
0000
0010
0000
0000
0000
,
0100
0000
0001
0000
0100
0000
0010
1000
0010
0000
0100
0000
0001
0000
0100
0000
0010
0000
1000
0000
0100
0000
0010
0001
0010
0000
0100
0000
1000
0000
0010
0000
,
0100
0001
0100
0001
1000
0010
1000
0010
0200
0000
0301
0010
0100
1000
0100
0010
,
0002
1000
0000
1000
,
0000
0000
1000
0000
0000
0000
1003
0010
,
0200
0001
0000
0001
,
0000
0000
0001
0000
0000
0000
0301
1000
,
0010
0010
0010
0010
,
0100
0000
0100
0000
0100
0000
0100
0001
,
0010
0010
0010
0010
,
0100
0000
1000
0000
0010
0100
0101
0000
,
0001
0000
0100
1000
0000
0000
0100
0000
0001
0000
0010
1000
0000
0000
0010
0000
,
0001
0000
0100
0010
0000
0000
1000
0000
0100
0010
0100
0010
0100
0000
1000
0000
,
0001
0000
0010
0000
0011
0000
0000
0100
0000
0000
1000
0010
1000
0100
1000
0100
,
0010
0000
0001
0000
0101
0000
0000
0100
0000
1000
0100
0001
0000
0000
1000
0000
,
0100
1000
0100
1000
0001
0100
0001
0100
,
0010
1000
0010
1000
0100
0010
0100
0010
,
0001
0010
0001
0010
0100
0010
0100
0010
0001
0100
0001
0100
0001
1000
0001
1000
,
0001
0000
1000
0000
0010
0000
0100
0001
0100
0000
0001
0000
1001
0000
0000
0000
,
1000
0000
0001
0000
0100
0000
0001
0010
0001
0000
1000
0000
0010
0100
0010
0100
,
0001
0000
0010
0000
0001
0000
1000
0010
1000
0010
1000
0000
1010
0000
0010
0000
,
0100
0000
0001
0000
0010
0000
0100
1000
0100
0000
0010
0000
0001
0100
0001
0100
,
0010
0000
1000
0100
1000
0100
0010
0000
0001
0100
0010
1000
0100
0010
0001
0000
,
1001
0000
1000
0000
0100
0000
0010
0001
0010
0000
0100
0000
1000
0010
1000
0010
,
0100
0000
0001
0010
0100
0010
0000
0001
0000
0100
0010
0100
1000
0000
0100
0000
,
0110
0000
0010
1000
0010
1000
0010
0001
0010
0100
0010
0000
1000
0000
0100
0000
,
0010
0001
0010
0001
0100
0001
0100
0001
1000
0100
0001
0100
1000
0000
0000
0000
,
1010
0000
0010
0000
0100
0000
1000
0100
0010
0000
0100
0000
0001
0010
0001
0010
,
0100
0000
1000
0000
0010
0000
0100
0001
0100
0010
0000
1000
0100
0000
0010
0000
,
0011
0000
0001
0000
0100
0000
0010
1000
0100
0000
0010
0000
0001
1000
0001
1000
,
0100
0000
0010
0001
0010
0001
1000
0000
0001
0100
0001
1000
0100
1000
0010
0100
,
0001
0001
1000
0010
0100
0100
0001
0100
,
1000
0000
1000
0000
0100
0000
0001
0000
0010
0100
1000
0100
0010
0001
0010
0100
,
0110
0000
0000
1100
0000
0000
1000
0001
0100
0000
0000
0101
0000
0000
1010
0000
,
0000
0010
0100
0001
0010
0100
1000
0100
0000
0000
0220
0000
0000
0000
0000
0000
,
0330
0000
0000
0000
0110
0000
0010
0100
1000
0000
0001
0000
0100
0010
1000
0010
,
0100
0000
0001
0000
0011
0000
0010
0100
0010
0100
1000
0100
0010
0000
0001
0000
,
0101
0000
0100
0000
0010
0000
1000
0100
0010
0000
0001
0000
0100
0010
0100
0010
,
1000
0000
0001
0100
0010
0100
0001
0000
1000
0100
0010
0100
0010
0001
0010
0100
,
1000
0000
0010
0100
0001
0000
1000
0000
0100
0000
0010
0001
0010
0000
0100
0000
,
1000
0000
0001
0100
1000
0000
0100
0000
0001
0000
1000
0100
0001
0000
0100
0000
,
1000
0100
1000
0100
0010
0001
0010
0001
1000
0010
1000
0010
0100
0001
0200
0000
,
0000
0000
0310
1000
0010
0100
0010
1000
0100
0000
0010
0000
1001
0000
0000
0000
,
0001
0000
0010
0100
0010
0100
1000
0000
0001
0000
0100
0010
0000
0000
1000
0000
,
0100
0000
0010
0001
0000
0000
1001
0000
0000
0000
1000
0010
0100
0010
1000
0010
,
0100
0000
0001
0100
0010
0100
0001
0100
0010
0000
1000
0010
0100
0010
1000
0010
,
0100
0000
0001
0010
0000
0100
1000
0000
0000
0001
0100
0010
0100
0001
1000
0000
,
1100
0000
0100
0010
0000
0010
0001
0000
0001
0100
0000
0100
0010
0000
1000
0000
,
1010
0000
0010
0100
0000
0100
0001
0000
0001
0010
0000
0010
0100
0000
0010
0000
,
0011
0000
0001
0010
0100
0000
1000
0000
1100
0000
0100
0010
0000
0010
0002
0000
,
0000
0000
1003
0100
1000
0010
1000
0010
1000
0100
0010
0001
2000
0000
0000
0000
,
3010
0000
0100
1000
0000
0000
0101
0000
0000
0000
0001
0100
0010
0000
1000
0100
,
0001
0000
0000
0101
0000
0000
0100
0000
0000
1100
0000
0000
1000
0000
1001
0000
,
0101
0000
0001
0010
0001
0010
0100
0000
1100
0000
1000
0010
1000
0010
0100
0010
,
0100
0000
0001
0010
0000
0010
2000
0000
0000
0000
3001
0100
1000
0000
0001
0000
,
0101
0000
0100
0010
1000
0010
0100
0000
0110
0000
0010
1000
0000
1000
0100
0000
,
0001
0000
0100
1000
0000
1000
0020
0000
0000
0000
0130
0001
0100
0001
0010
0000
,
1100
0100
0010
0001
0101
0100
0010
1000
,
0001
0100
0010
1000
0001
0010
0100
1000
0001
0100
1000
0100
0001
0000
0000
0000
,
1001
0000
0000
0000
;

//---------------dance-single - Kekkle-DSP----------------
#NOTEDATA:;
#CHARTNAME:Kekkle-DSP;
#STEPSTYPE:dance-single;
#DESCRIPTION:Kekkle-DSP;
#DIFFICULTY:Medium;
#METER:14;
#RADARVALUES:0.710273,1.058910,0.421910,0.273000,0.376409,601,550,51,33,0,0,0,0,0,0.710273,1.058910,0.421910,0.273000,0.376409,601,550,51,33,0,0,0,0,0;
#CREDIT:Kekkle;
#NOTES:
0000
0000
0000
0000
,
0000
0000
0000
0000
,
0000
0000
0000
0000
,
0000
0000
0000
0000
,
1000
0100
1000
0100
1000
0010
0100
0001
,
0010
0001
0010
0001
0010
0001
0010
0100
,
1000
0010
0100
0001
0100
0010
1000
0100
,
0010
0001
0010
1000
0010
0001
0200
0000
,
0310
1000
0010
0100
0001
0100
0010
1000
,
0100
0000
1100
0000
1000
0010
1010
0000
,
0001
0100
0010
0100
0001
1000
0100
0010
,
0001
0000
0011
0000
0001
0100
0101
0000
,
0100
0010
0110
0000
0100
0001
0010
0100
,
1000
0100
0110
0000
0010
0001
0010
0100
,
1000
0010
1000
0010
0100
0001
0100
0001
,
0010
0000
0110
0000
0100
1000
1001
0001
,
1000
0000
0000
0010
0000
0000
0001
0000
0000
0100
0000
0000
1000
0000
0010
0000
,
0200
0000
0000
0000
0000
0000
0001
0302
0000
0000
0000
0000
0000
0100
0000
0000
,
0203
0000
0000
0000
0000
0000
0010
0320
0000
0000
0000
0000
0000
1000
0000
0000
,
2030
0000
0000
0000
0000
0000
0000
0002
0000
0000
0000
0000
0000
0000
3003
0000
,
0001
0010
0100
0010
0001
0010
0100
1000
0100
0010
0100
0000
1000
0010
0100
0000
,
0001
0100
0010
0100
0001
0100
0010
1000
0100
0010
0100
0000
1000
0001
0100
0001
,
1000
0100
1000
0100
0010
0001
0010
0001
0100
0010
1000
0010
0100
0001
0010
0100
,
1000
0100
0001
0100
1000
0100
0001
0100
1000
0000
0010
0100
0000
0001
0000
0000
,
2000
0000
0000
0000
,
0000
0000
0000
0000
,
3020
0000
0000
0000
,
0000
0000
0000
0000
,
0230
0302
0203
0302
,
0203
0000
0320
0000
0230
0000
0310
1000
,
0002
0203
0302
0203
,
0302
2003
3020
0230
,
0301
0000
0000
0001
0000
0000
1000
0000
0010
0000
0000
0010
0000
0000
0100
0000
,
0001
0000
0000
0001
0000
0000
1000
0000
0100
0000
0010
0000
0001
0000
0000
0000
,
0100
0000
0010
0000
1000
0000
0000
0100
0000
0000
0010
0000
0001
0000
0010
0000
,
0100
0000
1000
0000
0001
0000
0000
0100
0000
0000
0010
0100
0000
0000
0001
0000
,
1000
0100
1000
0100
1000
0010
1000
0010
,
0100
0010
0100
0010
0100
0001
0100
0001
,
1000
0100
1000
0000
0010
0000
1000
0000
0010
0100
0010
0000
0100
0000
0001
0000
,
1000
0100
0010
0001
0010
0100
2000
0000
,
3001
0100
0010
0100
0001
0010
0100
1000
,
0010
0100
1000
0100
0010
1000
0100
0010
,
0001
0010
1000
0010
0001
0100
0010
1000
,
0001
0000
0010
0000
0100
0000
0010
0000
0100
1000
0100
0000
0010
0000
0001
0000
,
0101
0100
0010
0100
0001
0010
0100
1000
,
0100
0001
0100
0010
0001
0100
0010
1000
,
0001
0100
1000
0001
0010
1000
0001
0010
,
0100
0000
1000
0000
0010
0000
0100
0000
0001
0010
0001
0010
0002
0000
0000
0000
,
1003
0000
0010
0000
0100
0000
0001
0000
0000
1000
0100
0000
0010
0000
0001
0000
,
0100
0000
0010
0000
1000
0000
0001
0000
0000
0010
0100
0000
1100
0000
0000
0000
,
1000
0000
0010
0000
1000
0000
0100
0000
0000
0010
0001
0000
0100
0000
0010
0000
,
1000
0000
0100
0010
0100
0000
1000
0000
0001
0100
0001
0000
0100
0001
0100
0000
,
0010
1000
0010
0100
0001
0100
1000
0100
,
0010
0100
0010
1000
0100
0010
0001
0010
,
0110
0000
0000
1100
0000
0000
1000
0000
1010
0000
0000
1001
0000
0000
0001
0000
,
0000
0000
1000
0000
0010
0100
0010
0100
0000
0000
0220
0000
0000
0000
0000
0330
,
0000
0000
0000
0000
0110
0000
0010
0000
1000
0100
1000
0000
0100
0000
0010
0000
,
0001
0000
0010
0000
0100
0000
0010
0000
0001
0010
0001
0000
0022
0000
0033
0000
,
0010
0000
0100
0000
1000
0000
0001
0000
0100
0010
0100
0000
0001
0000
0010
0000
,
0100
0000
1000
0100
1000
0000
0100
0000
0010
0000
0001
0000
0100
0001
0100
0001
,
0010
0100
1000
1000
0010
0100
0001
0001
,
0010
0001
0100
0100
0001
1000
0010
0010
,
1000
0000
0010
0000
0100
0000
0001
0000
0010
0100
0010
0100
0010
0000
0110
0000
,
0000
0000
0100
0000
1000
0100
1000
0100
0000
0000
0020
0000
0000
0000
0000
0000
,
0031
0000
1000
0000
0100
0000
0001
0000
0100
0000
1000
0100
0000
0000
0010
0000
,
0001
0000
0100
0010
0000
0000
1000
0000
0000
0000
0100
0000
0010
0000
0001
0000
,
0011
0010
0001
0100
0110
0010
1000
0001
,
0101
0000
0000
0110
0000
0000
0101
0000
0000
0000
0100
0000
0010
0000
1000
0000
,
1100
0000
0000
1010
0000
0000
0110
0000
0000
0101
0000
0000
0001
0000
0010
0000
,
0110
0000
0000
1100
0000
0000
0110
0000
0000
0011
0000
0000
0001
0000
1000
0000
,
1100
0000
0000
0000
1000
0000
0001
0000
0101
0000
0000
1001
0000
0000
1010
0000
,
0000
0000
1000
0100
1000
0000
0001
0000
0100
0010
0100
0000
0020
0000
0000
0000
,
1030
0000
0000
0200
0000
0000
0000
0000
0000
0000
0310
0001
0010
0000
0100
0000
,
1100
0000
0000
1010
0000
0000
0110
0000
0000
1010
0000
0000
0101
0000
0001
0000
,
0010
0000
0100
1000
0100
1000
0100
0000
1000
0000
0010
0100
0010
0100
0010
0000
,
0110
0000
0000
0101
0000
0000
1001
0000
0000
0000
0001
0100
0010
0000
1000
0000
,
1100
0000
0100
0000
0010
0000
0100
0000
1100
0000
0000
0110
0000
0000
1100
0000
,
1001
0000
0000
0101
0000
0000
1001
0000
0000
0000
1000
0000
0010
0000
0100
0000
,
0001
0010
0001
0010
0100
1000
0100
1000
,
0010
0100
0010
0000
1000
0001
1000
0000
0010
0100
0010
0100
0010
0000
0000
0000
,
0110
0000
0000
0000
;

//---------------dance-single - Kekkle-BSP----------------
#NOTEDATA:;
#CHARTNAME:Kekkle-BSP;
#STEPSTYPE:dance-single;
#DESCRIPTION:Kekkle-BSP;
#DIFFICULTY:Easy;
#METER:8;
#RADARVALUES:0.322637,0.496364,0.066182,0.140637,0,273,265,8,17,0,0,0,0,0,0.322637,0.496364,0.066182,0.140637,0,273,265,8,17,0,0,0,0,0;
#CREDIT:Kekkle;
#NOTES:
0000
0000
0000
0000
,
0000
0000
0000
0000
,
0000
0000
0000
0000
,
0000
0000
0000
0000
,
0010
1000
0001
0100
,
0010
0100
0001
0010
,
0100
1000
0100
1000
,
0010
0100
0001
1000
,
0010
0100
0001
0100
,
0010
1000
0001
1000
,
0010
0100
1000
0100
,
0010
0100
0001
0010
,
0100
1000
0200
0300
,
0010
0001
0020
0030
,
0100
1000
0001
0100
,
0010
1000
2002
3003
,
0002
0000
2003
0000
,
3002
0000
0203
0000
,
0320
0000
0230
0000
,
0320
0000
2030
0000
,
3100
0010
0100
0010
0100
1000
0100
0000
,
0010
0001
0010
0001
0010
0100
1000
0000
,
0001
0001
1000
1000
,
0010
0100
0002
0003
,
2000
0000
0000
0000
,
0000
0000
0000
0000
,
0000
0000
0000
0000
,
0000
0000
3000
0000
,
0010
0000
0010
0000
,
0010
0000
0010
0000
,
0100
0000
0100
0000
,
0100
0000
0100
0000
,
0001
0100
0010
0100
,
0001
0010
0100
0000
,
1000
0100
1000
0010
,
0100
0001
0100
0000
,
0010
0000
0010
0000
,
0100
0000
0100
0000
,
0001
0000
0010
0000
,
0100
1000
0100
0000
,
1000
0010
0100
0010
,
1000
0100
0001
0100
,
1000
0010
1000
0010
,
0100
0001
0010
0100
,
1000
0001
1000
0001
,
1000
0010
0001
0010
,
1000
0100
1000
0100
,
0010
0001
1001
1001
,
1000
0010
0100
0001
,
0010
0100
1000
1000
,
0010
0100
0001
0010
,
0100
1000
0100
0100
,
0010
0001
1000
0001
,
0100
1000
0100
0001
,
0010
0010
0100
0100
,
1000
0000
0010
0000
0100
0000
0002
0003
,
0000
0100
0010
0100
,
1000
0100
0001
0011
,
0010
0100
1000
0010
,
0100
0001
1000
1000
,
0010
0100
0001
0001
,
0010
0100
1000
1000
,
0010
0000
0100
0000
0001
0000
0100
0010
,
0000
1000
0001
1001
,
1000
0010
0100
0001
,
0010
0100
1000
0001
,
0010
1000
0100
0001
,
0010
1000
0100
0001
,
0010
0100
1000
0001
,
1000
0010
0100
0001
,
1000
0100
0010
0100
,
1000
0000
0001
0000
0100
0010
0100
0000
,
0001
0001
1000
0010
,
0100
0100
0010
1000
,
1001
0001
1001
1000
,
1001
0001
0100
0010
,
2000
3000
0001
0010
,
0200
0300
1000
0010
,
0100
0100
0001
0001
,
1000
0100
0001
0100
,
1000
0000
0000
0000
;

//---------------dance-single - Kekkle-bSP----------------
#NOTEDATA:;
#CHARTNAME:Kekkle-bSP;
#STEPSTYPE:dance-single;
#DESCRIPTION:Kekkle-bSP;
#DIFFICULTY:Beginner;
#METER:4;
#RADARVALUES:0.173727,0.231637,0.016545,0.239909,0,147,145,2,29,0,0,0,0,0,0.173727,0.231637,0.016545,0.239909,0,147,145,2,29,0,0,0,0,0;
#CREDIT:Kekkle;
#NOTES:
0000
0000
0000
0000
,
0000
0000
0000
0000
,
0000
0000
0000
0000
,
0000
0000
0000
0000
,
1000
0000
0010
0000
,
0100
0000
0001
0000
,
1000
0000
0100
0000
,
0001
0000
0100
0000
,
1000
0000
0100
0000
,
1000
0000
0010
0000
,
0100
0000
0001
0000
,
0020
0030
0200
0300
,
1000
0000
1001
0000
,
0001
0000
1001
0000
,
1000
0000
0010
0000
,
0100
0000
0001
0000
,
0020
0030
0000
0000
0200
0300
0000
0000
,
2000
3000
0000
0000
0002
0003
0000
0000
,
0200
0300
0000
0000
2000
3000
0000
0000
,
0200
0300
0000
0000
0020
0030
0000
0000
,
2000
3000
0000
0000
0200
0300
0000
0000
,
0020
0030
0000
0000
0002
0003
0000
0000
,
0200
0300
0000
0000
0020
0030
0000
0000
,
0200
0300
0000
0000
0002
0003
0000
0000
,
0020
0000
0000
0000
,
0000
0000
0000
0000
,
0000
0000
0000
0000
,
0000
0000
0030
0000
,
0001
0000
1000
0000
,
0001
0000
1000
0000
,
0010
0000
1000
0000
,
0010
0000
1000
0000
,
0002
0003
2000
3000
,
0002
0003
2000
3000
,
0020
0030
0200
0300
,
0020
0030
0200
0300
,
0001
0000
0001
0000
,
1000
0000
1000
0000
,
0010
0000
0010
0000
,
0200
0300
0020
0030
,
1000
0000
1000
0000
,
0001
0000
0001
0000
,
0100
0000
0100
0000
,
0010
0000
1000
0000
,
0100
0000
0100
0000
,
0010
0000
0010
0000
,
0001
0000
0001
0000
,
1000
0000
0010
0000
,
0100
0000
0100
0000
,
1000
0000
1000
0000
,
0100
0000
0100
0000
,
0001
0000
0001
0000
,
0010
0000
0010
0000
,
0100
0000
0100
0000
,
1000
0000
0010
0000
,
0100
0000
0001
0000
,
0000
0000
0100
0000
,
0010
0000
1000
0000
,
0100
0000
0010
0000
,
0001
0000
0010
0000
,
1000
0000
0010
0000
,
0001
0000
0100
0000
,
0010
0000
0100
0000
,
0001
0000
1000
0000
,
0100
0000
0010
0000
,
0100
0000
0100
0000
,
0001
0000
0100
0000
,
1000
0000
0100
0000
,
0001
0000
0100
0000
,
1000
0000
0010
0000
,
0100
0000
0100
0000
,
0001
0000
0001
0000
,
1000
0000
0010
0000
,
1000
0000
1000
0000
,
0100
0000
0010
0000
,
0001
0000
1000
0000
,
0010
0000
0100
0000
,
0010
0000
1000
0000
,
0100
0000
0001
0000
,
0100
0000
0100
0000
,
1000
0000
0000
0000
;

//---------------dance-double - Kekkle-EDP----------------
#NOTEDATA:;
#CHARTNAME:Kekkle-EDP;
#STEPSTYPE:dance-double;
#DESCRIPTION:Kekkle-EDP;
#DIFFICULTY:Hard;
#METER:17;
#RADARVALUES:0.816637,1.158183,0.231637,0.438455,0.814864,691,663,28,53,0,0,0,0,0,0.816637,1.158183,0.231637,0.438455,0.814864,691,663,28,53,0,0,0,0,0;
#CREDIT:Kekkle;
#NOTES:
// measure 0
00000000
00000000
00000000
00000000
,  // measure 1
00000000
00000000
00000000
00000000
,  // measure 2
00000000
00000000
00000000
00000000
,  // measure 3
00000000
00000000
00000000
00000000
,  // measure 4
10000000
00100000
00010000
00001000
00010000
00100000
00010000
00001000
,  // measure 5
00000010
00000001
00000010
00001000
00010000
00001000
00000010
00000001
,  // measure 6
00000100
00000010
00000100
00000010
00000100
00000010
00000100
00000010
00001000
00000001
00001000
00000001
00001000
00000001
00001000
00000001
,  // measure 7
00000010
00000000
00000100
00001000
00000100
00000000
00010000
00001000
00010000
00000000
00100000
00000000
02000000
00000000
00000000
00000000
,  // measure 8
03010000
10000000
01000000
00100000
00001000
00010000
00100000
00010000
,  // measure 9
00001000
00000000
00000100
00000000
00000001
00000000
00001000
00000100
00000010
00000000
00000001
00000000
00000101
00000000
00000000
00000000
,  // measure 10
00000100
00001000
00010000
00001000
00000100
00000001
00001000
00010000
,  // measure 11
00001000
00000000
00000010
00000000
00001000
00000000
00010000
01000000
00100000
00000000
10000000
00000000
00010000
00000000
00100000
00000000
,  // measure 12
01100000
00000000
00000000
00000000
01000000
00000000
00000000
11000000
00000000
00000000
10000000
00100000
00000000
00100000
00010000
00000000
,  // measure 13
00011000
00000000
00000000
00000000
00001000
00000000
00000100
00000010
00000000
00001000
00000001
00001000
00000100
00000000
00000000
00000000
,  // measure 14
00000110
00000010
00000001
00001000
00001010
00000010
00000100
00001000
,  // measure 15
00010000
00100000
00000000
00000000
10000000
00000000
00010000
00000000
00100000
01000000
00100000
01000000
00010000
00001000
00010000
00001000
,  // measure 16
00000020
00000000
00000000
00000032
00000000
00000000
00000203
00000000
00000000
00002300
00000000
00000000
00023000
00000000
00032000
00000000
,  // measure 17
00003020
00000000
00000000
00000000
00000000
00000000
00000032
00000203
00000000
00000000
00000000
00000000
00000000
00020300
00000000
00000000
,  // measure 18
00032000
00000000
00000000
00000000
00000000
00000000
00203000
02300000
00000000
00000000
00000000
00000000
00000000
03020000
00000000
00000000
,  // measure 19
00032000
00000000
00000000
00000000
00000000
00000000
00000000
00000002
00000000
00000000
00000000
00000000
00000000
00000000
00003003
00000000
,  // measure 20
00000001
00000000
00000100
00000000
00001000
00000000
00000100
00000000
00000001
00000000
00000100
00000000
00001000
00000000
00010000
00000000
00100000
00000000
10000000
00000000
00100000
00000000
01000000
00010000
10000000
00000000
01000000
00000000
01100000
00000000
00000000
00000000
,  // measure 21
00100000
00000000
10000000
00000000
00100000
00000000
00010000
00000000
00100000
00000000
10000000
00000000
00100000
00000000
00010000
00000000
00001000
00000000
00000100
00000000
00000001
00000000
00000100
00001000
00000001
00000000
00000100
00000000
00000110
00000000
00000000
00000000
,  // measure 22
00000010
00001000
00010000
00001000
00000010
00001000
00010000
00100000
01000000
00010000
00001000
00010000
01000000
00010000
00001000
00000010
,  // measure 23
00000001
00000100
00001000
00010000
00100000
10000000
01000000
00010000
00002000
00000000
00000000
00203000
00000000
00320000
00000000
00000000
,  // measure 24
20000000
00000000
00000000
00000000
,  // measure 25
00000000
00000000
00000000
30030000
,  // measure 26
02200000
00000000
00000000
00000000
,  // measure 27
00000000
00000000
00000000
03300000
,  // measure 28
20000000
00010000
00010000
30020000
,  // measure 29
00001000
00001000
00001000
00032000
,  // measure 30
00000001
00000001
00000001
00003002
,  // measure 31
00000013
00001000
00000010
00000001
00000100
00000010
00001000
00010000
,  // measure 32
01000000
00000000
00000000
01000000
00000000
00000000
00100000
00000000
10000000
00000000
00000000
10000000
00000000
00000000
01000000
00000000
,  // measure 33
00010000
00000000
00000000
00010000
00000000
00000000
00001000
00000000
00000010
00000100
00000010
00000100
00000010
00000000
00000000
00000000
,  // measure 34
00000001
00000000
00000001
00000000
00000100
00000000
00000000
00002000
00000000
00000000
00013000
00000000
00100000
00000000
10000000
00000000
,  // measure 35
01000000
00000000
00010000
00000000
01000000
00000000
00000000
00200000
00000000
00301000
00010000
00001000
00000000
00000000
00000100
00000000
,  // measure 36
00000001
00000010
00000001
00000010
00000001
00001000
00000001
00001000
,  // measure 37
00000100
00010000
00000100
00010000
00001000
01000000
00001000
01000000
,  // measure 38
00100000
10000000
00100000
10000000
00010000
01000000
00010000
01000000
00001000
00010000
00001000
00010000
00000010
00001000
00000010
00001000
,  // measure 39
00000002
00000000
00000000
00001003
,  // measure 40
00000100
00000000
00010000
00000000
00001000
00000000
00010000
00000000
00100000
00000000
10000000
00000000
00010000
00100000
00010000
00100000
,  // measure 41
01000000
00000000
10000000
00000000
00100000
00000000
01000000
00001000
00010000
00001000
01000000
00000000
01010000
00000000
00000000
00000000
,  // measure 42
00010000
00000000
00001000
00000000
00010000
00000000
01000000
00000000
00001000
00000000
00010000
00000000
00000010
00001000
00000010
00001000
,  // measure 43
00000001
00000000
00001000
00000100
00010000
00000100
00001000
00000000
00000010
00001000
00000010
00010000
00001000
00010000
00000010
00001000
,  // measure 44
00000100
00000000
00000010
00000000
00000001
00000000
00000010
00000000
00001000
00000000
00010000
00000000
00100000
10000000
00100000
01000000
,  // measure 45
00010000
00000000
10000000
01000000
10000000
00010000
00000000
01000000
00000000
00100000
00010000
00001000
00000100
00000000
00000010
00000000
,  // measure 46
00001000
00000000
00000001
00000010
00000100
00000010
00000001
00000010
00000100
00000010
00000001
00001000
00000010
00000000
00020000
00000000
,  // measure 47
00000000
00000000
00031000
00000100
00000010
00000100
00001000
00010000
00001000
00000000
01000000
00000000
00010000
00000000
00010000
00000000
,  // measure 48
10010000
00000000
10000000
00000000
00100000
00000000
01000000
00000000
00010000
00100000
00001000
00100000
00010000
00000000
00001000
00000000
,  // measure 49
00000100
00000000
00000010
00000000
00000100
00000000
00001000
00000001
00001000
00000010
00000000
00000100
00001000
00000000
00010000
00000000
,  // measure 50
00001000
00000000
00000010
00000000
00001000
00000000
00010000
00000000
01000000
00100000
00010000
00100000
01000000
00000000
10000000
00000000
,  // measure 51
00100000
00000000
01000000
00001000
00010000
00001000
01000000
00000000
00100000
00010000
00001000
00010000
00001000
00000100
00000001
00000000
,  // measure 52
00000010
00000100
00000010
00000100
00010000
00000010
00010000
00000010
,  // measure 53
00001000
00000100
00001000
00000100
00010000
00001000
00010000
00001000
,  // measure 54
01001000
00000000
00000000
00011000
00000000
00000000
00010000
00000000
00010010
00000000
00000000
00011000
00000000
00000000
00002000
00000000
,  // measure 55
00000000
01003000
00010000
01000000
10000000
01000000
00100000
01000000
00000000
00000000
00020000
00000000
00000000
00000000
00000000
00000000
,  // measure 56
00030000
00000000
00000000
00000000
10010000
00000000
10000000
00000000
00100000
00000000
01000000
00000000
00001000
00010000
00100000
00010000
,  // measure 57
00001000
00000000
00010000
00000000
00000100
00000000
00001000
00000010
00000100
00000001
00001000
00000000
00001100
00000000
00000000
00000000
,  // measure 58
00000100
00000000
00000001
00000000
00000100
00000000
00010000
00000000
00001000
00000000
00010000
00000000
00100000
01000000
00010000
01000000
,  // measure 59
00100000
00000000
10000000
00010000
00100000
01000000
10000000
00000000
00100000
01000000
00001000
01000000
00001000
00010000
00001000
00010000
,  // measure 60
00000010
00000100
00000010
00000100
00000001
00001000
00000001
00001000
,  // measure 61
00000100
00010000
00000100
00010000
00001000
01000000
00001000
01000000
,  // measure 62
00100000
10000000
01000000
00100000
00010000
01000000
00001000
00010000
00000010
00001000
00000100
00000010
00000001
00000000
00002000
00000000
,  // measure 63
00000000
00000000
00003010
00000100
00001000
00010000
00001000
00000100
00000010
00000000
00001000
00000000
00001001
00000000
00000000
00000000
,  // measure 64
00000001
00000000
00000010
00000100
00000010
00000100
00001000
00000000
00000001
00000000
00000001
00000200
00000000
00000000
00001300
00000000
,  // measure 65
00010000
00000000
00010000
00200000
00000000
00000000
20300000
00000000
00000000
00000000
30010000
00100000
01000000
00100000
00010000
00100000
,  // measure 66
01000000
00000000
00100000
00001000
00010000
00001000
00100000
00001000
00010000
00000000
00001000
00010000
00000010
00010000
00001000
00010000
,  // measure 67
00000020
00000000
00000000
00000230
00000000
00000000
00000302
00000000
00000000
00001003
00000100
00000010
00000100
00010000
00001000
00000000
,  // measure 68
00010000
00000000
00010000
00100000
00000000
00100000
10000000
00000000
10000000
01000000
00000000
01000000
00010000
00000000
00010000
00000000
,  // measure 69
00001000
00000000
00001000
00000010
00000000
00000010
00000001
00000000
00000001
00000100
00000000
00000100
00001000
00000000
00001000
00000000
,  // measure 70
00010000
00000000
00001000
00000000
00010000
00000000
00100000
00000000
10100000
00000000
00000000
01100000
00000000
00000000
02002000
00000000
,  // measure 71
03003000
00000000
00001000
01000000
00001000
00010000
00001000
01000000
00001000
00010000
00000100
00010000
00002000
00000000
00000000
00000000
,  // measure 72
01003000
00000000
00010000
10000000
00000000
00000000
10010000
00000000
00000000
00000000
00010000
00100000
01000000
00000000
00100000
00001000
,  // measure 73
00020000
00000000
00000000
00030020
00000000
00000000
00000032
00000000
00000000
00000023
00000000
00000000
00002030
00000000
00003002
00000000
,  // measure 74
00000013
00000000
00000100
00001000
00000001
00001000
00000100
00000000
00010000
00000000
00001000
01000000
00010000
01000000
00001000
01000000
,  // measure 75
00020000
00000000
00000000
20030000
00000000
00000000
32000000
00000000
00000000
00000000
03100000
00010000
10000000
00000000
00100000
00000000
,  // measure 76
01000000
00000000
00001000
00010000
00001000
00000000
01000000
00000000
01001000
00000000
00000000
00011000
00000000
00000000
00010010
00000000
,  // measure 77
00000110
00000000
00000000
00000101
00000000
00000000
00001001
00000000
00000000
00000000
00000001
00001000
00000100
00000010
00000100
00000000
,  // measure 78
00010000
00001000
00010000
00001000
01000000
00100000
01000000
00100000
,  // measure 79
10000000
01000000
10000000
01000000
00100000
00010000
00100000
00010000
00001000
00000100
00001000
00000100
00000020
00000000
00000000
00000000
,  // measure 80
00000031
00000000
00000000
00000000
;

//---------------dance-double - Kekkle-DDP----------------
#NOTEDATA:;
#CHARTNAME:Kekkle-DDP;
#STEPSTYPE:dance-double;
#DESCRIPTION:Kekkle-DDP;
#DIFFICULTY:Medium;
#METER:14;
#RADARVALUES:0.683092,1.058910,0.347455,0.289546,0.330909,578,536,42,35,0,0,0,0,0,0.683092,1.058910,0.347455,0.289546,0.330909,578,536,42,35,0,0,0,0,0;
#CREDIT:Kekkle;
#NOTES:
// measure 0
00000000
00000000
00000000
00000000
,  // measure 1
00000000
00000000
00000000
00000000
,  // measure 2
00000000
00000000
00000000
00000000
,  // measure 3
00000000
00000000
00000000
00000000
,  // measure 4
10000000
00100000
01000000
00100000
10000000
00100000
01000000
00100000
,  // measure 5
00010000
00001000
00000100
00001000
00010000
00001000
00000100
00001000
,  // measure 6
00010000
00000100
00000010
00000100
00010000
00001000
01000000
00001000
,  // measure 7
00010000
01000000
10000000
01000000
00010000
00001000
00020000
00000000
,  // measure 8
00030010
00001000
00000100
00000010
00000001
00000010
00000100
00010000
,  // measure 9
00001000
01000000
01001000
00000000
00010000
00000100
00010100
00000000
,  // measure 10
00001000
01000000
00010000
00100000
01000000
10000000
00100000
01000000
,  // measure 11
00001000
00010000
00010010
00000000
00010000
00001000
00101000
00000000
,  // measure 12
00100000
00000000
10010000
00000000
10000000
01000000
00010000
00001000
,  // measure 13
00000010
00000000
00001001
00000000
00000001
00000100
00001000
00010000
,  // measure 14
00100000
00010000
00001000
00010000
00100000
10000000
00010000
00100000
,  // measure 15
01000000
00010000
01000000
00010000
00001000
00000100
00001000
00000100
,  // measure 16
00000001
00000000
00000000
00000010
00000000
00000000
00001000
00000000
00000000
00000100
00000000
00000000
00000001
00000000
00000100
00000000
,  // measure 17
00002000
00000000
00000000
00000000
00000000
00000000
00013000
00200000
00000000
00000000
00000000
00000000
00000000
10300000
00000000
00000000
,  // measure 18
02000000
00000000
00000000
00000000
00000000
00000000
03010000
00002000
00000000
00000000
00000000
00000000
00000000
01003000
00000000
00000000
,  // measure 19
00020000
00000000
00000000
00000000
00000000
00000000
00000000
20000000
00000000
00000000
00000000
00000000
00000000
00000000
30030000
00000000
,  // measure 20
10000000
01000000
00100000
00010000
00001000
00000100
00000010
00000001
00001000
00000010
00000100
00000000
00000001
00000010
00000100
00000010
,  // measure 21
00000001
00000100
00000010
00001000
00010000
01000000
00100000
10000000
00010000
00100000
01000000
00000000
10000000
00100000
01000000
00010000
,  // measure 22
10000000
01000000
10000000
01000000
00010000
01000000
00010000
01000000
00010000
00001000
00010000
00001000
00000100
00001000
00000100
00001000
,  // measure 23
00000100
00000001
00000100
00001000
00000100
00000001
00000100
00001000
00000200
00000000
00000000
00000310
00000000
00010000
00000000
00000000
,  // measure 24
00012000
00000000
01000000
00000000
,  // measure 25
00010000
00000000
01000000
00000000
,  // measure 26
00023000
00000000
00000010
00000000
,  // measure 27
00000100
00000000
00000010
00000000
,  // measure 28
00032000
01000000
01000000
01000000
,  // measure 29
02003000
00010000
00010000
00010000
,  // measure 30
03002000
00010000
00010000
00010000
,  // measure 31
00003020
00000001
00000001
00000031
,  // measure 32
00001000
00000000
00000000
00001000
00000000
00000000
00000001
00000000
00000100
00000000
00000000
00000100
00000000
00000000
00000010
00000000
,  // measure 33
00010000
00000000
00000000
00010000
00000000
00000000
00001000
00000000
01000000
00000000
00100000
00000000
10000000
00000000
00000000
00000000
,  // measure 34
01000000
00000000
00100000
00000000
00001000
00000000
00000000
00011000
00000000
00000000
00010000
00000000
00000010
00000000
00000100
00000000
,  // measure 35
00001000
00000000
00000100
00000000
00000001
00000000
00000000
00001000
00000000
00000000
00000100
00000010
00000000
00000000
00000001
00000000
,  // measure 36
00001000
00000010
00001000
00000010
00010000
00001000
00010000
00001000
,  // measure 37
01000000
00010000
01000000
00010000
10000000
01000000
10000000
01000000
,  // measure 38
10000000
00100000
00010000
00001000
00000100
00000001
00000010
00001000
,  // measure 39
00020000
00000000
00000000
00031000
,  // measure 40
01000000
00010000
00100000
01000000
10000000
01000000
00100000
00001000
,  // measure 41
00010000
00100000
01000000
00001000
00010000
00000100
00001100
00000000
,  // measure 42
00001000
00000001
00000100
00001000
00010000
00001000
00000010
00001000
,  // measure 43
00010000
00000100
00010000
00001000
01000000
00010000
00110000
00000000
,  // measure 44
00100000
01000000
10000000
01000000
00010000
00001000
00000010
00001000
,  // measure 45
00010000
00000010
00001000
00000100
00000010
00000001
00001001
00000000
,  // measure 46
00001000
00001000
00000100
00000100
00010000
00010000
00001000
00001000
,  // measure 47
01000000
00100000
00010000
00100000
10000000
00010000
00110000
00000000
,  // measure 48
00100000
00000000
01000000
00000000
10000000
00000000
00100000
00000000
00000000
01000000
00001000
00000000
00010000
00000000
01000000
00000000
,  // measure 49
00010000
00000000
00001000
00000000
00010000
00000000
00000010
00000000
00000000
00000100
00000001
00000000
00001001
00000000
00000000
00000000
,  // measure 50
00001000
00000000
00000100
00000000
00000001
00000000
00000100
00000000
00000000
00010000
00001000
00000000
01000000
00000000
00010000
00000000
,  // measure 51
00100000
00000000
01000000
00000000
10000000
00000000
00010000
00000000
01000000
00000000
00100000
00000000
10000000
00010000
10000000
00000000
,  // measure 52
01000000
00010000
01000000
00010000
00001000
00000010
00001000
00000010
,  // measure 53
00000001
00000100
00000001
00000100
00001000
00000100
00001000
00010000
,  // measure 54
00011000
00000000
00000000
00011000
00000000
00000000
00001000
00000000
00011000
00000000
00000000
00011000
00000000
00000000
00020000
00000000
,  // measure 55
00000000
00000000
00031000
00000000
01000000
00010000
01000000
00010000
00000000
00000000
20020000
00000000
00000000
00000000
00000000
00000000
,  // measure 56
30030000
00000000
10000000
01000000
00010000
01000000
00100000
00001000
,  // measure 57
00010000
00000000
00000100
00000000
00010000
00000000
00001000
00000000
00000100
00000001
00000100
00000000
00000110
00000000
00000000
00000000
,  // measure 58
00000010
00000001
00000010
00001000
00000100
00010000
00001000
00010000
,  // measure 59
01000000
00000000
00100000
00010000
00100000
00000000
01000000
00000000
10000000
00010000
10000000
00000000
00010000
01000000
00010000
00000000
,  // measure 60
10000000
01000000
10000000
01000000
00100000
00010000
00100000
00010000
,  // measure 61
00001000
00000100
00001000
00000100
00000010
00000001
00000010
00000001
,  // measure 62
00001000
00000010
00001000
00000000
00000010
00000000
00010000
00000000
00001000
00010000
00001000
00000000
01000000
00000000
00020000
00000000
,  // measure 63
00000000
00000000
10030000
00000000
00010000
10000000
00010000
10000000
00000000
00000000
00200000
00000000
00000000
00000000
00000000
00000000
,  // measure 64
01300000
00000000
00001000
00000000
00010000
00000000
00000010
00000000
00001000
00000000
00000000
00000001
00000000
00000000
00000010
00000000
,  // measure 65
00000011
00000000
00000000
00001001
00000000
00000000
00001020
00000000
00000000
00000000
00010030
00000000
00001000
00000000
01000000
00000000
,  // measure 66
01001000
00001000
00010000
00000100
00010100
00010000
00001000
01000000
,  // measure 67
01001000
00000000
00000000
01100000
00000000
00000000
20100000
00000000
00000000
00000000
30010000
00000000
01000000
00000000
00001000
00000000
,  // measure 68
00011000
00000000
00000000
00010010
00000000
00000000
00000110
00000000
00000000
00000101
00000000
00000000
00000001
00000000
00001000
00000000
,  // measure 69
00001100
00000000
00000000
00010100
00000000
00000000
00011000
00000000
00000000
01001000
00000000
00000000
01010000
00000000
00010000
00000000
,  // measure 70
10000000
00000000
01000000
00000000
00010000
00000000
00001000
00000000
00020000
00000000
00000000
00030020
00000000
00000000
00000230
00000000
,  // measure 71
00000000
00000000
00000301
00000000
00001000
00000000
00000100
00000000
00000010
00000001
00000010
00000001
00000020
00000000
00000000
00000000
,  // measure 72
00000031
00000000
00000000
00002000
00000000
00000000
00000000
00000000
00000000
00000000
00003100
00010000
00000100
00000000
00010000
00000000
,  // measure 73
00002000
00000000
00000000
02003000
00000000
00000000
23000000
00000000
00000000
32000000
00000000
00000000
03010000
00000000
00100000
00000000
,  // measure 74
00101000
00000000
00001000
00000000
00010000
00001000
00010000
00000000
00010010
00000000
00000010
00000000
00000100
00000010
00000100
00000000
,  // measure 75
00000002
00000000
00000000
00002003
00000000
00000000
00003200
00000000
00000000
00000000
00000310
00000000
00000001
00000000
00001000
00000000
,  // measure 76
00000010
00000000
00000100
00000000
00001000
00000000
00010000
00000000
00100000
00000000
00000000
10000000
00000000
00000000
00010000
00000000
,  // measure 77
00110000
00000000
00000000
00101000
00000000
00000000
00021000
00000000
00000000
00000000
00030010
00000000
00000100
00000000
00000001
00000000
,  // measure 78
00001000
00000100
00001000
00000100
00010000
00001000
00010000
00001000
,  // measure 79
01000000
00010000
01000000
00000000
00100000
10000000
00100000
00000000
01000000
00001000
01000000
00001000
00010000
00000000
00000000
00000000
,  // measure 80
00011000
00000000
00000000
00000000
;

//---------------dance-double - Kekkle-BDP----------------
#NOTEDATA:;
#CHARTNAME:Kekkle-BDP;
#STEPSTYPE:dance-double;
#DESCRIPTION:Kekkle-BDP;
#DIFFICULTY:Easy;
#METER:8;
#RADARVALUES:0.328546,0.496364,0.082727,0.115818,0,278,268,10,14,0,0,0,0,0,0.328546,0.496364,0.082727,0.115818,0,278,268,10,14,0,0,0,0,0;
#CREDIT:Kekkle;
#NOTES:
// measure 0
00000000
00000000
00000000
00000000
,  // measure 1
00000000
00000000
00000000
00000000
,  // measure 2
00000000
00000000
00000000
00000000
,  // measure 3
00000000
00000000
00000000
00000000
,  // measure 4
10000000
00100000
01000000
00001000
,  // measure 5
00010000
00000100
00000010
00000100
,  // measure 6
00010000
00001000
00000100
00000010
,  // measure 7
00001000
00000000
00000001
00000000
00000010
00000000
00000020
00000030
,  // measure 8
00000100
00010000
00001000
00010000
,  // measure 9
00100000
10000000
00010000
00010000
,  // measure 10
10000000
01000000
00010000
00001000
,  // measure 11
00010000
00000010
00000100
00000100
,  // measure 12
00000002
00000003
00000100
00001000
,  // measure 13
00020000
00030000
00100000
10000000
,  // measure 14
00010000
00010000
00100000
00100000
,  // measure 15
00001000
00010000
00000010
00000100
,  // measure 16
00000002
00000000
00002003
00000000
,  // measure 17
00003200
00000000
00020300
00000000
,  // measure 18
00230000
00000000
20300000
00000000
,  // measure 19
30020000
00000000
00230000
00000000
,  // measure 20
00301000
00010000
00001000
00000100
00000010
00000100
00000010
00000000
,  // measure 21
00001000
00000001
00000010
00000100
00000010
00000100
00010000
00000000
,  // measure 22
00001000
00010000
00100000
10000000
,  // measure 23
00010000
00100000
01000000
10000000
,  // measure 24
00020000
00000000
00000000
00000000
,  // measure 25
00000000
00000000
00000000
00000000
,  // measure 26
00000000
00000000
00000000
00000000
,  // measure 27
00000000
00000000
00030000
00000000
,  // measure 28
01000000
00000000
01000000
00000000
,  // measure 29
01000000
00000000
01000000
00000000
,  // measure 30
00001000
00000000
00001000
00000000
,  // measure 31
00001000
00000000
00001000
00000000
,  // measure 32
00010000
00000010
00000100
00000001
,  // measure 33
00000100
00000010
00001000
00000000
,  // measure 34
00000100
00010000
00001000
00010000
,  // measure 35
01000000
00100000
00010000
00000000
,  // measure 36
10000000
00000000
10000000
00000000
,  // measure 37
00010000
00000000
00010000
00000000
,  // measure 38
01000000
00000000
00001000
00000000
,  // measure 39
00010000
00000000
00000020
00000030
,  // measure 40
00000100
00000001
00000010
00000100
,  // measure 41
00010000
00001000
00010000
00010000
,  // measure 42
00100000
10000000
00100000
00010000
,  // measure 43
00001000
00010000
01000000
01000000
,  // measure 44
00100000
00001000
00010000
00001000
,  // measure 45
00000010
00000001
00001000
00001000
,  // measure 46
00000010
00000100
00001000
00010000
,  // measure 47
00100000
10000000
00010000
10010000
,  // measure 48
10000000
01000000
00010000
00001000
,  // measure 49
00010000
00000010
00000100
00000100
,  // measure 50
00001000
00010000
00100000
00010000
,  // measure 51
00001000
01000000
00010000
00010000
,  // measure 52
00100000
10000000
00100000
01000000
,  // measure 53
00100000
00001000
00010000
00000010
,  // measure 54
00000100
00000100
00000001
00000001
,  // measure 55
00001000
00000100
00010000
00002000
,  // measure 56
00003000
01000000
00010000
00100000
,  // measure 57
01000000
10000000
00100000
00100000
,  // measure 58
00010000
00001000
00000100
00000010
,  // measure 59
00000100
00000000
00001000
00000000
01000000
00010000
01000000
00000000
,  // measure 60
00010000
00010000
01000000
01000000
,  // measure 61
00001000
00001000
00010000
00010000
,  // measure 62
00000010
00000000
00001000
00000000
00000100
00000000
00000010
00000001
,  // measure 63
00000000
00000100
00000010
00001010
,  // measure 64
00001000
00000001
00000010
00001000
,  // measure 65
00010000
01000000
10000000
00010000
,  // measure 66
10010000
10000000
10010000
00010000
,  // measure 67
10010000
10000000
01000000
01000000
,  // measure 68
00010000
00001000
00000010
00000010
,  // measure 69
00000100
00001000
00000001
00000001
,  // measure 70
00000100
00000010
00010000
00001000
,  // measure 71
00010000
00100000
01000000
01100000
,  // measure 72
00100000
00100000
10000000
10000000
,  // measure 73
00010000
00100000
00001000
00010000
,  // measure 74
00011000
00001000
00011000
00010000
,  // measure 75
00011000
00001000
00000100
00000100
,  // measure 76
00000001
00001000
00000100
00000010
,  // measure 77
00000100
00010000
00001000
00010000
,  // measure 78
01000000
01000000
10000000
10000000
,  // measure 79
00100000
00010000
00000010
00001000
,  // measure 80
00001001
00000000
00000000
00000000
;
