#VERSION:0.83;
#TITLE:Giant Otter Family;
#ARTIST:S-C-U;
#BANNER:Giant Otter Family.png;
#BACKGROUND:Giant Otter Family-bg.png;
#JACKET:Giant Otter Family-jacket.png;
#MUSIC:Giant Otter Family.ogg;
#OFFSET:-3.83;
#SAMPLESTART:9.894;
#SAMPLELENGTH:15;
#BPMS:0=188;

//---------------dance-single - Marten-bSP----------------
#NOTEDATA:;
#CHARTNAME:Marten-bSP;
#STEPSTYPE:dance-single;
#DESCRIPTION:Marten-bSP;
#DIFFICULTY:Beginner;
#METER:3;
#RADARVALUES:0.127582,0.218330,0.051523,0.060111,0,104,98,6,7,0,0,0,0,0,0.127582,0.218330,0.051523,0.060111,0,104,98,6,7,0,0,0,0,0;
#CREDIT:Marten;
#NOTES:
// measure 0
0000
0000
0000
0000
,  // measure 1
1000
0000
0000
0000
,  // measure 2
1000
0000
1000
0000
,  // measure 3
0020
0000
0000
0000
,  // measure 4
0030
0000
0000
0000
,  // measure 5
1000
0000
0000
0000
,  // measure 6
0001
0000
0000
0000
,  // measure 7
0010
0000
0010
0000
,  // measure 8
0001
0000
0001
0000
,  // measure 9
0100
0000
0000
0000
,  // measure 10
0010
0000
0000
0000
,  // measure 11
1000
0000
0000
0000
,  // measure 12
0000
1001
0000
0000
,  // measure 13
0001
0000
0000
0000
,  // measure 14
1000
0000
0000
0000
,  // measure 15
0010
0000
0010
0000
,  // measure 16
1000
0000
1000
0000
,  // measure 17
0100
0000
0000
0000
,  // measure 18
0010
0000
0000
0000
,  // measure 19
0002
0000
0000
0000
,  // measure 20
0003
0000
0000
0000
,  // measure 21
1000
0000
0000
0000
,  // measure 22
1000
0000
0000
0000
,  // measure 23
0001
0000
0000
0000
,  // measure 24
0001
0000
0000
0000
,  // measure 25
1000
0000
0000
0000
,  // measure 26
1000
0000
0000
0000
,  // measure 27
0001
0000
0000
0000
,  // measure 28
0001
0000
0000
0000
,  // measure 29
0100
0000
0000
0000
,  // measure 30
0100
0000
0000
0000
,  // measure 31
0100
0000
0000
0000
,  // measure 32
0100
0000
0000
0000
,  // measure 33
0010
0000
0000
0000
,  // measure 34
0010
0000
0000
0000
,  // measure 35
0100
0000
0100
0000
,  // measure 36
0200
0000
0000
0300
,  // measure 37
0001
0000
0000
0000
,  // measure 38
1000
0000
0000
0000
,  // measure 39
0100
0000
0100
0000
,  // measure 40
0010
0000
0000
0000
,  // measure 41
0001
0000
0000
0000
,  // measure 42
1000
0000
0000
0000
,  // measure 43
0002
0000
0000
0000
,  // measure 44
1003
0000
0000
0000
,  // measure 45
1000
0000
0000
0000
,  // measure 46
0001
0000
0000
0000
,  // measure 47
0010
0000
0010
0000
,  // measure 48
0001
0000
0001
0000
,  // measure 49
0100
0000
0000
0000
,  // measure 50
0010
0000
0000
0000
,  // measure 51
1000
0000
0000
0000
,  // measure 52
0000
1001
0000
0000
,  // measure 53
0001
0000
0000
0000
,  // measure 54
1000
0000
0000
0000
,  // measure 55
0010
0000
0010
0000
,  // measure 56
1000
0000
1000
0000
,  // measure 57
0100
0000
0000
0000
,  // measure 58
0010
0000
0000
0000
,  // measure 59
0002
0000
0000
0000
,  // measure 60
0003
0000
0000
0000
,  // measure 61
1000
0000
0000
0000
,  // measure 62
1000
0000
1000
0000
,  // measure 63
0010
0000
0000
0000
,  // measure 64
0100
0000
0000
0000
,  // measure 65
0001
0000
0000
0000
,  // measure 66
0001
0000
0001
0000
,  // measure 67
0020
0000
0000
0000
,  // measure 68
0030
0000
0000
0000
,  // measure 69
1001
0000
0000
0000
,  // measure 70
0001
0000
0001
0000
,  // measure 71
1000
0000
1000
0000
,  // measure 72
0100
0000
0000
0000
,  // measure 73
0010
0000
0000
0000
,  // measure 74
0001
0000
0000
0000
,  // measure 75
1000
0000
0000
0000
,  // measure 76
0000
1001
0000
0000
,  // measure 77
0001
0000
0000
0000
,  // measure 78
1000
0000
1000
0000
,  // measure 79
0001
0000
0001
0000
,  // measure 80
0110
0000
0000
0000
,  // measure 81
0010
0000
0000
0000
,  // measure 82
1000
0000
1000
0000
,  // measure 83
2000
0000
0000
0000
,  // measure 84
3000
0000
0000
1001
;

//---------------dance-single - Marten-ESP----------------
#NOTEDATA:;
#CHARTNAME:Marten-ESP;
#STEPSTYPE:dance-single;
#DESCRIPTION:Marten-ESP;
#DIFFICULTY:Hard;
#METER:13;
#RADARVALUES:0.657536,0.727768,0.601106,0.515234,0.150276,536,466,70,60,0,0,0,0,0,0.657536,0.727768,0.601106,0.515234,0.150276,536,466,70,60,0,0,0,0,0;
#CREDIT:Marten;
#NOTES:
// measure 0
0000
0000
0000
0000
,  // measure 1
1100
0000
0010
0000
0011
0001
0100
0110
,  // measure 2
0000
0010
1000
0100
0001
0100
1000
0001
,  // measure 3
0200
0000
0000
0000
0000
0000
0000
0310
,  // measure 4
0000
0000
0010
0000
0010
0000
0000
0000
0000
0000
0000
0000
1000
0001
1000
0001
,  // measure 5
0020
0000
1030
0020
0000
0031
0100
1000
,  // measure 6
0200
0000
0301
0200
0000
0310
1000
0002
,  // measure 7
0000
0000
1003
0000
0100
0000
1000
0000
0010
0000
0100
0000
0001
0000
1000
0100
,  // measure 8
1000
0000
0000
1100
0000
0000
1001
0000
0000
0000
0001
0000
0100
0000
0010
0000
,  // measure 9
1010
0000
0000
1010
0000
0000
0101
0000
0000
0000
0001
0000
0010
0000
0000
0000
,  // measure 10
0021
2030
3200
0302
,  // measure 11
1003
0001
0000
1001
0000
0110
0000
2001
,  // measure 12
0000
0000
0001
0000
0001
0000
0000
0000
3000
0000
0000
0000
0001
1000
0001
1000
,  // measure 13
0020
0000
0031
0020
0000
1030
0100
0001
,  // measure 14
0200
0000
1300
0200
0000
0310
0001
2000
,  // measure 15
0000
0000
3001
0000
0100
0000
0001
0000
0010
0000
0100
0000
1000
0000
0001
0100
,  // measure 16
0001
0000
0000
0101
0000
0000
1001
0000
0000
0000
1000
0000
0100
0000
0010
0000
,  // measure 17
0011
0000
0000
0011
0000
0000
1100
0000
0000
0000
1000
0000
0010
0000
0000
0000
,  // measure 18
1020
0032
0203
1300
,  // measure 19
0001
0001
0000
1000
0000
0010
0000
1010
,  // measure 20
0000
0101
0000
1001
0000
1000
1000
0000
,  // measure 21
0001
0100
0010
0100
0001
1000
0100
1000
,  // measure 22
0001
0010
0100
0010
0001
0100
1000
0100
,  // measure 23
0001
1000
0100
0100
0010
0100
0000
1000
,  // measure 24
0100
0100
0010
0100
0000
1000
0001
1000
,  // measure 25
0000
1000
0100
0010
0100
1000
0001
0100
,  // measure 26
0010
1000
0100
0001
0100
1000
0001
1000
,  // measure 27
0000
0001
0100
0100
0010
0100
0000
0101
,  // measure 28
0000
0100
0001
1000
0000
0010
1000
0001
,  // measure 29
0020
0100
0100
0000
,  // measure 30
0032
0000
0100
0000
,  // measure 31
2003
0010
0010
0000
,  // measure 32
3200
0000
0010
0000
,  // measure 33
1300
0100
2000
0000
,  // measure 34
0001
0000
3010
0100
,  // measure 35
0002
0000
0000
1000
0000
1000
0000
2000
,  // measure 36
0000
0000
0003
3001
,  // measure 37
0011
0000
1100
0000
1000
0100
0010
0100
,  // measure 38
0000
1000
0010
0100
0000
0010
0100
0001
,  // measure 39
0010
0000
0000
0010
0000
0000
0010
0000
0001
0000
0000
0001
0000
0000
0001
0000
,  // measure 40
2000
0000
0000
3010
1000
0100
1000
0001
,  // measure 41
0100
0000
0101
0000
0001
0010
0100
0010
,  // measure 42
0000
0011
0000
1001
0000
1000
0010
0100
,  // measure 43
0102
1003
2100
3001
,  // measure 44
0100
0000
0100
0000
0100
0000
0000
0000
0000
0000
0000
0000
0001
1000
0001
1000
,  // measure 45
0020
0000
0031
0020
0000
1030
0100
0001
,  // measure 46
0200
0000
1300
0200
0000
0310
0001
2000
,  // measure 47
0000
0000
3001
0000
0100
0000
0001
0000
0010
0000
0100
0000
1000
0000
0001
0100
,  // measure 48
0001
0000
0000
0101
0000
0000
1001
0000
0000
0000
1000
0000
0100
0000
0010
0000
,  // measure 49
0011
0000
0000
0011
0000
0000
1100
0000
0000
0000
1000
0000
0010
0000
0000
0000
,  // measure 50
1020
0032
0203
2300
,  // measure 51
3001
1000
0000
1001
0000
0110
0000
1002
,  // measure 52
0000
0000
1000
0000
1000
0000
0000
0000
0003
0000
0000
0000
1000
0001
1000
0001
,  // measure 53
0020
0000
1030
0020
0000
0031
0100
1000
,  // measure 54
0200
0000
0301
0200
0000
0310
1000
0002
,  // measure 55
0000
0000
1003
0000
0100
0000
1000
0000
0010
0000
0100
0000
0001
0000
1000
0100
,  // measure 56
1000
0000
0000
1100
0000
0000
1001
0000
0000
0000
0001
0000
0100
0000
0010
0000
,  // measure 57
1010
0000
0000
1010
0000
0000
0101
0000
0000
0000
0001
0000
0010
0000
0000
0000
,  // measure 58
0021
2030
3200
0301
,  // measure 59
1000
1000
0000
0001
0000
0010
0000
0011
,  // measure 60
0000
1100
0000
1001
0000
0001
0001
0000
,  // measure 61
1000
0000
1010
0000
0010
1000
0001
0100
,  // measure 62
0000
0001
0100
0010
1000
0100
0001
0100
,  // measure 63
0000
1000
0100
0010
0001
0001
0000
1000
,  // measure 64
0100
0010
0001
0001
0000
0100
0001
1000
,  // measure 65
1001
0000
0011
0000
1000
0100
0010
0011
,  // measure 66
0000
0001
0100
0010
1000
1000
0010
0010
,  // measure 67
0200
0000
0000
0000
0000
0000
0000
0310
,  // measure 68
0000
0000
0010
0000
0010
0000
0000
0000
0000
0000
0000
0000
1000
0100
1000
0100
,  // measure 69
0020
0000
0031
0020
0000
1030
0010
0001
,  // measure 70
0200
0000
1300
0200
0000
0301
1000
0020
,  // measure 71
0000
0000
1030
0000
0100
0000
1000
0000
0001
0000
1000
0010
1000
0000
0001
0010
,  // measure 72
0001
0000
0000
0001
0000
0000
1000
0000
0000
0000
0010
0000
1000
0000
0100
0000
,  // measure 73
1000
0000
0000
1000
0000
0000
0100
0000
0000
0000
0100
0000
0010
0000
0000
0000
,  // measure 74
0011
0110
1100
1001
,  // measure 75
1000
0010
0000
1100
0000
0101
0000
0120
,  // measure 76
0000
0000
0100
0000
0130
0000
0000
0000
0000
0000
0000
0000
0001
0100
0001
0100
,  // measure 77
0020
0000
1030
0020
0000
0031
0010
1000
,  // measure 78
0200
0000
0301
0200
0000
1300
0001
0020
,  // measure 79
0000
0000
0031
0000
0100
0000
0001
0000
1000
0000
0001
0010
0001
0000
1000
0010
,  // measure 80
1000
0000
0000
1010
0000
0000
1001
0000
0000
0000
0010
0000
0001
0000
0100
0000
,  // measure 81
0102
0000
0000
0100
0000
0000
1000
0000
0000
0000
0013
0000
0011
0000
0000
0000
,  // measure 82
1001
0000
1000
0010
1010
0000
0110
0000
,  // measure 83
0001
0001
0000
0011
0000
1100
0000
0101
,  // measure 84
0000
0000
1010
0000
0000
0000
1001
0000
0000
0000
0010
0100
0010
0000
0000
0000
;

//---------------dance-double - NewbStepper-EDP----------------
#NOTEDATA:;
#CHARTNAME:NewbStepper-EDP;
#STEPSTYPE:dance-double;
#DESCRIPTION:NewbStepper-EDP;
#DIFFICULTY:Hard;
#METER:13;
#RADARVALUES:0.621961,0.618603,0.403600,0.601106,0.150276,507,460,47,70,0,0,0,0,0,0.621961,0.618603,0.403600,0.601106,0.150276,507,460,47,70,0,0,0,0,0;
#CREDIT:NewbStepper;
#NOTES:
00000000
00000000
00000000
00000000
,
00001001
00000000
00000110
00000000
00001000
00010000
01000000
00010000
,
00000000
00001000
00010000
00100000
10000000
00010000
01000000
00001000
,
00020000
00000000
00000000
00000000
00000000
00000000
00000000
00031000
,
00000000
00000000
00001000
00000000
00001000
00000000
00000000
00000000
00000000
00000000
00000000
00000000
00010000
00000100
00010000
00000100
,
00002000
00000000
00003010
00000002
00000000
00000013
00001000
00000100
,
00020000
00000000
00031000
00200000
00000000
00310000
10000000
02000000
,
00000000
00000000
03010000
00000000
00001000
00000000
00010000
00000000
00000100
00000000
00001000
00000000
00000010
00000000
00000100
00000001
,
00000100
00000000
00000000
00000110
00000000
00000000
00001001
00000000
00000000
00000000
00000001
00000000
00000100
00000000
00001000
00000000
,
00010000
00000000
00000000
00100000
00000000
00000000
10000000
00000000
00000000
00000000
01000000
00000000
00010000
00000000
00000000
00000000
,
00012000
00003020
00000032
00000203
,
00001300
00010000
00000000
00011000
00000000
01010000
00000000
12000000
,
00000000
00000000
00010000
00000000
03010000
00000000
00000000
00000000
00000000
00000000
00000000
00000000
00001000
01000000
00001000
01000000
,
00020000
00000000
00130000
20000000
00000000
30100000
00010000
01000000
,
00002000
00000000
00013000
00000020
00000000
00001030
00000001
00000200
,
00000000
00000000
00001300
00000000
00010000
00000000
00001000
00000000
01000000
00000000
00010000
00000000
00100000
00000000
01000000
10000000
,
01000000
00000000
00000000
01100000
00000000
00000000
10010000
00000000
00000000
00000000
10000000
00000000
01000000
00000000
00010000
00000000
,
00001000
00000000
00000000
00000010
00000000
00000000
00000001
00000000
00000000
00000000
00000100
00000000
00001000
00000000
00000000
00000000
,
00021000
00230000
20300000
32000000
,
03010000
00001000
00000100
00000000
00000110
00000000
00001000
00010000
,
01000000
01100000
10010000
00000000
,
10000000
01000000
00100000
01000000
10000000
01000000
00010000
00001000
,
00100000
00001000
00010000
00000100
00001000
00000001
00000100
00001000
,
00000100
00000001
00000010
00000100
00000010
00001000
00000000
00010000
,
00100000
01000000
00100000
10000000
00000000
01000000
00010000
00001000
,
00000000
00000100
00000010
00000100
00000001
00000100
00001000
00010000
,
00000010
00010000
00001000
01000000
00010000
10000000
01000000
00010000
,
00000000
00001000
00010000
00000000
00000010
00001000
00000000
00001100
,
00000000
00000001
00000100
00001000
00000000
00010000
01000000
10000000
,
00020000
00000000
01000000
00000000
,
00032000
00000000
00000010
00000000
,
00003002
00000000
00000100
00000000
,
00000023
00000000
00000100
00000000
,
00020030
01000000
10000000
00100000
,
00032000
00000100
00000001
00000010
,
00023000
00000000
00000000
10000000
00000000
10000000
00000000
20000000
,
00000000
00000000
00000000
30030000
,
00110000
00000000
11000000
00000000
10000000
01000000
00100000
01000000
,
00000000
00010000
00001000
00000010
00000000
00000100
00000100
00000000
,
00001000
00000000
00000000
00001000
00000000
00000000
00001000
00000000
00000001
00000000
00000000
00000001
00000000
00000000
00000001
00000000
,
00000200
00000000
00000000
00000000
00000000
00000000
00001300
00010000
00001000
00000000
00000000
00000000
00000100
00000000
00000000
00000000
,
00001010
00000000
00000101
00000000
00000001
00000100
00000010
00000100
,
00000000
00001000
00000000
00010000
00000000
00100000
10000000
00010000
,
01020000
10030000
21000000
30010000
,
01000000
00000000
01000000
00000000
01000000
00000000
00000000
00000000
00000000
00000000
00000000
00000000
00001000
01000000
00001000
01000000
,
00020000
00000000
00130000
20000000
00000000
30100000
00010000
01000000
,
00002000
00000000
00013000
00000020
00000000
00001030
00000001
00000200
,
00000000
00000000
00001300
00000000
00010000
00000000
00001000
00000000
01000000
00000000
00010000
00000000
00100000
00000000
01000000
10000000
,
01000000
00000000
00000000
01100000
00000000
00000000
10010000
00000000
00000000
00000000
10000000
00000000
01000000
00000000
00010000
00000000
,
00001000
00000000
00000000
00000010
00000000
00000000
00000001
00000000
00000000
00000000
00000100
00000000
00001000
00000000
00000000
00000000
,
00021000
00230000
20300000
32000000
,
03010000
00001000
00000000
00011000
00000000
00001100
00000000
00000201
,
00000000
00000000
00001000
00000000
00001300
00000000
00000000
00000000
00000000
00000000
00000000
00000000
00010000
00000100
00010000
00000100
,
00002000
00000000
00003010
00000002
00000000
00000013
00001000
00000100
,
00020000
00000000
00031000
00200000
00000000
00310000
10000000
02000000
,
00000000
00000000
03010000
00000000
00001000
00000000
00010000
00000000
00000100
00000000
00001000
00000000
00000010
00000000
00000100
00000001
,
00000100
00000000
00000000
00000110
00000000
00000000
00001001
00000000
00000000
00000000
00000001
00000000
00000100
00000000
00001000
00000000
,
00010000
00000000
00000000
00100000
00000000
00000000
10000000
00000000
00000000
00000000
01000000
00000000
00010000
00000000
00000000
00000000
,
00012000
00003020
00000032
00000203
,
00001300
00010000
01000000
00000000
01100000
00000000
00010000
00001000
,
00000100
00000000
00000110
00000000
00000001
00001000
00000001
00000000
,
00001001
00000000
00000110
00000000
00001000
00010000
01000000
00010000
,
00000000
00001000
00010000
00100000
10000000
00010000
01000000
00001000
,
00010000
00001000
00000010
00000000
00000110
00000000
00001000
00010000
,
00100000
00000000
01100000
00000000
10000000
00010000
10000000
00000000
,
10010000
00000000
01100000
00000000
00010000
00001000
00000100
00001000
,
00000000
00010000
00001000
00000010
00000001
00001000
00000100
00010000
,
00002000
00000000
00000000
00000000
00000000
00000000
00000000
00013000
,
00000000
00000000
00010000
00000000
00010000
00000000
00000000
00000000
00000000
00000000
00000000
00000000
00001000
00010000
00001000
00010000
,
00000020
00000000
00001030
00000200
00000000
00010300
00001000
00010000
,
02000000
00000000
13000000
00200000
00000000
00310000
00001000
00000020
,
00000000
00000000
00000031
00000000
00000100
00000000
00000010
00000000
00001000
00000000
00000100
00010000
00000100
00000000
00010000
00001000
,
00010000
00000000
00000000
00010000
00000000
00000000
00001000
00000000
00000000
00000000
00010000
00000000
01000000
00000000
10000000
00000000
,
00010000
00000000
00000000
00010000
00000000
00000000
01000000
00000000
00000000
00000000
01000000
00000000
00100000
00000000
00000000
00000000
,
20000000
32000000
03020000
00032000
,
00003010
00000010
00000000
00000101
00000000
00001100
00000000
00021000
,
00000000
00000000
00001000
00000000
00031000
00000000
00000000
00000000
00000000
00000000
00000000
00000000
00010000
00001000
00010000
00001000
,
00200000
00000000
00310000
02000000
00000000
03001000
00010000
00001000
,
00000200
00000000
00000301
00000020
00000000
00001030
00010000
00200000
,
00000000
00000000
10300000
00000000
01000000
00000000
00100000
00000000
00010000
00000000
01000000
00001000
01000000
00000000
00001000
00010000
,
00001000
00000000
00000000
00001000
00000000
00000000
00010000
00000000
00000000
00000000
00001000
00000000
00000100
00000000
00000001
00000000
,
00001000
00000000
00000000
00001000
00000000
00000000
00000100
00000000
00000000
00000000
00000100
00000000
00000010
00000000
00000000
00000000
,
00000002
00000203
00002300
00023000
,
00130000
00100000
00000000
11000000
00000000
01010000
00000000
00011000
,
00000000
00001010
00000000
00000011
00000000
00001000
00001001
00000000
;

//---------------dance-single - NewbStepper-DSP----------------
#NOTEDATA:;
#CHARTNAME:NewbStepper-DSP;
#STEPSTYPE:dance-single;
#DESCRIPTION:NewbStepper-DSP;
#DIFFICULTY:Medium;
#METER:11;
#RADARVALUES:0.477205,0.509437,0.120221,0.188919,0.051523,389,375,14,22,0,0,0,0,0,0.477205,0.509437,0.120221,0.188919,0.051523,389,375,14,22,0,0,0,0,0;
#CREDIT:NewbStepper;
#NOTES:
// measure 0
0000
0000
0000
0000
,  // measure 1
0100
0000
1001
0000
0001
0000
0100
0010
,  // measure 2
0000
1000
0100
0001
0100
1000
0001
0000
,  // measure 3
0020
0000
0000
0000
0000
0000
0030
0100
,  // measure 4
0000
0100
0100
0000
0000
0000
1000
0000
,  // measure 5
0001
0000
1000
0010
0000
0100
0001
0000
,  // measure 6
1000
0000
0001
0010
0000
0100
1000
0001
,  // measure 7
0000
0001
0010
0000
0100
0000
1000
0000
,  // measure 8
0010
0000
0000
0010
0000
0000
0100
0000
0000
0000
0000
0000
1001
0000
0000
0000
,  // measure 9
0001
0000
0000
0001
0000
0000
0100
0000
0000
0000
0100
0000
0010
0000
0000
0000
,  // measure 10
1000
0100
0010
0001
,  // measure 11
1000
1000
0000
0010
0000
0100
0000
0020
,  // measure 12
0000
0000
0000
0000
0030
0000
1000
0001
,  // measure 13
1000
0000
0001
0010
0000
0100
1000
0000
,  // measure 14
0001
0000
1000
0010
0000
0100
0001
1000
,  // measure 15
0000
1000
0010
0000
0100
0000
0001
0000
,  // measure 16
0010
0000
0000
0010
0000
0000
0100
0000
0000
0000
0000
0000
1001
0000
0000
0000
,  // measure 17
1000
0000
0000
1000
0000
0000
0100
0000
0000
0000
0100
0000
0010
0000
0000
0000
,  // measure 18
0001
0100
0010
1000
,  // measure 19
0001
0010
1000
0100
,  // measure 20
0001
0010
0002
0000
,  // measure 21
1003
0100
0001
0000
0100
0000
0010
0001
,  // measure 22
0000
0001
0100
0000
0010
0000
0000
1000
,  // measure 23
0000
0001
0100
0000
0010
0000
1000
0100
,  // measure 24
0010
0001
1000
0000
0000
0100
0010
0000
,  // measure 25
0001
0100
1000
0000
0100
0000
1000
0100
,  // measure 26
0001
0000
0100
0000
0000
0010
1000
0000
,  // measure 27
0001
0100
0001
0000
1000
0100
0000
0010
,  // measure 28
0000
0100
0001
0000
0100
1000
0001
0000
,  // measure 29
1000
0000
0000
0000
0001
0000
1000
0010
,  // measure 30
0000
0001
0010
2000
0000
0000
3000
0000
,  // measure 31
0001
0000
0000
0000
1000
0000
0001
0010
,  // measure 32
0000
1000
0010
0002
0000
0000
0003
0000
,  // measure 33
1000
0000
0100
0000
0010
0000
0001
0100
,  // measure 34
0000
0010
0000
1000
0000
0100
0010
0001
,  // measure 35
2000
0000
0000
3020
0000
0230
0000
0320
,  // measure 36
0000
0000
0030
0000
,  // measure 37
1001
0000
0100
0000
0010
1000
0100
0000
,  // measure 38
0010
0001
0100
0000
0010
0000
0010
0000
,  // measure 39
1000
1100
0001
0101
,  // measure 40
0020
0000
0000
0100
0130
0000
1000
0000
,  // measure 41
1001
0000
0100
0000
0010
0001
0100
0000
,  // measure 42
0010
1000
0100
0000
0010
0000
0010
0000
,  // measure 43
0002
0000
0000
0003
,  // measure 44
0100
0010
0100
0000
0000
0000
0001
0000
,  // measure 45
1000
0000
0001
0010
0000
0100
1000
0000
,  // measure 46
0001
0000
1000
0010
0000
0100
0001
1000
,  // measure 47
0000
1000
0010
0000
0100
0000
0001
0000
,  // measure 48
0010
0000
0000
0010
0000
0000
0100
0000
0000
0000
0000
0000
1001
0000
0000
0000
,  // measure 49
1000
0000
0000
1000
0000
0000
0100
0000
0000
0000
0100
0000
0010
0000
0000
0000
,  // measure 50
0001
0100
0010
1000
,  // measure 51
0001
0001
0000
0010
0000
0100
0000
0020
,  // measure 52
0000
0000
0000
0000
0030
0000
0001
1000
,  // measure 53
0001
0000
1000
0010
0000
0100
0001
0000
,  // measure 54
1000
0000
0001
0010
0000
0100
1000
0001
,  // measure 55
0000
0001
0010
0000
0100
0000
1000
0000
,  // measure 56
0010
0000
0000
0010
0000
0000
0100
0000
0000
0000
0000
0000
1001
0000
0000
0000
,  // measure 57
0001
0000
0000
0001
0000
0000
0100
0000
0000
0000
0100
0000
0010
0000
0000
0000
,  // measure 58
1000
0100
0010
0001
,  // measure 59
1000
0010
0001
0100
,  // measure 60
1000
0010
1000
0001
,  // measure 61
0100
0000
1001
0000
0001
0000
0100
0010
,  // measure 62
0000
1000
0100
0001
0100
1000
0001
0000
,  // measure 63
0000
1000
0100
0000
0010
0000
0001
0100
,  // measure 64
1000
0000
0100
0000
0010
1000
0001
0000
,  // measure 65
0100
0000
1001
0000
1000
0000
0100
0010
,  // measure 66
0000
0001
0100
1000
0100
0001
1000
0000
,  // measure 67
0020
0000
0000
0000
0000
0000
0030
0100
,  // measure 68
0000
0100
0100
0000
0000
0000
0001
0000
,  // measure 69
1000
0000
0001
0010
0000
0001
0100
1000
,  // measure 70
0100
0000
0010
1000
0000
0100
0010
0001
,  // measure 71
0000
0001
0100
0010
1000
0100
0010
0001
,  // measure 72
0100
0000
0000
0010
0000
0000
1000
0000
0000
0000
0000
0000
1001
0000
0000
0000
,  // measure 73
1000
0000
0000
0001
0000
0000
0100
0000
0000
0000
0010
0000
1000
0000
0000
0000
,  // measure 74
0002
0203
2300
3020
,  // measure 75
0031
0100
0000
0001
0000
1000
0000
0002
,  // measure 76
0000
0000
0003
1000
,  // measure 77
0001
0000
1000
0010
0000
1000
0100
0001
,  // measure 78
0100
0000
0010
0001
0000
0100
0010
1000
,  // measure 79
0000
1000
0100
0010
0001
0100
0010
1000
,  // measure 80
0100
0000
0000
0010
0000
0000
0001
0000
0000
0000
0000
0000
1001
0000
0000
0000
,  // measure 81
0001
0000
0000
1000
0000
0000
0100
0000
0000
0000
0010
0000
0001
0000
0000
0000
,  // measure 82
2000
3200
0302
0023
,  // measure 83
1030
0100
0000
0010
0000
0001
0000
0100
,  // measure 84
0000
0100
0000
0010
0000
1000
1001
0000
;

//---------------dance-single - NewbStepper-BSP----------------
#NOTEDATA:;
#CHARTNAME:NewbStepper-BSP;
#STEPSTYPE:dance-single;
#DESCRIPTION:NewbStepper-BSP;
#DIFFICULTY:Easy;
#METER:7;
#RADARVALUES:0.290739,0.327495,0.042936,0.163157,0,237,232,5,19,0,0,0,0,0,0.290739,0.327495,0.042936,0.163157,0,237,232,5,19,0,0,0,0,0;
#CREDIT:NewbStepper;
#NOTES:
// measure 0
0000
0000
0000
0000
,  // measure 1
0001
0000
1000
0000
,  // measure 2
0010
0010
0100
0100
,  // measure 3
0002
0000
0000
0000
0000
0003
0000
1001
,  // measure 4
0000
0000
0000
0000
,  // measure 5
0010
1000
0010
0100
,  // measure 6
0010
0001
0010
1000
,  // measure 7
0001
0100
1000
0100
,  // measure 8
0001
0000
0000
1000
0000
0000
0000
0000
,  // measure 9
0010
0000
0000
0010
0000
0000
0000
0000
,  // measure 10
0100
0001
1000
0001
,  // measure 11
0010
0000
0000
0001
0000
1000
0000
0002
,  // measure 12
0000
0000
0003
0000
,  // measure 13
0010
0001
0010
0100
,  // measure 14
0010
1000
0010
0001
,  // measure 15
1000
0100
0001
0100
,  // measure 16
1000
0000
0000
0001
0000
0000
0000
0000
,  // measure 17
0010
0000
0000
0010
0000
0000
0000
0000
,  // measure 18
0100
1000
0100
0010
,  // measure 19
0002
0000
0000
2000
0000
0000
0000
0000
,  // measure 20
0000
0000
0000
3003
,  // measure 21
0010
1000
0001
1000
,  // measure 22
0010
0000
1000
0000
0001
0000
0000
0001
,  // measure 23
0000
0100
0001
1000
,  // measure 24
0001
0100
0001
0000
,  // measure 25
0010
0001
1000
0001
,  // measure 26
0010
0001
1000
0010
,  // measure 27
1000
0001
0100
0000
,  // measure 28
0001
1000
0100
0000
,  // measure 29
0020
0000
0000
0000
,  // measure 30
0200
0000
0330
0000
,  // measure 31
2000
0000
0000
0000
,  // measure 32
0002
0000
3003
0000
,  // measure 33
1000
0000
0100
0000
,  // measure 34
0010
0000
0001
0000
,  // measure 35
1000
0000
0000
0001
0000
1000
0000
0002
,  // measure 36
0000
0000
0003
0000
,  // measure 37
0010
0001
0100
0000
,  // measure 38
0010
1000
0100
0000
,  // measure 39
0001
0100
1000
0010
,  // measure 40
0200
0000
0301
1000
,  // measure 41
0010
1000
0100
0000
,  // measure 42
0010
0001
0100
0000
,  // measure 43
0220
0000
0000
0330
,  // measure 44
1001
0000
0000
0000
,  // measure 45
0010
0001
0010
0100
,  // measure 46
0010
1000
0010
0001
,  // measure 47
1000
0100
0001
0100
,  // measure 48
1000
0000
0000
0001
0000
0000
0000
0000
,  // measure 49
0010
0000
0000
0010
0000
0000
0000
0000
,  // measure 50
0100
1000
0001
1000
,  // measure 51
0010
0000
0000
1000
0000
0001
0000
2000
,  // measure 52
0000
0000
3000
0000
,  // measure 53
0010
1000
0010
0100
,  // measure 54
0010
0001
0010
1000
,  // measure 55
0001
0100
1000
0100
,  // measure 56
0001
0000
0000
1000
0000
0000
0000
0000
,  // measure 57
0010
0000
0000
0010
0000
0000
0000
0000
,  // measure 58
0100
0001
0100
0010
,  // measure 59
2000
0000
0000
0002
0000
0000
0000
0000
,  // measure 60
0000
0000
0000
3003
,  // measure 61
0010
0001
1000
0001
,  // measure 62
0010
0001
1000
0000
,  // measure 63
0010
1000
0100
0010
,  // measure 64
0001
0100
0010
0000
,  // measure 65
1000
0100
1000
0100
,  // measure 66
0010
0001
0010
0001
,  // measure 67
2000
0000
0000
0000
0000
3000
0000
1001
,  // measure 68
0000
0000
0000
0000
,  // measure 69
0100
1000
0100
0010
,  // measure 70
0100
0001
0100
1000
,  // measure 71
0001
0010
1000
0010
,  // measure 72
0001
0000
0000
1000
0000
0000
0000
0000
,  // measure 73
0100
0000
0000
0100
0000
0000
0000
0000
,  // measure 74
0010
0001
1000
0001
,  // measure 75
0100
0000
0000
0001
0000
1000
0000
0002
,  // measure 76
0000
0000
0003
0000
,  // measure 77
0100
0001
0100
0010
,  // measure 78
0100
1000
0100
0001
,  // measure 79
1000
0010
0001
0010
,  // measure 80
1000
0000
0000
0001
0000
0000
0000
0000
,  // measure 81
0100
0000
0000
0100
0000
0000
0000
0000
,  // measure 82
0010
1000
0001
1000
,  // measure 83
0002
0000
0000
2000
0000
0000
0000
0000
,  // measure 84
0000
0000
0000
3003
0000
0000
1001
0000
;

//---------------dance-double - NewbStepper-BDP----------------
#NOTEDATA:;
#CHARTNAME:NewbStepper-BDP;
#STEPSTYPE:dance-double;
#DESCRIPTION:NewbStepper-BDP;
#DIFFICULTY:Easy;
#METER:7;
#RADARVALUES:0.290739,0.327495,0.042936,0.163157,0,237,232,5,19,0,0,0,0,0,0.290739,0.327495,0.042936,0.163157,0,237,232,5,19,0,0,0,0,0;
#CREDIT:NewbStepper;
#NOTES:
00000000
00000000
00000000
00000000
,
00000001
00000000
00001000
00000000
,
00000010
00000010
00000100
00000100
,
00002000
00000000
00000000
00000000
00000000
00003000
00000000
00011000
,
00000000
00000000
00000000
00000000
,
00100000
10000000
00100000
01000000
,
00100000
00010000
00001000
00000010
,
00000001
00000100
00001000
00000100
,
00000001
00000000
00000000
00001000
00000000
00000000
00000000
00000000
,
00000100
00000000
00000000
00000100
00000000
00000000
00000000
00000000
,
00010000
00001000
01000000
00100000
,
10000000
00000000
00000000
01000000
00000000
00010000
00000000
00002000
,
00000000
00000000
00000000
00000000
00000000
00003000
00000000
00000000
,
00000010
00000001
00000010
00000100
,
00000010
00001000
00010000
00100000
,
10000000
01000000
00010000
01000000
,
10000000
00000000
00000000
00010000
00000000
00000000
00000000
00000000
,
01000000
00000000
00000000
01000000
00000000
00000000
00000000
00000000
,
00001000
00010000
00000100
00000010
,
00000002
00000000
00000000
00002000
00000000
00000000
00000000
00000000
,
00000000
00000000
00000000
00003003
,
00000010
00000001
00001000
00000100
,
00010000
00000000
00001000
00000000
01000000
00000000
00000000
01000000
,
00000000
00100000
10000000
00010000
,
10000000
00010000
01000000
00000000
,
00100000
10000000
00010000
01000000
,
00001000
00010000
00000100
00000010
,
00000001
00001000
00000100
00000000
,
00001000
00000001
00000100
00000000
,
00002000
00000000
00000000
00000000
,
00020000
00000000
00033000
00000000
,
00200000
00000000
00000000
00000000
,
02000000
00000000
03300000
00000000
,
00010000
00000000
01000000
00000000
,
00100000
00000000
10000000
00000000
,
01000000
00000000
00000000
00010000
00000000
00001000
00000000
00020000
,
00000000
00000000
00030000
00000000
,
00000010
00001000
00000100
00000000
,
00000010
00000001
00000100
00000000
,
00001000
00010000
00100000
10000000
,
02000000
00000000
13000000
00010000
,
10000000
01000000
00010000
00000000
,
00001000
00000100
00000001
00000000
,
00000220
00000000
00000000
00000330
,
00001001
00000000
00000000
00000000
,
00000010
00000001
00000010
00000100
,
00000010
00001000
00010000
00100000
,
10000000
01000000
00010000
01000000
,
10000000
00000000
00000000
00010000
00000000
00000000
00000000
00000000
,
01000000
00000000
00000000
01000000
00000000
00000000
00000000
00000000
,
00001000
00010000
00000100
00000010
,
00000001
00000000
00000000
00000100
00000000
00001000
00000000
00020000
,
00000000
00000000
00000000
00000000
00000000
00030000
00000000
00000000
,
00100000
10000000
00100000
01000000
,
00100000
00010000
00001000
00000010
,
00000001
00000100
00001000
00000100
,
00000001
00000000
00000000
00001000
00000000
00000000
00000000
00000000
,
00000100
00000000
00000000
00000100
00000000
00000000
00000000
00000000
,
00010000
00001000
01000000
00100000
,
20000000
00000000
00000000
00020000
00000000
00000000
00000000
00000000
,
00000000
00000000
00000000
30030000
,
00100000
10000000
00010000
10000000
,
00100000
00010000
00001000
00000000
,
00000010
00000001
00000100
00000010
,
00001000
00000100
00000010
00000000
,
00000001
00000100
00000001
00000100
,
00000010
00010000
00000010
00010000
,
00002000
00000000
00000000
00000000
00003000
00000000
00000000
00011000
,
00000000
00000000
00000000
00000000
,
01000000
10000000
01000000
00100000
,
01000000
00010000
00001000
00000100
,
00000001
00000010
00001000
00000010
,
00000001
00000000
00000000
00001000
00000000
00000000
00000000
00000000
,
00000010
00000000
00000000
00000010
00000000
00000000
00000000
00000000
,
00010000
00001000
00100000
01000000
,
10000000
00000000
00000000
00100000
00000000
00010000
00000000
00002000
,
00000000
00000000
00000000
00000000
00000000
00003000
00000000
00000000
,
00000100
00000001
00000100
00000010
,
00000100
00001000
00010000
01000000
,
10000000
00100000
00010000
00100000
,
10000000
00000000
00000000
00010000
00000000
00000000
00000000
00000000
,
00100000
00000000
00000000
00100000
00000000
00000000
00000000
00000000
,
00001000
00010000
00000010
00000100
,
00000002
00000000
00000000
00002000
00000000
00000000
00000000
00000000
,
00000000
00000000
00000000
00003003
00000000
00000000
00001001
00000000
;

//---------------dance-double - NewbStepper-DDP----------------
#NOTEDATA:;
#CHARTNAME:NewbStepper-DDP;
#STEPSTYPE:dance-double;
#DESCRIPTION:NewbStepper-DDP;
#DIFFICULTY:Medium;
#METER:11;
#RADARVALUES:0.469844,0.509437,0.103047,0.188919,0.051523,383,371,12,22,0,0,0,0,0,0.469844,0.509437,0.103047,0.188919,0.051523,383,371,12,22,0,0,0,0,0;
#CREDIT:NewbStepper;
#NOTES:
00000000
00000000
00000000
00000000
,
01000000
00000000
10010000
00000000
00010000
00000000
01000000
00100000
,
00000000
10000000
01000000
00010000
00001000
00000100
00000001
00000000
,
00000020
00000000
00000000
00000000
00000000
00000000
00000030
00000100
,
00000000
00000100
00000100
00000000
00000000
00000000
00001000
00000000
,
00000001
00000000
00000100
00000010
00000000
00001000
00000100
00000000
,
00010000
00000000
00001000
00100000
00000000
01000000
10000000
00010000
,
00000000
00010000
01000000
00000000
00100000
00000000
00010000
00000000
,
00001000
00000000
00000000
00001000
00000000
00000000
00000010
00000000
00000000
00000000
00000000
00000000
00001001
00000000
00000000
00000000
,
00000100
00000000
00000000
00000100
00000000
00000000
00010000
00000000
00000000
00000000
00010000
00000000
00001000
00000000
00000000
00000000
,
00100000
00010000
01000000
00100000
,
10000000
00010000
00000000
01000000
00000000
00010000
00000000
20000000
,
00000000
00000000
30000000
00010000
,
10000000
00000000
01000000
00100000
00000000
00010000
01000000
00000000
,
00001000
00000000
00010000
00000010
00000000
00000100
00000001
00001000
,
00000000
00001000
00000100
00000000
00000010
00000000
00001000
00000000
,
00010000
00000000
00000000
00010000
00000000
00000000
00100000
00000000
00000000
00000000
00000000
00000000
10010000
00000000
00000000
00000000
,
01000000
00000000
00000000
01000000
00000000
00000000
00001000
00000000
00000000
00000000
00001000
00000000
00010000
00000000
00000000
00000000
,
00000010
00001000
00000100
00000010
,
00000001
00000100
00001000
00010000
,
00100000
10000000
00020000
00000000
,
10030000
01000000
00010000
00000000
00001000
00000000
00000010
00000001
,
00000000
00000001
00000100
00000000
00000010
00000000
00000000
00001000
,
00000000
00000001
00000100
00000000
00001000
00000000
00010000
00001000
,
00010000
00000000
00000100
00000000
00000000
00000100
00000010
00000000
,
00000001
00000100
00001000
00000000
00010000
00000000
00001000
00000010
,
00000001
00000000
00000100
00000000
00000000
00001000
00010000
00000000
,
00000000
00100000
10000000
00000000
01000000
00010000
00000000
00001000
,
00000000
00100000
00010000
00000000
10000000
01000000
00010000
00000000
,
00001000
00000000
00000000
00000000
00010000
00000000
00001000
00000010
,
00000000
00000001
00000010
00002000
00000000
00000000
00003000
00000000
,
00010000
00000000
00000000
00000000
00001000
00000000
00010000
00100000
,
00000000
10000000
00100000
00020000
00000000
00000000
00030000
00000000
,
00001000
00000000
00000100
00000000
00000001
00000000
00000010
00000100
,
00000000
00000010
00000000
00001000
00000000
00010000
01000000
10000000
,
00020000
00000000
00000000
00230000
00000000
02300000
00000000
03200000
,
00000000
00000000
00300000
00000000
,
10010000
00000000
01000000
00000000
00100000
10000000
01000000
00010000
,
00000000
00001000
00000100
00000001
00000000
00000000
00001000
00000000
,
00000001
00000100
00001000
00000010
,
00000002
00000000
00000003
00000100
00000010
00000000
00001000
00000000
,
00001001
00000000
00000100
00000000
00000010
00000001
00000100
00001000
,
00000000
00010000
00000000
01000000
00000000
10000000
00100000
00000000
,
02000000
00000000
00000000
03000000
,
00010000
10000000
00010000
00000000
00000000
00000000
00010000
00000000
,
10000000
00000000
01000000
00100000
00000000
00010000
01000000
00000000
,
00001000
00000000
00010000
00000010
00000000
00000100
00000001
00001000
,
00000000
00001000
00000100
00000000
00000010
00000000
00001000
00000000
,
00010000
00000000
00000000
00010000
00000000
00000000
00100000
00000000
00000000
00000000
00000000
00000000
10010000
00000000
00000000
00000000
,
01000000
00000000
00000000
01000000
00000000
00000000
00001000
00000000
00000000
00000000
00001000
00000000
00010000
00000000
00000000
00000000
,
00000010
00001000
00000100
00000010
,
00000001
00001000
00000000
00000100
00000000
00001000
00000000
00000002
,
00000000
00000000
00000003
00001000
,
00000001
00000000
00000100
00000010
00000000
00001000
00000100
00000000
,
00010000
00000000
00001000
00100000
00000000
01000000
10000000
00010000
,
00000000
00010000
01000000
00000000
00100000
00000000
00010000
00000000
,
00001000
00000000
00000000
00001000
00000000
00000000
00000010
00000000
00000000
00000000
00000000
00000000
00001001
00000000
00000000
00000000
,
00000100
00000000
00000000
00000100
00000000
00000000
00010000
00000000
00000000
00000000
00010000
00000000
00001000
00000000
00000000
00000000
,
00100000
00010000
01000000
00100000
,
10000000
01000000
00010000
00001000
,
00000010
00000001
00001000
00000100
,
00000010
00000000
00001001
00000000
00001000
00000000
00000010
00000100
,
00000000
00000001
00000010
00001000
00010000
00100000
10000000
00000000
,
00000000
00010000
00100000
00000000
01000000
00000000
10000000
00100000
,
00010000
00000000
00001000
00000000
00000010
00000001
00001000
00000000
,
00000100
00000000
00001001
00000000
00001000
00000000
00000100
00000010
,
00000000
00000001
00000100
00001000
00010000
01000000
10000000
00000000
,
00200000
00000000
00000000
00000000
00000000
00000000
00300000
01000000
,
00000000
01000000
01000000
00000000
00000000
00000000
00010000
00000000
,
10000000
00000000
00100000
01000000
00000000
00001000
00010000
01000000
,
00010000
00000000
00001000
00000010
00000000
00000001
00000100
00000010
,
00000000
00001000
00000100
00010000
00001000
00100000
00010000
01000000
,
00100000
00000000
00000000
00100000
00000000
00000000
10000000
00000000
00000000
00000000
00000000
00000000
10010000
00000000
00000000
00000000
,
10000000
00000000
00000000
01000000
00000000
00000000
00010000
00000000
00000000
00000000
00001000
00000000
00000100
00000000
00000000
00000000
,
00000002
00000203
00002300
00023000
,
00130000
10000000
00000000
01000000
00000000
00010000
00000000
00002000
,
00000000
00000000
00003000
00000100
,
00000001
00000000
00000010
00000100
00000000
00010000
00001000
00000100
,
00001000
00000000
00010000
00100000
00000000
10000000
01000000
00100000
,
00000000
00010000
01000000
00001000
00010000
00000010
00001000
00000100
,
00000010
00000000
00000000
00000010
00000000
00000000
00000001
00000000
00000000
00000000
00000000
00000000
00001001
00000000
00000000
00000000
,
00000001
00000000
00000000
00000100
00000000
00000000
00001000
00000000
00000000
00000000
00010000
00000000
01000000
00000000
00000000
00000000
,
20000000
32000000
03020000
00032000
,
00003010
00000001
00000000
00000100
00000000
00000010
00000000
00001000
,
00000000
00001000
00000000
00000100
00000000
00010000
00011000
00000000
;
