#TITLE:Generic Holiday Song;
#ARTIST:S3RL feat. Sara;
#BANNER:Generic Holiday Song.png;
#BACKGROUND:Generic Holiday Song-bg.png;
#MUSIC:Generic Holiday Song.ogg;
#OFFSET:-0.304;
#SAMPLESTART:55.154873;
#SAMPLELENGTH:15;
#BPMS:0=175.02,224=43.755,232=87.51,240=175.02,312=87.51,316=175.02;

//---------------dance-single - Pandemonium X-ESP----------------
#NOTES:
     dance-single:
     Pandemonium X:
     Hard:
     14:
     0.572538,1.043787,0.542227,0.550085,0.275043,510,441,69,70,0,0,0.572538,1.043787,0.542227,0.550085,0.275043,510,441,69,70,0,0:
0000
0000
0000
0000
,
0000
0000
0000
0000
,
0000
0000
0000
0000
,
0000
0000
0000
0000
,
0100
0000
0100
0001
0010
0000
0010
0001
,
1000
0000
0001
1000
0100
0000
0100
0000
,
0010
0000
0010
0100
1000
0000
0100
0000
,
1000
0001
1000
0001
0020
0000
0000
0000
,
0031
0010
0001
0100
,
0010
0000
2000
3200
0320
0000
0130
0100
,
1000
0001
0100
0001
,
0011
1100
0101
1010
,
1001
0001
0100
0001
,
0010
0100
0010
0001
,
1000
0000
0010
0000
1000
0000
0002
0023
,
0230
0000
0300
0010
0000
0000
0000
0000
,
1001
1000
0001
0010
0001
1000
0001
0100
,
0010
1000
0001
0100
0001
0010
0100
0000
,
1000
0001
0010
0001
1000
0010
1000
0001
,
0100
0010
1000
0100
0010
0001
0010
0100
,
1000
0001
0100
0001
1000
0001
0010
0100
,
1000
0100
0010
0100
1000
0001
0010
0100
,
1000
0000
0100
0001
0000
0100
0020
0032
,
0203
0000
0300
0020
0000
2030
0000
0002
0000
0000
3003
0000
0000
0000
0000
0000
,
1010
0000
0101
0000
1001
0000
1000
0100
,
0110
1100
1002
0103
,
1001
0000
1100
0000
1010
0000
0100
0001
,
0101
1100
1020
0130
,
0101
0000
0011
0000
0110
0000
0100
2000
,
0000
0000
3001
0000
2000
0000
0000
0000
3010
0000
0000
0010
0100
0000
0001
0000
,
1001
0000
0010
0100
1001
0000
0110
2000
,
3002
0000
0023
0000
0030
0200
0000
2300
0000
3002
0000
0003
0100
0000
0000
0000
,
2020
0000
0000
0000
,
0000
0000
3030
0000
,
0120
0000
0100
0100
,
0100
0100
0100
0130
,
2000
0000
0001
0000
0001
0000
3001
1000
,
0010
0000
0010
0000
0010
0000
0010
0100
,
0001
0000
0010
0000
0100
0000
1000
0000
0001
1000
0001
1000
0001
1000
0001
1000
,
0002
0000
0203
0000
0300
0020
0000
2030
0000
3002
0000
0003
1000
0000
0000
0000
,
0011
0000
0010
0110
0000
1100
0000
0110
,
0000
0100
1000
0000
1010
0000
0101
0000
,
1001
0000
1010
0000
0100
0001
0000
0011
,
0000
0010
0100
0000
0011
0000
1100
0000
,
1001
0000
0110
0000
1000
0001
0010
0100
,
0000
1000
0001
0000
0110
0000
1001
0000
,
1010
0000
0101
0000
0011
0000
0010
0010
,
0110
1100
1010
1001
,
0201
0000
0010
0000
0001
0001
0000
0010
,
0000
0301
1000
0000
1010
0000
0011
0000
,
1020
0000
1000
0000
0100
0100
0000
1030
,
0000
0001
1000
0000
0100
0000
0010
0000
,
0012
2003
3200
0320
,
0032
0203
0320
2030
,
3001
0100
0001
0100
0010
1000
0010
1000
0100
1000
0100
0010
0001
0010
0001
1000
,
0002
0000
0000
2000
0000
0000
0000
3003
,
0000
0000
0000
0000
0000
0000
0000
0000
1000
0000
0000
0000
0001
0000
0100
0000
0000
0000
0010
0000
0000
0000
1000
0000
0000
0000
0001
0000
0000
0000
0010
0000
0100
0000
0000
0000
0010
0000
0001
0000
0000
0000
0100
0000
0000
0000
0002
0000
0000
0000
0003
2000
0000
3000
0200
0000
0300
0020
0000
0030
0002
0000
0000
0003
,
0000
0000
0000
0000
0000
0000
0000
0000
0100
0000
0010
0000
0000
0000
2000
0000
0000
0000
0000
0000
3001
0000
0010
0000
0000
0000
0100
0000
0000
0000
0100
0000
1000
0000
0000
0000
0001
0000
0010
0000
0000
0000
0100
0000
0000
0000
2000
0000
0000
0000
0000
3200
0000
0300
2000
0000
3000
0020
0000
0030
0200
0000
0000
0300
,
0001
0000
0000
1000
0100
0001
0000
0100
0000
1000
0000
0010
0000
0002
0000
0000
,
0003
0000
0000
0010
1000
0001
0000
0010
0000
1000
0000
0010
0000
0200
0000
0000
,
1300
0010
1000
0010
1000
0000
0101
0000
,
0001
0010
0001
0010
0001
0000
1100
0000
,
1001
0000
0001
0100
1000
0100
0010
2000
,
0000
3000
1000
1000
1000
0000
1000
0000
,
0001
0010
0001
1000
,
0010
0000
0000
0000
0100
0000
0002
0000
0023
0000
0230
0000
0310
0000
0010
0001
,
1000
0001
0100
0001
1000
0100
0010
0100
,
1100
0101
0011
1010
,
1001
0000
1000
0001
0000
0010
0100
0000
,
0011
0000
0001
0100
0000
0010
1000
0000
,
1100
0000
0010
0100
0000
1000
0010
0000
,
1001
0110
0002
2003
,
3100
0010
0001
1000
0010
1000
0001
0010
,
0100
0010
0001
1000
0010
1000
0100
0000
,
0010
0100
1000
0001
0100
0001
1000
0100
,
0010
0000
0100
0000
1000
0000
0001
0000
0100
0000
0000
0001
0000
0000
1000
0000
,
0100
0010
0001
0010
0001
0100
0010
1000
,
0010
0000
1000
0000
0001
0000
0010
0000
0100
0000
1000
0001
1000
0000
0001
0000
,
0011
0000
0000
0000
1010
0000
0000
0000
0101
0000
0000
0000
1100
0000
2000
0000
3200
0000
0302
0000
0003
0200
0000
2300
0000
3020
0000
0030
0100
0000
0000
0000
,
0020
0000
0000
0000
,
0000
0000
0030
0000
;

//---------------dance-single - NewbStepper-BSP----------------
#NOTES:
     dance-single:
     NewbStepper:
     Easy:
     5:
     0.235751,0.284669,0.047150,0.149309,0,210,204,6,19,0,0,0.235751,0.284669,0.047150,0.149309,0,210,204,6,19,0,0:
0000
0000
0000
0000
,
0000
0000
0000
0000
,
0000
0000
0000
0000
,
0000
0000
0000
0000
,
1000
1000
1000
0000
,
0001
0001
0001
0000
,
0100
0100
0100
0000
,
0010
0010
0010
0000
,
1001
0000
1000
0000
,
0001
0200
0300
0000
,
1001
0000
0001
0000
,
0010
0000
0100
0000
,
1000
0000
0010
0000
,
0100
0000
0001
0000
,
0010
0000
1000
0020
,
0030
0000
0001
0000
,
1000
1000
0001
0000
,
0001
0001
0100
0000
,
0100
0100
1000
0000
,
1000
1000
0010
0000
,
0010
0001
0010
0001
,
1000
0000
1001
0000
,
0020
0000
0030
0200
,
0000
0300
0000
0000
,
1000
0001
0100
0001
,
1000
0100
1000
0000
,
0001
1000
0100
1000
,
0001
0100
0001
0000
,
1000
0100
0001
0010
,
2000
0000
3001
0000
,
0001
0100
1000
0100
,
0002
0000
0003
0000
,
2002
0000
0000
0000
,
0000
0000
3003
0000
,
2000
0000
0000
3001
,
0001
0001
0001
0001
,
1000
1000
1000
1000
,
1000
1000
1000
1000
,
0001
0100
0001
0100
,
0020
0000
0030
0000
,
1000
0100
1000
0100
,
0100
0001
0100
0010
,
0001
0100
0001
0100
,
0100
1000
0100
0010
,
1000
0001
1000
0000
,
0001
1000
0001
0000
,
0100
0100
0010
0010
,
0220
0000
0000
0330
,
0001
0100
0001
0000
,
0100
0010
0100
0000
,
0100
1000
0100
0000
,
0100
0010
0100
0000
,
0100
0001
0100
0010
,
1000
0100
0010
0001
,
2000
0000
0000
0000
,
3000
0000
0000
0000
,
2002
0000
0000
0000
,
0000
0000
0000
3003
,
0010
0000
1000
0000
,
0100
0000
0010
0000
,
0001
0001
0100
0000
,
0100
0100
0010
0000
,
0010
0010
1000
0000
,
1000
0001
1000
0001
,
0200
0000
0000
0000
,
0000
0000
0000
0300
,
0001
0100
0001
0100
,
1000
0100
0001
0000
,
1000
0010
1000
0010
,
0100
0001
0010
0000
,
0001
0100
0010
1000
,
0100
0010
0001
0000
,
1000
0010
1000
0010
,
0100
0001
0100
0000
,
0001
0010
0001
0010
,
0100
1000
0100
0000
,
1000
0100
0001
0010
,
2000
0000
3001
0000
,
1000
0000
0020
0030
,
0200
0000
0000
0000
,
0000
0000
0300
0000
;

//---------------dance-single - NewbStepper-bSP----------------
#NOTES:
     dance-single:
     NewbStepper:
     Beginner:
     1:
     0.070725,0.094890,0.007858,0.039292,0,63,62,1,5,0,0,0.070725,0.094890,0.007858,0.039292,0,63,62,1,5,0,0:
0000
0000
0000
0000
,
0000
0000
0000
0000
,
0000
0000
0000
0000
,
0000
0000
0000
0000
,
1000
0000
0000
0000
,
0001
0000
0000
0000
,
1000
0000
0000
0000
,
0010
0000
0000
0000
,
1000
0000
0000
0000
,
0000
0000
0000
0000
,
0001
0000
0000
0000
,
0000
0000
0000
0000
,
1000
0000
0000
0000
,
0000
0000
0000
0000
,
0001
0000
0000
0000
,
0000
0000
0000
0000
,
0100
0000
0000
0000
,
0100
0000
0000
0000
,
0010
0000
0000
0000
,
0010
0000
0000
0000
,
1000
0000
0000
0000
,
1000
0000
0000
0000
,
0001
0000
0000
0000
,
0000
0000
0000
0000
,
1000
0000
0000
0000
,
1000
0000
0000
0000
,
1000
0000
0000
0000
,
1000
0000
0000
0000
,
0001
0000
0000
0000
,
0001
0000
0000
0000
,
0001
0000
0000
0000
,
0000
0000
0000
0000
,
2002
0000
0000
0000
,
0000
0000
3003
0000
,
0000
0000
0000
0000
,
0000
0000
0000
0000
,
0010
0000
0000
0000
,
0010
0000
0000
0000
,
0010
0000
0000
0000
,
0000
0000
0000
0000
,
0100
0000
0000
0000
,
0100
0000
0000
0000
,
1000
0000
0000
0000
,
1000
0000
0000
0000
,
0001
0000
0000
0000
,
0001
0000
0000
0000
,
0100
0000
0000
0000
,
0100
0000
0000
0000
,
0010
0000
0000
0000
,
1000
0000
0000
0000
,
0010
0000
0000
0000
,
0100
0000
0000
0000
,
0001
0000
0000
0000
,
0100
0000
0000
0000
,
0020
0000
0000
0000
,
0030
0000
0000
0000
,
0000
0000
0000
0000
,
0000
0000
0000
0000
,
1000
0000
0000
0000
,
0001
0000
0000
0000
,
1000
0000
0000
0000
,
1000
0000
0000
0000
,
0001
0000
0000
0000
,
0001
0000
0000
0000
,
0200
0000
0000
0000
,
0300
0000
0000
0000
,
0001
0000
0000
0000
,
1000
0000
0000
0000
,
0001
0000
0000
0000
,
0100
0000
0000
0000
,
0010
0000
0000
0000
,
1000
0000
0000
0000
,
0001
0000
0000
0000
,
0001
0000
0000
0000
,
0001
0000
0000
0000
,
0001
0000
0000
0000
,
1000
0000
0000
0000
,
1000
0000
0000
0000
,
1000
0000
0000
0000
,
0200
0000
0000
0000
,
0000
0000
0300
0000
;

//---------------dance-single - NewbStepper-DSP----------------
#NOTES:
     dance-single:
     NewbStepper:
     Medium:
     8:
     0.351381,0.537708,0.149309,0.298618,0,313,294,19,38,0,0,0.351381,0.537708,0.149309,0.298618,0,313,294,19,38,0,0:
0000
0000
0000
0000
,
0000
0000
0000
0000
,
0000
0000
0000
0000
,
0000
0000
0000
0000
,
1000
0100
1000
0100
,
0001
0100
0001
0100
,
0001
0010
0001
0010
,
1000
0010
1000
0000
,
1001
0000
0001
0000
0100
0000
0010
1000
,
0000
0100
0020
0000
0030
0000
0001
0001
,
0001
0000
0100
0000
0010
1000
0000
0001
,
0000
0010
0000
0100
0000
0000
1000
0020
,
0000
0030
1000
0000
0100
0000
0010
0001
,
0000
0100
0000
0010
0000
2000
0000
3000
,
0001
0000
0100
0010
0000
0100
0002
0000
,
0003
0000
0000
1000
0000
0000
0000
0000
,
0001
0001
0100
0100
,
0010
0010
1000
1000
,
0100
0010
0100
0010
,
0001
1000
0001
0000
,
1000
0100
1000
0100
,
0010
0001
0010
0001
,
0200
0000
0000
0300
,
0000
0000
0000
0000
,
0001
0000
0100
0000
0010
0000
1000
0100
,
0000
0001
0000
0200
0000
0300
0000
0000
,
1000
0000
0100
0000
0010
0000
0001
0100
,
0000
1000
0000
0200
0000
0300
0000
0000
,
0001
0000
0100
0000
0010
1000
0000
2002
,
0000
0000
3003
0000
,
1000
0100
0010
0001
,
0200
0000
0300
0010
,
2002
0000
0000
0000
,
0000
0000
3003
0000
,
0002
0000
0000
1000
,
1000
1000
1000
1003
,
0010
0010
0010
0010
,
1000
1000
1000
1000
,
0100
0010
0100
0010
0100
0010
0100
0010
,
0200
0000
0000
0310
,
0002
0000
0103
0002
0000
2003
0000
3010
,
0000
1000
0100
0010
0001
0000
1001
0000
,
2000
0000
3100
2000
0000
3002
0000
0013
,
0000
0001
0100
0010
1000
0000
1001
0000
,
0001
0100
0100
0001
0010
0000
0100
1000
,
0000
1000
0010
0100
0001
0000
1001
0000
,
0010
0000
0010
0000
0010
0000
0001
0100
,
0020
1000
0100
0001
,
0130
0000
0001
0000
0010
0001
0100
0100
,
0000
0100
0010
1000
0001
0000
1001
0000
,
0100
0000
1000
0000
0010
1000
0100
0100
,
0000
0100
0010
0001
1000
0000
1001
0000
,
0002
0203
0320
2030
,
3200
0320
0032
2003
,
3020
0000
0000
0000
,
0030
0000
0000
0000
,
1001
1000
0100
0010
,
0001
0100
0010
1000
,
0110
1001
0110
1001
,
0110
1001
0110
1001
,
0001
0000
0100
0001
0001
0000
0100
1000
,
1000
0000
0100
0010
0010
0000
0100
0001
,
0001
0010
1000
0100
,
0002
0000
1000
1000
1003
0000
1001
0000
,
0001
0001
0001
0001
,
0001
0001
0002
0003
,
1000
0000
0100
1000
0000
0010
0100
0001
,
0000
1000
0000
0001
0000
0010
0001
0000
,
1000
0000
0001
0010
0001
1000
0000
0100
,
0000
0001
0000
0100
0000
0100
0000
0000
,
0010
0000
0001
0100
0000
0010
0000
1000
,
0000
0001
0000
0020
0000
0030
0000
0000
,
0001
0100
0001
0010
,
1000
0100
0002
0003
,
1000
0100
1000
0010
,
0001
0100
1000
0010
,
0100
0001
0100
0000
0100
0010
0100
0000
,
0100
1000
0100
0000
0100
0010
1000
0100
,
0020
0100
0230
0300
,
2002
0000
0000
0000
,
0000
0000
3003
0000
;

//---------------dance-double - NewbStepper-EDP----------------
#NOTES:
     dance-double:
     NewbStepper:
     Hard:
     13:
     0.561311,1.043787,0.432210,0.526510,0.196459,500,445,55,67,0,0,0.561311,1.043787,0.432210,0.526510,0.196459,500,445,55,67,0,0:
00000000
00000000
00000000
00000000
,
00000000
00000000
00000000
00000000
,
00000000
00000000
00000000
00000000
,
00000000
00000000
00000000
00000000
,
00000001
00000000
00000001
00000010
00000100
00000000
00000100
00001000
,
00000001
00000000
00000001
00000010
00000100
00000000
00010000
00000000
,
00001000
00000000
00001000
00000100
00000010
00000000
00010000
00000000
,
00001000
00100000
01000000
00100000
02000000
00000000
00000000
00000000
,
13000000
00100000
10000000
01000000
,
00010000
00000000
00002000
00003200
00000320
00000000
00000130
00000100
,
00000001
00001000
00000100
00001000
,
00001010
00010010
00011000
00001100
,
00000101
00000001
00001000
00000010
,
00000100
00001000
00010000
01000000
,
10000000
00000000
00100000
00000000
10000000
00000000
00020000
02030000
,
03200000
00000000
00300000
10000000
00000000
00000000
00000000
00000000
,
10010000
10000000
00100000
10000000
01000000
00010000
00001000
00000100
,
00000001
00001000
00000001
00000010
00000001
00000100
00000010
00000000
,
00001000
00000001
00000010
00000001
00000100
00001000
00010000
01000000
,
10000000
00010000
10000000
00100000
10000000
01000000
00100000
00000000
,
00001000
01000000
00100000
00010000
00001000
00100000
00010000
00100000
,
00001000
00010000
00000010
00001000
00000100
00000001
00000100
00001000
,
00000010
00000000
00000100
00001000
00000000
00010000
02000000
03200000
,
00320000
00000000
00030000
00200000
00000000
00302000
00000000
00020000
00000000
00000000
00033000
00000000
00000000
00000000
00000000
00000000
,
00101000
00000000
00011000
00000000
00010010
00000000
00001000
00010000
,
00011000
00001100
00000102
00001003
,
00010010
00000000
00011000
00000000
00101000
00000000
00010000
00001000
,
00011000
01010000
21000000
30100000
,
10100000
00110000
00011000
00001010
,
00000012
00000000
00000000
00000000
00001000
00000000
00000000
00000000
00000103
00000000
00000000
00000100
00000010
00000000
00001000
00000000
,
00001001
00000000
00000101
00000000
00001100
00000000
00011000
00020000
,
02030000
00000000
23000000
00000000
30000000
00200000
00000000
02300000
00000000
03020000
00000000
00030000
01000000
00000000
00000000
00000000
,
02002000
00000000
00000000
00000000
,
00000000
00000000
03003000
00000000
,
00010020
00000000
00010000
00010000
,
00010000
00010000
00010000
00010030
,
00002000
00000000
01000000
00000000
01000000
00000000
01003000
00010000
,
00100000
00000000
00100000
00000000
00100000
00000000
00100000
00001000
,
00010000
00000100
00001000
00000001
00000100
00001000
00010000
02000000
,
23000000
00000000
30200000
00000000
00300000
02000000
00000000
03002000
00000000
00023000
00000000
00000000
00030010
00000000
00000000
00000000
,
00010010
00000010
00001000
00000100
00000000
00000001
00000100
00001000
,
00000000
00000010
00000100
00001000
00010000
00100000
01000000
00000000
,
00001000
00100000
00010000
01000000
00000000
10000000
01000000
00010000
,
00000000
00100000
01000000
00010000
00001000
00000010
00000100
00000000
,
00010000
00001000
00000010
00000100
00001000
00000010
00010000
00001000
,
00000100
00000001
00000010
00001000
00010000
00100000
10000000
01000000
,
01100000
00000000
10010000
00000000
01001000
00000000
00001000
00001000
,
00011000
00010010
00000110
00001001
,
00000001
00000100
00001000
00010000
01000000
10000000
00100000
01000000
,
00001000
00100000
00010000
01000000
00100000
00010000
00001000
01000000
,
00100000
10000000
01000000
00010000
00001000
00000100
00000001
00000010
,
00000100
00010000
00000010
00001000
00000100
00000010
00001000
00000010
,
00000002
00000203
00000320
00002030
,
00023000
02030000
03200000
20300000
,
30010000
10000000
01000000
00100000
00010000
00001000
00000100
00000010
,
00000002
00000000
00000000
00002000
00000000
00000000
00000000
00003003
,
00000000
00000000
00000000
00000000
00000000
00000000
00000000
00000000
00000001
00000000
00000000
00000000
00001000
00000000
00000100
00000000
00000000
00000000
00000010
00000000
00000000
00000000
00000001
00000000
00000000
00000000
00000010
00000000
00000000
00000000
00001000
00000000
00010000
00000000
00000000
00000000
00000100
00000000
00001000
00000000
00000000
00000000
00000010
00000000
00000000
00000000
00020000
00000000
00000000
00000000
00030000
00002000
00000000
00000000
00023000
00000000
00000000
00230000
00000000
00000000
20300000
00000000
30000000
00000000
,
00000000
00000000
00000000
00000000
00000000
00000000
00000000
00000000
10000000
00000000
01000000
00000000
00000000
00000000
00020000
00000000
00000000
00000000
00030000
00000000
00001000
00000000
00100000
00000000
00000000
00000000
01000000
00000000
00000000
00000000
01000000
00000000
00010000
00000000
00000000
00000000
00001000
00000000
00000100
00000000
00000000
00000000
00000001
00000000
00000000
00000000
00000020
00000000
00000000
00000000
00000000
00000230
00000000
00000000
00002300
00000000
00000000
00003020
00000000
00000000
00000230
00000000
00000300
00000000
,
00000001
00000000
00000000
00001000
00000100
00000001
00000000
00000100
00000000
00010000
00000000
00001000
00000000
00200000
00000000
00300000
,
00000000
00000000
00000000
00010000
01000000
10000000
00000000
01000000
00000000
00001000
00000000
00010000
00000020
00000000
00000000
00000000
,
00001030
00000001
00001000
00000001
00000010
00000000
00000100
00010000
,
00000100
00000010
00000100
00010000
00001000
00000000
00010000
00100000
,
10000000
00000000
01000000
00010000
00001000
00100000
01000000
20000000
,
00000000
00000000
00010000
00010000
30010000
00000000
10010000
00000000
,
10000000
00100000
10000000
01000000
,
00010000
00000000
00001000
00000200
00000302
00000023
00000031
00000001
,
00001000
00000001
00000100
00000010
00000001
00001000
00000100
00000010
,
00010000
00001000
00000100
00010000
00001000
00000010
00000100
00001000
,
00010000
01000000
10000000
00100000
01000000
10000000
00010000
00100000
,
01000000
00001000
00010000
00100000
00001000
00010000
01000000
00100000
,
00010000
00001000
00000010
00000001
00000100
00000001
00000010
00001000
,
00010000
00000010
00001000
00010000
01000000
00100000
00010000
00001000
,
01001000
00000000
00011000
00000000
00010100
00000000
00001000
00010000
,
00011000
00001010
00000012
00001003
,
00010100
00000000
00011000
00000000
01001000
00000000
00010000
00001000
,
00011000
00110000
20200000
30300000
,
11000000
01010000
00011000
00001100
,
00000102
00000000
00000000
00000000
00001000
00000000
00000000
00000000
00000013
00000000
00000000
00000010
00000100
00000000
00001000
00000000
,
00000002
00002003
00023000
10030000
,
02000000
00000000
00000000
00000000
,
00000000
00000000
03000000
00000000
;

//---------------dance-double - NewbStepper-DDP----------------
#NOTES:
     dance-double:
     NewbStepper:
     Medium:
     9:
     0.344645,0.474449,0.117875,0.306476,0,307,292,15,39,0,0,0.344645,0.474449,0.117875,0.306476,0,307,292,15,39,0,0:
00000000
00000000
00000000
00000000
,
00000000
00000000
00000000
00000000
,
00000000
00000000
00000000
00000000
,
00000000
00000000
00000000
00000000
,
10000000
01000000
10000000
01000000
,
00010000
01000000
00010000
01000000
,
00010000
00001000
00010000
00001000
,
00000010
00000001
00000010
00000000
,
00001001
00000000
00000001
00000000
00000100
00000000
00000010
00001000
,
00000000
00000100
00000020
00000000
00000030
00000000
00001000
00001000
,
00001000
00000000
00010000
00000000
00100000
10000000
00000000
00010000
,
00000000
00100000
00000000
01000000
00000000
00000000
10000000
00200000
,
00000000
00300000
10000000
00000000
01000000
00000000
00100000
00010000
,
00000000
01000000
00000000
00001000
00000000
00020000
00000000
00030000
,
00000010
00000000
00001000
00000100
00000000
00000010
00000002
00000000
,
00000003
00000000
00000000
00001000
00000000
00000000
00000000
00000000
,
00000001
00000001
00000100
00000100
,
00000010
00000010
00010000
00010000
,
00001000
01000000
00001000
01000000
,
00100000
10000000
00100000
00000000
,
10000000
01000000
10000000
01000000
,
00100000
00001000
00100000
00001000
,
00020000
00000000
00000000
00030000
,
00000000
00000000
00000000
00000000
,
00000010
00000000
00001000
00000000
00000100
00000000
00000010
00000001
,
00000000
00000100
00000000
00002000
00000000
00000000
00003000
00000000
,
00100000
00000000
00010000
00000000
01000000
00000000
00100000
10000000
,
00000000
01000000
00000000
00020000
00000000
00000000
00030000
00000000
,
00001000
00000000
00000100
00000000
00000001
00000010
00000000
00000220
,
00000000
00000000
00000330
00000000
,
00000001
00000100
00001000
00010000
,
02000000
00000000
03000000
00100000
,
20020000
00000000
00000000
00000000
,
00000000
00000000
30030000
00000000
,
20000000
00000000
00000000
00010000
,
00010000
00010000
00010000
30010000
,
00100000
00100000
00100000
00100000
,
00001000
00001000
00001000
00001000
,
00010000
00000010
00010000
00000010
00010000
00000010
00010000
00000010
,
00020000
00000000
00000000
00031000
,
00000200
00000000
00000301
00000200
00000000
00000320
00000000
00001030
,
00000000
00000001
00000100
00001000
00010000
00000000
00011000
00000000
,
02000000
00000000
13000000
02000000
00000000
03200000
00000000
00310000
,
00000000
10000000
01000000
00010000
00001000
00000000
00011000
00000000
,
00010000
00001000
00001000
00000010
00000100
00000000
00001000
00000100
,
00000000
00000010
00000001
00000100
00000010
00000000
00000110
00000000
,
00000001
00000100
00001000
00010000
,
02000000
10000000
00100000
03010000
,
00001000
00000000
00100000
00000000
00001000
01000000
00010000
00010000
,
00000000
00100000
01000000
00010000
00001000
00000000
00011000
00000000
,
00010000
00000000
00000010
00000000
00010000
00000100
00001000
00001000
,
00000000
00000010
00000100
00001000
00010000
00000000
00011000
00000000
,
00002000
00003200
00000302
00000023
,
00002030
00023000
00230000
20300000
,
30020000
00000000
00000000
00000000
,
00030000
00000000
00000000
00000000
,
10010000
10000000
01000000
00100000
,
00010000
00001000
00000100
00000010
,
00000001
00001001
00001000
00001100
,
00000100
00010100
00010000
00011000
,
00001000
00000000
00100000
00001000
00001000
00000000
00010000
00001000
,
00001000
00000000
01000000
00001000
00001000
00000000
00010000
00001000
,
00001000
00000100
00000001
00000010
,
00002000
00000000
00010000
00010000
00013000
00000000
00011000
00000000
,
01000000
01000000
01000000
01000000
,
01000000
01000000
02000000
03000000
,
00001000
00000000
00100000
00010000
00000000
01000000
00100000
00010000
,
00000000
00001000
00000000
00000010
00000000
00000001
00001000
00000000
,
00000001
00000000
00000100
00000010
00000100
00000001
00000000
00000010
,
00000000
00001000
00000000
00010000
00000000
00010000
00000000
00000000
,
00001000
00000000
01000000
00010000
00000000
00100000
00000000
01000000
,
00000000
10000000
00000000
00020000
00000000
00030000
00000000
00000000
,
10000000
01000000
10000000
00100000
,
00010000
00001000
00000020
00000030
,
00000001
00000100
00000001
00000010
,
00001000
00010000
00200000
00300000
,
10000000
01000000
10000000
00000000
10000000
00010000
10000000
00000000
,
10000000
00100000
10000000
00000000
00010000
01000000
00100000
00010000
,
00002000
00010000
00023000
00030000
,
00022000
00000000
00000000
00000000
,
00000000
00000000
00033000
00000000
;

//---------------dance-double - NewbStepper-BDP----------------
#NOTES:
     dance-double:
     NewbStepper:
     Easy:
     5:
     0.235751,0.284669,0.047150,0.149309,0,210,204,6,19,0,0,0.235751,0.284669,0.047150,0.149309,0,210,204,6,19,0,0:
// measure 0
00000000
00000000
00000000
00000000
,  // measure 1
00000000
00000000
00000000
00000000
,  // measure 2
00000000
00000000
00000000
00000000
,  // measure 3
00000000
00000000
00000000
00000000
,  // measure 4
10000000
10000000
10000000
00000000
,  // measure 5
00010000
00010000
00010000
00000000
,  // measure 6
01000000
01000000
01000000
00000000
,  // measure 7
00001000
00001000
00001000
00000000
,  // measure 8
00011000
00000000
00010000
00000000
,  // measure 9
00000010
00002000
00003000
00000000
,  // measure 10
00001001
00000000
00000001
00000000
,  // measure 11
00000010
00000000
00000100
00000000
,  // measure 12
00010000
00000000
00001000
00000000
,  // measure 13
00100000
00000000
00010000
00000000
,  // measure 14
10000000
00000000
00010000
00200000
,  // measure 15
00300000
00000000
00001000
00000000
,  // measure 16
01000000
01000000
00010000
00000000
,  // measure 17
00010000
00010000
00100000
00000000
,  // measure 18
00100000
00100000
00001000
00000000
,  // measure 19
00001000
00001000
00010000
00000000
,  // measure 20
00010000
00000010
00010000
00000010
,  // measure 21
00001000
00000000
00001001
00000000
,  // measure 22
00002000
00000000
00003000
00000200
,  // measure 23
00000000
00000300
00000000
00000000
,  // measure 24
00010000
00000010
00001000
00000010
,  // measure 25
00010000
00001000
00010000
00000000
,  // measure 26
00001000
00100000
00010000
00100000
,  // measure 27
00001000
00010000
00001000
00000000
,  // measure 28
00010000
01000000
10000000
00100000
,  // measure 29
00020000
00000000
00031000
00000000
,  // measure 30
00001000
00000100
00000001
00000100
,  // measure 31
00002000
00000000
00003000
00000000
,  // measure 32
00022000
00000000
00000000
00000000
,  // measure 33
00000000
00000000
00033000
00000000
,  // measure 34
00200000
00000000
00000000
00301000
,  // measure 35
00001000
00001000
00001000
00001000
,  // measure 36
00010000
00010000
00010000
00010000
,  // measure 37
00010000
00010000
00010000
00010000
,  // measure 38
00000010
00001000
00000010
00001000
,  // measure 39
00000200
00000000
00000300
00000000
,  // measure 40
00000010
00000001
00000010
00000001
,  // measure 41
00000100
00000100
00001000
00010000
,  // measure 42
00100000
10000000
00100000
10000000
,  // measure 43
01000000
01000000
00010000
00001000
,  // measure 44
00000010
00000001
00001000
00000000
,  // measure 45
00000001
00000010
00000001
00000000
,  // measure 46
00000100
00000100
00001000
00010000
,  // measure 47
00022000
00000000
00000000
00033000
,  // measure 48
00001000
00100000
00001000
00000000
,  // measure 49
00001000
00010000
00001000
00000000
,  // measure 50
00001000
00000010
00001000
00000000
,  // measure 51
00001000
00010000
00001000
00000000
,  // measure 52
00010000
00001000
00100000
00010000
,  // measure 53
01000000
00100000
10000000
01000000
,  // measure 54
00020000
00000000
00000000
00000000
,  // measure 55
00030000
00000000
00000000
00000000
,  // measure 56
00022000
00000000
00000000
00000000
,  // measure 57
00000000
00000000
00000000
00033000
,  // measure 58
00000010
00000000
00001000
00000000
,  // measure 59
00000100
00000000
00010000
00000000
,  // measure 60
00001000
00001000
01000000
00000000
,  // measure 61
01000000
01000000
00100000
00000000
,  // measure 62
00100000
00100000
10000000
00000000
,  // measure 63
10000000
00010000
10000000
00010000
,  // measure 64
02000000
00000000
00000000
00000000
,  // measure 65
00000000
00000000
00000000
03000000
,  // measure 66
00001000
00010000
00001000
00010000
,  // measure 67
00000010
00001000
00000010
00000000
,  // measure 68
00010000
00001000
00010000
00001000
,  // measure 69
00100000
00010000
00100000
00000000
,  // measure 70
00010000
01000000
00100000
10000000
,  // measure 71
01000000
00100000
00010000
00000000
,  // measure 72
00100000
00001000
00100000
00001000
,  // measure 73
00010000
00000010
00010000
00000000
,  // measure 74
00000100
00001000
00000100
00001000
,  // measure 75
00000001
00000100
00000001
00000000
,  // measure 76
00000100
00001000
00010000
01000000
,  // measure 77
20000000
00000000
30010000
00000000
,  // measure 78
00100000
00000000
00002000
00003000
,  // measure 79
00020000
00000000
00000000
00000000
,  // measure 80
00000000
00000000
00030000
00000000
;
