#VERSION:0.83;
#TITLE:Gayatri;
#ARTIST:leeium;
#BANNER:Gayatri.png;
#BACKGROUND:Gayatri-bg.png;
#JACKET:Gayatri-jacket.png;
#MUSIC:Gayatri.ogg;
#SAMPLESTART:78.544;
#SAMPLELENGTH:15;
#BPMS:0=110;

//---------------dance-single - RGTM-ESP----------------
#NOTEDATA:;
#CHARTNAME:RGTM-ESP;
#STEPSTYPE:dance-single;
#DESCRIPTION:RGTM-ESP;
#DIFFICULTY:Hard;
#METER:12;
#RADARVALUES:0.391691,0.552459,0.122769,0.401044,0.225076,335,320,15,49,0,0,0,0,0,0.391691,0.552459,0.122769,0.401044,0.225076,335,320,15,49,0,0,0,0,0;
#CREDIT:RGTM;
#NOTES:
0000
0000
0000
0000
,
0000
0000
0000
0000
,
0000
0000
0000
0000
,
0000
0000
0000
0000
,
0002
1000
0010
1000
,
0100
1000
0023
0001
,
0230
0010
0001
0010
,
2300
0010
0001
3010
,
1001
0000
0000
1000
0000
0001
1000
0000
0000
0001
0000
0000
0100
0000
0000
0010
0000
0000
1000
0000
0000
0001
0000
0000
,
0010
0000
0000
0100
0000
0010
0100
0000
0000
0010
0000
0000
0001
0000
0000
1000
0000
0000
0010
0000
0000
1000
0001
1000
,
0001
0000
0001
0010
0000
0010
0100
0000
0100
1000
0000
1000
0002
0000
0000
0203
0000
0000
0320
0000
0000
2030
0000
0000
,
3200
0001
0010
1300
,
0001
0000
0000
0000
1000
0001
0010
0001
,
0000
0000
0000
0010
0001
1000
0000
0000
,
0100
0000
0000
0100
1000
0001
0100
1000
,
0000
0000
0001
1000
0000
0100
0000
0000
,
0001
0000
0000
0001
1000
0001
0010
0001
,
0000
0000
0000
0010
0001
1000
0000
0100
,
0000
0000
1000
0001
0100
1000
0000
1000
,
0000
0100
0001
1000
0000
0100
0000
0010
,
0210
0000
0000
0000
0000
0000
0000
0000
0000
0000
0000
0000
1300
0000
0001
0000
0000
0001
0100
0000
0000
0120
0000
0000
,
0000
0000
0000
0000
0000
0000
1030
0000
0000
0010
0000
0010
0100
0001
0100
0002
0000
0000
0000
0000
0000
0000
0000
0000
,
2003
0000
0000
0000
0000
0000
3200
0000
0000
0000
0300
0000
0110
0000
0010
0001
0010
0100
1000
0000
1000
0002
0000
0000
,
0000
0000
0103
0210
0301
2000
0100
0000
,
3020
0000
0000
0000
0000
0000
0000
0000
0000
0000
0000
0000
1030
0000
0010
0000
0000
0200
0000
0000
0000
0302
0000
0000
,
0000
0000
0000
0000
0000
0000
0013
0000
0010
0100
0000
0000
1100
0000
0000
0101
0000
0000
2000
0000
0000
3000
0000
0000
,
0002
0000
0000
0000
0000
0000
0003
0000
0000
0000
0000
0000
0200
0000
0000
0000
0000
0000
0000
0000
0000
0300
0000
0000
0110
0000
0000
0000
0010
0000
0000
0000
0010
0000
0000
0000
1000
0000
0000
0000
1000
0000
0002
0000
0000
0000
0000
0000
,
0000
0100
0010
1000
0000
0100
0000
0000
,
2003
0001
0000
0001
,
0000
0001
3020
1000
,
0230
0010
0000
0010
,
0302
0100
0000
1000
,
0013
0000
0000
0001
0000
0010
0100
0000
0000
1000
0000
0000
0001
0000
0000
1000
0000
0000
0010
0000
0000
0100
0000
0000
,
0001
0000
0000
0010
0000
0100
0010
0000
0000
0001
0000
0000
0100
0000
0000
0010
0000
0000
1000
0000
0000
0001
1000
0001
,
1000
0000
1000
0010
0000
0010
0100
0000
0100
0001
0000
0001
2000
0000
0000
3200
0000
0000
0320
0000
0000
0032
0000
0000
,
0203
0000
0000
0300
,
0120
0030
0000
0000
2000
3001
0020
0031
,
0200
0300
0000
0010
2000
3100
0110
0000
,
1001
1000
0100
0010
1000
0010
0001
1000
,
0001
0000
0000
0100
0000
0000
1000
0000
0000
0100
0000
0001
0010
0000
0000
0100
0000
1000
0001
0000
0000
0100
0000
0000
,
0110
0010
1000
0001
0010
0100
0001
0100
,
1000
0001
0100
0010
0001
0010
1000
0001
,
1000
0100
0010
1000
0010
0001
1000
0010
,
0110
0000
0200
0302
2003
3200
0310
0000
,
0120
0000
0000
0000
0000
0000
0031
0000
0000
0000
0000
0000
1000
0000
0001
0010
0000
0000
0100
0000
1000
0010
0000
0000
,
1000
0000
1000
0001
0000
0001
0100
0000
0000
0010
0000
0000
0001
0000
0010
0100
0000
0000
0001
0000
0000
1000
0000
0000
,
0100
0000
0000
0010
0000
0010
0001
0000
0000
1000
0000
0000
0001
0000
1000
0100
0000
0000
0010
0000
0001
1000
0000
0000
,
0001
0000
0001
0100
0000
0100
0010
0000
0000
1000
0000
1000
0010
0000
0000
0010
0000
0010
0100
0000
0000
0001
0000
0000
,
1001
0000
0000
0000
0000
1000
0001
0000
0000
1000
0000
0000
0010
0000
0100
0000
0000
0000
0010
0000
0000
1000
0000
0000
,
0001
0000
0000
0000
0000
0001
1000
0000
0000
0001
0000
0000
0010
0000
0100
0000
0000
0000
0010
0000
0000
0001
1000
0001
,
1000
0000
1000
0100
0000
0100
0010
0000
0010
0001
0000
0001
2000
0000
0000
3020
0000
0000
0032
0000
0000
0203
0000
0000
,
0320
1000
0100
0031
,
2000
0000
0000
0000
,
0000
0000
0000
0000
,
3000
0000
0000
0000
;

//---------------dance-single - RGTM-DSP----------------
#NOTEDATA:;
#CHARTNAME:RGTM-DSP;
#STEPSTYPE:dance-single;
#DESCRIPTION:RGTM-DSP;
#DIFFICULTY:Medium;
#METER:8;
#RADARVALUES:0.266583,0.375672,0.163692,0.261907,0,228,208,20,32,0,0,0,0,0,0.266583,0.375672,0.163692,0.261907,0,228,208,20,32,0,0,0,0,0;
#CREDIT:RGTM;
#NOTES:
0000
0000
0000
0000
,
0000
0000
0000
0000
,
0000
0000
0000
0000
,
0000
0000
0000
0000
,
1000
0001
1000
0001
,
0100
0010
0100
0010
,
0001
1000
0001
1000
,
0010
0100
0010
0110
,
1001
1000
0100
0010
,
0001
0000
0001
0000
0100
0000
0010
1000
,
0001
0001
0010
0010
0100
0100
1000
1000
,
0002
0100
1000
0010
,
2003
0000
0000
0000
,
3000
0000
0002
0003
,
0200
0000
0000
0300
,
0020
0000
0000
0030
,
2000
0000
0000
0000
,
3000
0000
0200
0300
,
0020
0000
0000
0030
,
0002
0003
2000
3010
,
0210
0000
0000
0000
0301
1000
0100
0120
,
0000
0000
0031
1000
0010
2010
0000
0000
,
3100
0000
0120
0000
0031
0010
0100
2100
,
0000
3001
0100
0120
1000
0130
0001
0000
,
1002
0000
0000
0000
0013
0100
1000
1020
,
0000
0000
0130
0001
2001
0100
3020
0030
,
0200
0300
0120
0000
1030
0000
0001
2001
,
0000
0000
0000
0000
,
3001
0010
0000
0010
,
1000
0010
0000
0010
,
0001
0100
0000
0100
,
1000
0100
0000
0100
,
1001
0001
0010
0100
,
1000
0001
1000
0010
,
1000
1000
0100
0100
0010
0010
0001
0001
,
2000
0000
0000
0000
,
3010
0000
0000
0000
1000
0001
0010
0001
,
0000
0000
0000
0010
0001
0100
0110
0000
,
1001
0000
0001
1000
0010
1000
0100
0010
,
0001
0000
0010
0100
2000
3000
0002
0003
,
0110
0000
1000
0001
0100
0001
0010
0001
,
1000
0000
0001
0010
0100
1000
0001
0100
,
0010
0000
1000
0010
0001
0010
1000
0001
,
1000
0000
0002
0023
0230
2300
3001
0000
,
0110
0000
1001
0000
1000
0001
0010
0001
,
0100
0000
0010
0001
0010
1000
0001
0000
,
0010
0000
0100
0010
1000
0010
0001
1000
,
0001
0000
0100
0010
1000
0001
0010
0000
,
0110
0000
0100
0010
0100
0001
0100
1000
,
0001
0000
0100
0010
0001
0010
1000
0000
,
0001
0001
0010
0010
1000
1000
0100
0100
,
0002
0000
0000
0003
,
2000
0000
0000
0000
,
0000
0000
0000
0000
,
3000
0000
0000
0000
;

//---------------dance-single - RGTM-BSP----------------
#NOTEDATA:;
#CHARTNAME:RGTM-BSP;
#STEPSTYPE:dance-single;
#DESCRIPTION:RGTM-BSP;
#DIFFICULTY:Easy;
#METER:5;
#RADARVALUES:0.154338,0.234079,0.065477,0.032738,0,132,124,8,4,0,0,0,0,0,0.154338,0.234079,0.065477,0.032738,0,132,124,8,4,0,0,0,0,0;
#CREDIT:RGTM;
#NOTES:
0000
0000
0000
0000
,
0000
0000
0000
0000
,
0000
0000
0000
0000
,
0000
0000
0000
0000
,
1000
1000
0100
0000
,
1000
0001
0010
0000
,
0001
0001
0100
0000
,
0001
1000
0010
0100
,
1001
1000
0000
1000
,
1001
0001
0000
0001
,
0100
0100
0010
0010
,
0200
0000
0000
0000
,
0310
0000
0000
0000
,
0000
0000
1000
0000
,
0100
0000
0000
0000
,
1000
0000
0000
0000
,
0001
0000
0000
0000
,
0000
0000
0010
0000
,
0001
0000
0000
0000
,
0100
0000
0000
0000
,
0110
0000
0000
0000
1000
0000
0000
0001
,
0000
0100
0100
0000
,
0000
0000
0010
0000
0010
0000
0000
1000
,
0000
0000
0000
0100
0000
0000
0000
0000
,
0110
0000
0000
0000
0001
0000
0000
1000
,
0000
0010
0010
0000
,
0000
0000
0100
0000
0100
0000
0000
0002
,
0000
0000
0003
0000
,
0000
1000
0000
1000
,
0000
0001
0000
0001
,
0000
1000
0000
1000
,
0000
0001
0000
0001
,
0100
0100
0010
0000
,
0010
0010
0100
0000
,
0001
1000
0001
1000
,
0200
0000
0000
0300
,
0100
0000
0010
0001
,
1000
0000
0010
0110
,
1001
1000
0100
0100
,
0010
0001
1000
1000
,
0001
1000
0001
0001
,
0100
0010
0100
0100
,
0001
0001
0010
0100
,
1000
0000
0010
0010
,
0000
1001
1000
0001
,
0100
0100
0010
0010
,
1000
0001
1000
0001
,
0010
0100
0010
0010
,
1001
1000
0100
0000
,
0010
0001
0100
0000
,
0001
0001
1000
1000
,
0020
0000
0000
0030
,
0100
0000
0000
0000
;

//---------------dance-single - RGTM-bSP----------------
#NOTEDATA:;
#CHARTNAME:RGTM-bSP;
#STEPSTYPE:dance-single;
#DESCRIPTION:RGTM-bSP;
#DIFFICULTY:Beginner;
#METER:1;
#RADARVALUES:0.065477,0.106400,0.016369,0.024554,0,56,54,2,3,0,0,0,0,0,0.065477,0.106400,0.016369,0.024554,0,56,54,2,3,0,0,0,0,0;
#CREDIT:RGTM;
#NOTES:
0000
0000
0000
0000
,
0000
0000
0000
0000
,
0000
0000
0000
0000
,
0000
0000
0000
0000
,
0000
1000
0000
0000
,
0000
1000
0000
0000
,
0000
0001
0000
0000
,
0000
0001
0000
0010
,
0010
0000
0000
0000
,
0001
0000
0000
0000
,
1000
0000
0001
0000
,
0200
0000
0300
0000
,
0100
0000
0000
0000
,
0000
0000
0000
0000
,
0000
0000
0000
0000
,
0000
0000
0000
0000
,
0000
0000
0000
0000
,
0000
0000
0000
0000
,
0000
0000
0000
0000
,
0000
0000
0000
0000
,
1000
0000
0000
0000
0000
0000
0000
1000
,
0000
0000
1000
0000
0000
1000
0000
0000
,
0000
0000
0001
0000
0000
0000
0000
0001
,
0000
0000
0000
0001
0000
0000
0000
0000
,
1000
0000
0000
0000
0000
0000
0000
1000
,
0000
0000
1000
0000
,
0000
0000
0001
0000
0000
0000
0000
0001
,
0000
0000
0000
0000
,
0000
1000
0000
0000
,
0000
1000
0000
0000
,
0000
0001
0000
0000
,
0000
0001
0000
0000
,
0010
0000
0000
0000
,
0100
0000
0000
0000
,
0010
0000
0100
0000
,
0020
0000
0030
0000
,
0001
0000
0000
0000
,
1000
0000
0000
0000
,
1001
0000
0000
0000
,
1000
0000
0001
0000
,
1000
0000
0000
0000
,
0010
0000
0100
0000
,
0010
0000
0000
0000
,
0100
0000
0000
0000
,
0000
1001
0000
0000
,
0001
0000
1000
0000
,
0001
0000
0000
0000
,
0010
0000
0100
0000
,
0010
0000
0000
0000
,
0100
0000
0000
0000
,
1000
0000
0001
0000
,
2000
0000
3000
0000
,
1000
0000
0000
0000
;

//---------------dance-double - RGTM-EDP----------------
#NOTEDATA:;
#CHARTNAME:RGTM-EDP;
#STEPSTYPE:dance-double;
#DESCRIPTION:RGTM-EDP;
#DIFFICULTY:Hard;
#METER:12;
#RADARVALUES:0.397537,0.574557,0.180061,0.392860,0.225076,340,318,22,48,0,0,0,0,0,0.397537,0.574557,0.180061,0.392860,0.225076,340,318,22,48,0,0,0,0,0;
#CREDIT:RGTM;
#NOTES:
// measure 0
00000000
00000000
00000000
00000000
,  // measure 1
00000000
00000000
00000000
00000000
,  // measure 2
00000000
00000000
00000000
00000000
,  // measure 3
00000000
00000000
00000000
00000000
,  // measure 4
00020000
10000000
00000000
10000000
,  // measure 5
00000000
10000000
00230000
00010000
,  // measure 6
00302000
00100000
00000000
00100000
,  // measure 7
00023000
00001000
00000000
00030010
,  // measure 8
00001001
00000000
00000000
00001000
00000000
00000001
00001000
00000000
00000000
00000001
00000000
00000000
00000100
00000000
00000000
00001000
00000000
00000000
00010000
00000000
00000000
01000000
00000000
00000000
,  // measure 9
10000000
00000000
00000000
00010000
00000000
10000000
00010000
00000000
00000000
10000000
00000000
00000000
01000000
00000000
00000000
00010000
00000000
00000000
00001000
00000000
00000000
00000100
00000010
00000100
,  // measure 10
00000010
00000000
00000010
00010000
00000000
00010000
00001000
00000000
00001000
00100000
00000000
00100000
02000000
00000000
00000000
23000000
00000000
00000000
30020000
00000000
00000000
02030000
00000000
00000000
,  // measure 11
03200000
00010000
01000000
10300000
,  // measure 12
00010000
00000000
00000000
00000000
10000000
00010000
00100000
00010000
,  // measure 13
00000000
00000000
00000000
00100000
00010000
01000000
00000000
00000000
,  // measure 14
00001000
00000000
00000000
00001000
00000100
00000010
00001000
00000100
,  // measure 15
00000000
00000000
00000010
00000100
00000000
00001000
00000000
00000000
,  // measure 16
01000000
00000000
00000000
01000000
10000000
01000000
00100000
01000000
,  // measure 17
00000000
00000000
00000000
00100000
01000000
00010000
00000000
00001000
,  // measure 18
00000000
00000000
00000100
00000001
00001000
00000100
00000000
00000100
,  // measure 19
00000000
00001000
00000001
00000100
00000000
00001000
00000000
00010000
,  // measure 20
00012000
00000000
00000000
00000000
00000000
00000000
00000000
00000000
00000000
00000000
00000000
00000000
00103000
00000000
00001000
00000000
00000000
00001000
01000000
00000000
00000000
01200000
00000000
00000000
,  // measure 21
00000000
00000000
00000000
00000000
00000000
00000000
10300000
00000000
00000000
00010000
00000000
00010000
00100000
00001000
00010000
00002000
00000000
00000000
00000000
00000000
00000000
00000000
00000000
00000000
,  // measure 22
00003200
00000000
00000000
00000000
00000300
00000000
00000120
00000000
00000000
00000000
00000000
00000000
00001030
00000000
00000010
00000100
00000000
00000001
00000010
00000000
00001000
00020000
00000000
00000000
,  // measure 23
00000000
00000000
00000000
00000000
00130000
00000000
01100000
00000000
10010000
00000000
10000000
00000000
02000000
00000000
00000000
03000000
,  // measure 24
01200000
00000000
00000000
00000000
00000000
00000000
00000000
00000000
00000000
00300000
00000000
00000000
00110000
00000000
00100000
00000000
00000000
01000000
00010000
00000000
00000000
00012000
00000000
00000000
,  // measure 25
00000000
00000000
00000000
00003000
00000000
00000000
00000110
00000000
00001000
00000001
00000000
00000000
00000101
00000000
00000000
00001100
00000000
00000000
00020000
00000000
00000000
00030000
00000000
00000000
,  // measure 26
00002000
00000000
00000000
00003000
00000000
00000000
00012000
00000000
00000000
00003000
00000000
00000000
00110000
00000000
00100000
00000000
00100000
00000000
01000000
00000000
10000000
00020000
00000000
00000000
,  // measure 27
00000000
01000000
00100000
10000000
00000000
01000000
00000000
00000000
,  // measure 28
20030000
01000000
00000000
01000000
,  // measure 29
00000000
01000000
30020000
10000000
,  // measure 30
00230000
00010000
00000000
00010000
,  // measure 31
00302000
00100000
00000000
00100000
,  // measure 32
00013000
00000000
00000000
00001000
00000000
00010000
00001000
00000000
00000000
00000100
00000000
00000000
00000010
00000000
00000000
00001000
00000000
00000000
00000100
00000000
00000000
00000010
00000000
00000000
,  // measure 33
00000001
00000000
00000000
00001000
00000000
00000001
00001000
00000000
00000000
00000010
00000000
00000000
00000100
00000000
00000000
00001000
00000000
00000000
00010000
00000000
00000000
01000000
00100000
01000000
,  // measure 34
00100000
00000000
00100000
00010000
00000000
00010000
10000000
00000000
10000000
00100000
00000000
00100000
02000000
00000000
00000000
03002000
00000000
00000000
00023000
00000000
00000000
00030200
00000000
00000000
,  // measure 35
00000320
00000000
00000000
00000030
,  // measure 36
00000210
00000300
00000000
00000000
00002000
00003001
00000020
00000031
,  // measure 37
00000200
00000300
00000000
00000010
00020000
00031000
00011000
00000000
,  // measure 38
01100000
00010000
10000000
00010000
00100000
00001000
00000100
00001000
,  // measure 39
00010000
00000000
00000000
00000100
00000000
00000000
00000010
00000000
00000000
00001000
00000000
00000010
00000001
00000000
00000000
00000100
00000000
00000010
00001000
00000000
00000000
00000100
00000000
00000000
,  // measure 40
00011000
00010000
00001000
00100000
10000000
00100000
00001000
00100000
,  // measure 41
01000000
10000000
00010000
01000000
10000000
01000000
00010000
00100000
,  // measure 42
00001000
00010000
00000100
00000010
00000100
00010000
00000010
00000001
,  // measure 43
00000110
00000000
00000002
00002003
00023000
20030000
30100000
00000000
,  // measure 44
02200000
00000000
00000000
03300000
00000000
00000000
10010000
00000000
00000000
00000000
00000000
00000000
10000000
00000000
01000000
00100000
00000000
00000000
00001000
00000000
00010000
00000100
00000000
00000000
,  // measure 45
00000010
00000000
00000010
00000001
00000000
00000001
00000100
00000000
00000000
00000010
00000000
00000000
00000100
00000000
00001000
00010000
00000000
00000000
00100000
00000000
00010000
00001000
00000000
00000000
,  // measure 46
00100000
00000000
00100000
01000000
00000000
01000000
10000000
00000000
00000000
00010000
00000000
00000000
10000000
00000000
00100000
01000000
00000000
00000000
00001000
00000000
00010000
00001000
00000000
00000000
,  // measure 47
00010000
00000000
00010000
00000100
00000000
00000100
00000010
00000000
00000000
00001000
00000000
00000010
00000001
00000000
00000000
00000100
00000000
00001000
00010000
00000000
00000000
00100000
00000000
00000000
,  // measure 48
01100000
00000000
00000000
00000000
00000000
10000000
00010000
00000000
00000000
10000000
00000000
00000000
01000000
00000000
00010000
00000000
00000000
00000000
00001000
00000000
00000000
00010000
00000000
00000000
,  // measure 49
00001000
00000000
00000000
00000100
00000000
00000001
00001000
00000000
00000000
00000001
00000000
00000000
00000000
00000000
00000000
00000010
00000000
00000000
00001000
00000000
00000000
00010000
00001000
00010000
,  // measure 50
00001000
00000000
00001000
00100000
00000000
00100000
01000000
00000000
01000000
00010000
00000000
00010000
00002000
00000000
00000000
00003200
00000000
00000000
00000302
00000000
00000000
00000023
00000000
00000000
,  // measure 51
00002030
00100000
10000000
01000000
,  // measure 52
00023000
00000000
00000000
00000000
,  // measure 53
00000000
00000000
00000000
00000000
,  // measure 54
00030000
00000000
00000000
00000000
;

//---------------dance-double - NewbStepper-DDP----------------
#NOTEDATA:;
#CHARTNAME:NewbStepper-DDP;
#STEPSTYPE:dance-double;
#DESCRIPTION:NewbStepper-DDP;
#DIFFICULTY:Medium;
#METER:8;
#RADARVALUES:0.252553,0.331475,0.147322,0.220984,0,216,198,18,27,0,0,0,0,0,0.252553,0.331475,0.147322,0.220984,0,216,198,18,27,0,0,0,0,0;
#CREDIT:NewbStepper;
#NOTES:
00000000
00000000
00000000
00000000
,
00000000
00000000
00000000
00000000
,
00000000
00000000
00000000
00000000
,
00000000
00000000
00000000
00000000
,
00010000
00001000
00010000
00001000
,
00000100
00000010
00000100
00000010
,
00001000
00010000
00001000
00010000
,
01000000
00100000
01000000
01100000
,
10010000
10000000
01000000
00100000
,
00001000
00000000
00001000
00000000
00010000
00000000
00000010
00001000
,
00000001
00000001
00000100
00000100
00000010
00000010
00001000
00001000
,
00020000
01000000
10000000
00100000
,
20030000
00000000
00000000
00000000
,
30000000
00000000
00020000
00030000
,
02000000
00000000
00000000
03000000
,
00002000
00000000
00000000
00003000
,
00000020
00000000
00000000
00000000
,
00000030
00000000
00000002
00000003
,
00002000
00000000
00000000
00003000
,
00000020
00000030
00020000
00031000
,
00012000
00000000
00000000
00000000
00013000
01000000
10000000
10020000
,
00000000
00000000
01030000
00001000
00010000
00012000
00000000
00000000
,
00003010
00000000
00000210
00000000
00001300
00000001
00000100
00000120
,
00000000
00000000
00010030
00001000
00000000
01001000
00000000
00000000
,
00021000
00000000
00000000
00130000
01000000
00100000
10000000
10200000
,
00000000
00000000
10300000
01000000
00010000
00001000
00000100
00000010
,
00000200
00000000
00000302
00000000
00001003
00000001
00000100
00002000
,
00000000
00000000
00000000
00000000
,
00013000
00100000
00000000
00100000
,
10000000
00100000
00000000
00100000
,
01000000
00010000
00000000
00010000
,
00001000
00000100
00000000
00000100
,
00001001
00000001
00000100
00000010
,
00010000
00001000
00100000
00010000
,
10000000
10000000
01000000
01000000
00100000
00100000
00010000
00010000
,
00002000
00000000
00000000
00000000
,
00003010
00000000
00000000
00000000
00001000
00000100
00000001
00000100
,
00000000
00000000
00000000
00010000
00001000
00100000
00110000
00000000
,
10010000
00000000
00000000
00010000
10000000
01000000
00010000
00001000
,
00000000
00000000
00000010
00000100
00000010
00000001
00001000
00000000
,
00001001
00000000
00000000
00001000
00000001
00000100
00001000
00010000
,
00000000
00000000
00000000
01000000
00100000
00010000
10000000
00010000
,
01000000
00000000
00001000
00010000
00001000
00000010
00000001
00001000
,
00000000
00000001
00002000
00003020
00020030
00032000
00103000
00000000
,
10010000
00000000
00000000
00000000
00010000
01000000
10000000
01000000
,
00000000
00000000
00000000
00001000
00010000
00000010
00001010
00000000
,
00001001
00000000
00000000
00001000
00000001
00000100
00001000
00010000
,
00000000
00000000
00100000
01000000
00100000
10000000
00010000
00000000
,
10010000
00000000
00000000
00010000
10000000
01000000
00010000
00001000
,
00000100
00000000
00000001
00000100
00000010
00000100
00001000
00000000
,
00010000
00010000
00100000
00100000
10000000
10000000
01000000
01000000
,
00020000
00000000
00000000
00030000
,
00002000
00000000
00000000
00000000
,
00000000
00000000
00000000
00000000
,
00003000
00000000
00000000
00000000
;

//---------------dance-double - NewbStepper-BDP----------------
#NOTEDATA:;
#CHARTNAME:NewbStepper-BDP;
#STEPSTYPE:dance-double;
#DESCRIPTION:NewbStepper-BDP;
#DIFFICULTY:Easy;
#METER:5;
#RADARVALUES:0.153169,0.212799,0.057292,0.032738,0,131,124,7,4,0,0,0,0,0,0.153169,0.212799,0.057292,0.032738,0,131,124,7,4,0,0,0,0,0;
#CREDIT:NewbStepper;
#NOTES:
00000000
00000000
00000000
00000000
,
00000000
00000000
00000000
00000000
,
00000000
00000000
00000000
00000000
,
00000000
00000000
00000000
00000000
,
10000000
10000000
01000000
00000000
,
00010000
00001000
00100000
00000000
,
00000100
00000100
00001000
00000000
,
00000010
00000001
00000100
00000010
,
00001001
00001000
00000000
00001000
,
00011000
00010000
00000000
00010000
,
01000000
01000000
00100000
00100000
,
02000000
00000000
00000000
00000000
,
03100000
00000000
00000000
00000000
,
00000000
00000000
10000000
00000000
,
01000000
00000000
00000000
00000000
,
00010000
00000000
00000000
00000000
,
00001000
00000000
00000000
00000000
,
00000000
00000000
00000010
00000000
,
00000001
00000000
00000000
00000000
,
00000100
00000000
00000000
00000000
,
00000110
00000000
00000000
00000000
00001000
00000000
00000000
00000001
,
00000000
00000100
00000100
00000000
,
00000000
00000000
00001000
00000000
00001000
00000000
00000000
00010000
,
00000000
00000000
00000000
01000000
00000000
00000000
00000000
00000000
,
01100000
00000000
00000000
00000000
00010000
00000000
00000000
10000000
,
00000000
00100000
00100000
00000000
,
00000000
00000000
00010000
00000000
00010000
00000000
00000000
00002000
,
00000000
00000000
00003000
00000000
,
00000000
00010000
00000000
00010000
,
00000000
00001000
00000000
00001000
,
00000000
00000100
00000000
00000100
,
00000000
00000010
00000000
00000010
,
00001000
00001000
00000001
00000000
,
00000001
00000001
00000100
00000000
,
00001000
00010000
00001000
00010000
,
02000000
00000000
00000000
03000000
,
01000000
00000000
00100000
00010000
,
10000000
00000000
00100000
00010000
,
00011000
00001000
00000100
00000100
,
00000010
00001000
00000001
00000001
,
00000100
00001000
00010000
00010000
,
00001000
00100000
00010000
00010000
,
10000000
10000000
00100000
01000000
,
00010000
00000000
00100000
00100000
,
00000000
00011000
00001000
00000010
,
00000010
00000100
00000100
00001000
,
00000001
00001000
00000010
00010000
,
00000010
00010000
00001000
00001000
,
00011000
00010000
01000000
00000000
,
00100000
00010000
10000000
00000000
,
01000000
01000000
00010000
00010000
,
00002000
00000000
00000000
00003000
,
00010000
00000000
00000000
00000000
;
