#VERSION:0.83;
#TITLE:Garuda;
#ARTIST:kors k;
#BANNER:Garuda.png;
#BACKGROUND:Garuda-bg.png;
#JACKET:Garuda-jacket.png;
#MUSIC:Garuda.ogg;
#OFFSET:1.44505;
#SAMPLESTART:48.057;
#SAMPLELENGTH:15;
#BPMS:0=159.995,64=79.997,66=159.995,94=79.997,96=159.995,110=79.997,111=159.995,187=79.997,189=159.995,217=79.997,219=159.995,251=79.997;
#TIMESIGNATURES:0=4=4,64=2=4,66=4=4,94=2=4,96=4=4,108=3=4,111=4=4,187=2=4,189=4=4,217=2=4,219=4=4;

//---------------dance-single - NewbStepper-ESP----------------
#NOTEDATA:;
#CHARTNAME:NewbStepper-ESP;
#STEPSTYPE:dance-single;
#DESCRIPTION:NewbStepper-ESP;
#DIFFICULTY:Hard;
#METER:15;
#RADARVALUES:0.846891,0.960643,0.852490,0.313559,0.911282,605,518,87,32,0,0,0,0,0,0.846891,0.960643,0.852490,0.313559,0.911282,605,518,87,32,0,0,0,0,0;
#CREDIT:NewbStepper;
#NOTES:
0000
0000
0000
0000
,
2100
0000
3001
0100
0002
0000
0000
0000
,
1003
0000
0100
0000
1000
0000
0001
0000
0100
0000
1000
0100
1000
0000
0100
0000
,
0002
0000
1003
0010
2000
0000
3000
0010
,
0100
0000
0001
1000
0001
0000
0010
0000
1000
0000
0010
0000
0001
0000
0100
0000
,
0102
0000
1003
0100
2000
0000
0000
0000
,
3001
0000
0100
0000
0001
0000
1000
0000
0100
0000
0001
0100
0001
0000
0100
0000
,
2000
0000
3001
0010
0002
0000
0003
1000
,
0010
0000
0001
0000
1000
0000
0100
0000
0001
0000
0010
0100
0010
0000
0001
0000
,
0101
0000
0000
0000
1001
0000
0000
0000
0010
0000
1000
0100
0000
1000
0100
0000
,
0010
0000
0001
0100
0000
0001
0100
0000
0110
0000
0010
0000
1001
0000
0000
0000
,
0010
0000
1000
0100
0000
1000
0100
0000
0010
0000
0001
0100
0000
0001
0100
0000
,
0010
0000
1000
0100
0000
1000
0100
0000
0110
0000
0010
0000
1001
0000
0000
0000
,
0001
0010
1000
0010
0001
0100
1000
0100
,
0001
0010
1000
0001
0100
1000
1001
0000
,
0010
1000
0010
1000
0001
0010
0001
0010
0100
1000
0100
1000
0001
0100
0010
1000
,
0020
0000
0000
0000
0000
0030
1000
0100
0010
0000
0100
0000
0001
0000
0100
0000
1100
0000
0000
0000
0000
0000
1000
0000
0000
0000
0010
0000
0100
0000
0000
0000
,
0101
0000
0000
0001
0000
0010
0100
0000
1001
0000
0000
0010
0000
0001
0100
0000
,
1000
0000
0100
0000
0001
0000
0010
0000
0011
0000
0000
0101
0000
0000
0110
0000
,
1010
0000
0000
1100
0000
0000
0110
0000
0011
0000
0000
1001
0000
0000
1010
0000
,
0010
0000
0000
0000
0100
0000
0000
0000
0001
0000
0000
0000
1000
0000
0000
0000
0001
0000
0000
0000
0100
0000
0000
0000
0101
0000
0000
0000
0000
0000
0000
0000
0000
0010
0000
0000
0000
0000
0000
0010
0000
0000
0100
0000
0000
0000
0000
0000
,
1100
0000
0000
0010
0000
0010
0100
0000
0101
0000
0000
0001
0000
1000
0001
0000
,
1000
0000
0100
0000
0110
0000
0000
0000
1100
0000
0000
1001
0000
0000
0110
0000
,
0101
0000
0000
1001
0000
0000
0110
0000
2000
0000
3200
0000
0320
0000
0032
0003
,
1001
0000
0000
0010
1000
0010
0100
0001
0100
1000
0100
0001
,
0010
0000
0000
0000
0100
0000
0000
0000
1000
0000
0000
0000
0001
0000
0000
0000
0100
0000
0000
0000
0001
0000
0000
0000
1000
0000
0000
0000
0000
0000
0001
0000
0000
0100
0000
0000
0010
0000
0000
0000
0000
0000
0100
0000
0000
0000
0000
0000
,
1001
0000
0000
0010
0001
0010
0100
1000
0100
0001
0100
1000
,
0010
0000
0100
0000
0001
0000
1000
0000
0100
0000
1000
0000
0001
0010
0100
1000
0100
0010
0001
0000
0000
0000
0010
0000
,
0001
0100
0000
0110
0000
1010
0000
0101
0000
1001
0000
0010
,
1000
0000
0000
0000
0100
0000
0000
0000
0000
0000
0000
0000
0110
0000
0000
0000
0000
0000
0000
0000
0010
0000
0000
0000
0001
0000
0000
0000
0010
0000
0000
0000
0100
0000
0000
0000
1000
0000
0000
0000
0000
0000
0001
0000
0000
0100
0000
0000
,
0000
0010
1000
0000
0001
0000
1000
0100
0000
0010
0001
0000
1000
0010
0100
0001
,
0010
0100
1000
0001
1000
0000
0010
0000
1000
0000
0001
0000
0102
0000
0000
0000
,
1003
0100
2000
0000
0000
0000
3001
0100
,
0001
0000
1000
0000
0100
0000
0001
0100
0001
0000
0100
0000
2000
0000
0000
0000
,
3001
0000
0010
0000
0002
0000
0000
0000
0003
0000
0010
0000
0100
0000
1000
0001
,
1000
0010
0001
0010
1000
0100
2100
0000
,
3001
0100
0002
0000
0000
0000
1003
0100
,
1000
0000
0001
0000
0100
0000
1000
0100
1000
0000
0100
0000
0002
0000
0000
0000
,
1003
0010
2000
0000
3000
0001
0010
1000
,
0001
0000
0100
0000
1000
0000
0010
0100
0010
0000
1000
0000
1100
0000
0000
0010
,
0001
0000
0000
0100
0010
0000
1000
0001
0010
0000
0001
1000
0010
0000
0100
0000
,
0001
0000
0010
0000
1000
0000
0010
0001
0100
0000
1000
0000
0100
0000
0001
0010
,
0000
0001
0100
0000
0010
0000
1000
0100
0000
1000
0010
0000
0100
0000
0001
0010
,
0000
1000
0010
0000
0001
0100
0001
0000
1001
0000
0000
0000
1000
0000
0010
0000
,
0001
0010
1000
0100
0001
0100
1000
0010
,
0001
0000
1000
0000
0100
0000
0001
0000
1001
0000
0000
0000
0010
0001
0010
0001
,
1000
0000
0010
0000
1000
0000
0010
0000
0100
0000
0001
0000
0100
0000
0001
0000
1000
0000
0100
0000
0010
0000
0001
0000
0020
0000
0000
0000
0030
0000
0001
0100
,
0010
0100
1000
0100
0101
0000
0000
1001
0000
1001
0000
0000
0110
0000
0000
0010
,
0000
1000
0100
0000
0011
0000
0000
0001
0000
1000
0100
0010
0002
0000
0000
0003
,
0100
0010
0100
0010
1000
0000
0000
1100
0000
0110
0000
0000
1001
0000
0000
0011
,
0000
0100
1000
0000
1010
0000
0000
0101
0000
0001
0100
0010
1000
0010
0100
0001
,
0010
0000
0100
0000
1100
0000
0000
1001
0000
1001
0000
0000
0110
0000
0000
0010
,
0000
0001
0100
0000
1010
0000
0000
1000
0000
0001
0100
0010
2000
0000
0000
3000
,
0100
0010
0100
0010
0001
0000
0000
0101
0000
0110
0000
0000
1001
0000
0000
1010
,
0000
0000
0000
0000
0000
0000
0000
0000
0000
0000
0000
0000
0100
0000
0000
0000
0000
0000
0000
0000
0000
0000
0000
0000
0001
0000
0000
0000
0000
0000
0000
0000
0000
0000
0000
0000
0000
0000
0000
0000
0000
0000
0000
0000
0000
0000
0000
0000
0020
0000
0000
0000
0000
0000
0000
0000
0000
0000
0000
0000
0032
0000
0000
0000
0000
0000
0000
0000
0000
0000
0000
0000
0203
0000
0000
0000
0000
0000
0000
0000
0000
0000
0000
0000
2300
0000
0000
0000
0000
0000
0000
0000
0000
0000
0000
0000
3200
0000
0000
0000
0000
0000
0000
0000
0000
0000
0000
0000
0000
0000
0000
0000
0000
0000
0020
0000
0000
0000
0000
0000
0000
0000
0000
0000
0000
0000
0000
0000
0000
0000
0000
0000
0330
0000
0000
0000
0000
0000
0000
0000
0000
0000
0000
0000
1010
0000
0000
0000
0000
0000
0000
0000
0000
0000
0000
0000
0000
0000
0000
0000
0000
0000
0000
0000
0000
0000
0000
0000
0000
0000
0000
0000
0000
0000
0000
0000
0101
0000
0000
0000
0000
0000
0000
0000
0000
0000
0000
0000
0000
0000
0000
0000
,
0000
0110
0000
1001
0000
0011
0000
1100
0000
0110
0000
1100
,
0000
1001
0000
0010
0000
0001
1000
0000
0000
0011
0000
1100
,
0000
0110
0000
1001
0000
1010
0000
0101
0000
0110
0000
0101
,
0000
1001
0000
1010
0000
0100
0001
1000
0001
0101
0000
0010
,
1000
0100
0000
0110
0000
0010
0001
0100
0000
0101
0000
1000
,
0010
0100
0000
0001
0000
1000
0010
0000
0000
1000
0001
1000
,
0010
1000
0100
0001
0100
1000
0001
0100
1000
0100
0001
0010
,
0100
1000
0100
0110
0000
0000
0000
0000
0000
2002
0000
0000
,
0000
3003
0000
0000
;

//---------------dance-single - NewbStepper-DSP----------------
#NOTEDATA:;
#CHARTNAME:NewbStepper-DSP;
#STEPSTYPE:dance-single;
#DESCRIPTION:NewbStepper-DSP;
#DIFFICULTY:Medium;
#METER:13;
#RADARVALUES:0.611721,0.681747,0.685911,0.254767,0.372352,437,367,70,26,0,0,0,0,0,0.611721,0.681747,0.685911,0.254767,0.372352,437,367,70,26,0,0,0,0,0;
#CREDIT:NewbStepper;
#NOTES:
0000
0000
0000
0000
,
0001
0000
1000
0100
2000
0000
3000
0000
,
0010
0000
0100
0000
0001
0000
0100
0000
0010
0000
0000
0010
0100
0000
0001
0000
,
1000
0000
0001
0010
0002
0000
0003
0000
,
1000
0100
1000
0001
0100
0010
0001
0010
,
1000
0000
0001
0100
0002
0000
0003
0000
,
0010
0000
0100
0000
1000
0000
0100
0000
0010
0000
0000
0010
0100
0000
1000
0000
,
0001
0000
1000
0010
2000
0000
3000
0000
,
0001
0100
0001
1000
0100
0010
1000
0010
,
0011
0000
0101
0000
0010
1000
0100
0000
,
0010
0001
0100
0000
0010
1000
0001
1000
,
1010
0000
1100
0000
0010
0001
0100
0000
,
0010
1000
0100
0000
0010
0001
1000
0001
,
0100
0010
0001
0010
1000
0001
0100
1000
,
0100
0001
0010
1000
0010
0100
0010
0000
,
0001
0100
1000
0100
0001
0010
1000
0010
,
0002
0000
0000
0000
0000
0000
0003
0000
1010
0000
0000
0110
0000
0000
0100
0000
,
0011
0000
0000
0110
0000
0000
0100
0000
1001
0000
0000
1010
0000
0000
0101
0000
,
0001
0000
0010
0000
1001
0000
0000
0000
0101
0000
0000
0110
0000
0000
0010
0000
,
1100
0000
0000
0110
0000
0000
0010
0000
1001
0000
0000
0101
0000
0000
0110
0000
,
0001
0000
1000
0000
0010
0000
0100
0000
0001
0000
0000
0001
0000
0000
0001
0000
,
0110
0000
0000
0110
0000
0000
0110
0000
1001
0000
0000
1001
0000
0000
1001
0000
,
0100
0000
0001
0000
1000
0000
0000
0000
1010
0000
0000
1010
0000
0000
0100
0000
,
0011
0000
0000
0011
0000
0000
0100
0000
0220
0000
0000
0000
0000
0000
0330
0000
,
1000
0000
0000
0000
0001
0000
0100
0000
1000
0000
0000
0100
0000
0000
0010
0000
,
1000
0000
0000
1000
0000
0000
0001
0000
0011
0000
0100
0000
1000
0000
0000
0000
,
0001
0000
0000
0000
1000
0000
0100
0000
0001
0000
0000
0100
0000
0000
0010
0000
,
0001
0000
0000
0000
0000
0000
0000
0000
0000
0001
0000
0000
0000
0000
0000
0000
0000
0000
1000
0000
0000
0000
0000
0000
0010
0000
0000
0000
0100
0000
0000
0000
0100
0000
0000
0000
0001
0000
0000
0000
0000
0000
0000
0000
0001
0000
0000
0000
,
0000
0101
0000
1000
0000
1000
0000
1100
0000
0001
0000
0100
,
0000
0000
0000
0000
0010
0000
0000
0000
0000
0000
0000
0000
0110
0000
0000
0000
0000
0000
0000
0000
0000
0000
0000
0000
1001
0000
0000
0000
0000
0000
0000
0000
0000
0000
0000
0000
1010
0000
0000
0000
0000
0000
0000
0000
0000
0100
0000
0000
,
0000
0000
0001
0000
0011
0000
0000
0100
0000
0000
1000
0000
1001
0000
0000
0010
,
0000
0001
0100
0010
0100
1000
0100
0000
,
0001
0100
0002
0000
0003
0000
0010
0100
,
1000
0000
0100
0000
0010
0000
0000
0010
0100
0000
1000
0000
0001
0000
0000
0000
,
1000
0010
2000
0000
3000
0000
0001
0100
,
0001
1000
0100
0010
1000
0010
0001
0000
,
1000
0100
2000
0000
3000
0000
0010
0100
,
0001
0000
0100
0000
0010
0000
0000
0010
0100
0000
0001
0000
1000
0000
0000
0000
,
0001
0010
0002
0000
0003
0000
1000
0100
,
1000
0001
0100
0010
0001
0010
1010
0000
,
1100
0000
0010
0000
0001
0100
0010
0100
,
1000
0100
0001
0010
0001
0000
0011
0000
,
0101
0000
0010
0000
1000
0100
0010
0100
,
0001
0100
1000
0010
1000
0000
0100
0010
,
1000
0010
0001
1000
0100
0001
0100
1000
,
0010
0001
0010
0100
0010
0000
1000
0100
,
0001
0100
1000
0010
0001
0010
2000
0000
,
0000
0000
3000
0000
0011
0000
0000
0100
0000
0100
0000
0000
1000
0000
0000
0010
,
0000
0010
0000
0000
0100
0000
0000
0001
0000
0010
0001
0000
0202
0000
0000
0000
,
0303
0000
0000
0000
1010
0000
0000
0100
0000
0100
0000
0000
0001
0000
0000
0010
,
0000
0010
0000
0000
0100
0000
0000
1000
0000
0010
1000
0000
2200
0000
0000
0000
,
3300
0000
0000
0000
1001
0000
0000
0010
0000
0010
0000
0000
0001
0000
0000
0100
,
0000
0100
0000
0000
0010
0000
0000
1000
0000
0100
0000
0000
0022
0000
0000
0000
,
0033
0000
0000
0000
1001
0000
0000
0010
0000
0010
0000
0000
0001
0000
0000
0100
,
0000
0000
0000
0100
0000
0000
0000
0000
0000
0000
0000
0000
0020
0000
0000
0000
0000
0000
0000
0000
0000
0000
0000
0000
0000
0000
0000
0000
0000
0000
0030
0000
0000
0000
0000
0000
1000
0000
0000
0000
0000
0000
0000
0000
1100
0000
0000
0000
,
0000
1100
0000
0001
0000
0101
0000
0101
0000
0010
0000
0110
,
0000
0110
0000
2002
0000
0000
3003
0000
0000
0001
0000
0011
,
0000
0011
0000
1000
0000
1010
0000
1010
0000
0100
0000
0110
,
0000
0110
0000
2002
0000
0000
3003
0000
0000
0100
0000
0010
,
0001
0010
0000
0100
0000
0010
1000
0010
0000
0100
0000
1000
,
0001
1000
0000
0200
0000
0000
0300
0000
0000
0010
0000
0001
,
0000
0011
0000
0100
0000
1000
0000
1100
0000
0101
0000
0110
,
0000
1010
0000
1001
0000
0000
0000
0000
0000
2002
0000
0000
,
0000
3003
0000
0000
;

//---------------dance-single - NewbStepper-BSP----------------
#NOTEDATA:;
#CHARTNAME:NewbStepper-BSP;
#STEPSTYPE:dance-single;
#DESCRIPTION:NewbStepper-BSP;
#DIFFICULTY:Easy;
#METER:8;
#RADARVALUES:0.370952,0.433839,0.333157,0.186176,0.156780,265,231,34,19,0,0,0,0,0,0.370952,0.433839,0.333157,0.186176,0.156780,265,231,34,19,0,0,0,0,0;
#CREDIT:NewbStepper;
#NOTES:
0000
0000
0000
0000
,
1000
0000
1100
0000
,
0000
0001
0010
0000
0110
0000
0000
0000
,
1000
0000
1001
0000
,
0000
0000
0010
0000
1000
0001
0000
0100
,
0001
0000
0101
0000
,
0000
1000
0010
0000
0110
0000
0000
0000
,
0001
0000
1001
0000
,
0000
0000
0010
0000
0001
1000
0000
0000
,
0010
0010
1000
1000
,
0001
0001
0100
0001
,
0010
0010
0001
0001
,
1000
1000
0100
1000
,
0010
1000
0010
0000
0100
0001
0100
0000
,
0010
0100
0010
0000
1000
0001
1000
0000
,
2002
0000
0000
3003
,
0020
0030
1000
0100
,
1100
0000
0001
0100
,
0101
0000
1000
0010
,
1010
0000
0001
0010
,
0011
0000
0000
0000
0002
0000
0000
0100
,
0103
0000
0000
0000
2000
0000
0000
0100
,
3100
0000
0000
0000
0002
0000
0000
0010
,
0013
0100
2002
3003
,
0010
1000
0100
0001
,
0010
1000
0100
1001
,
0010
0001
0100
1000
,
0010
0000
0000
0001
0000
0000
0200
0000
0000
0310
0000
0010
,
0000
0010
0000
1000
0000
1000
0000
1000
0000
0001
0000
0001
,
0000
0001
0000
0020
0000
0000
0030
0000
0000
0100
0000
0000
,
1010
0100
0011
0100
,
1001
0000
0100
0010
0100
0000
0001
0000
,
0000
0000
0101
0000
0000
0000
0000
1000
,
0010
0000
0110
0000
0000
1000
0001
0000
,
0000
0000
1001
0000
0000
0000
0000
0010
,
0000
0100
0000
0000
0110
0000
0000
0000
0001
0000
0000
0000
1000
0000
0000
0000
,
0000
0000
1100
0000
0000
0000
0000
0001
,
0010
0000
0110
0000
0000
1000
0001
0000
,
0000
0000
1001
0000
0000
0000
0000
0010
,
0000
0100
0000
0000
0110
0000
0000
0000
1000
0000
0001
0000
1000
0000
0000
0000
,
1000
1000
1000
0001
,
0001
0001
0001
0100
,
0100
0100
0100
0010
,
0010
0010
0010
1000
,
1100
0000
0010
0001
0010
0000
0001
0000
,
0101
0000
0010
1000
0010
0000
1000
0000
,
0100
0001
0010
2000
,
3000
0001
0100
0101
,
0000
1000
0100
1100
,
0000
0001
0010
0011
,
0000
1000
0010
1010
,
0000
0000
2000
0000
0000
0100
3100
0000
,
0000
0000
0002
0000
0000
0100
0103
0000
,
0000
0000
2000
0000
0000
0010
3010
0000
,
0100
0000
0000
2002
0000
0000
3003
0000
0000
0010
0000
0010
,
0000
0010
0000
1000
0000
1000
0000
1000
0000
0100
0000
0100
,
0000
0100
0000
0010
0000
0000
1001
0000
0000
0010
0000
0010
,
0000
0010
0000
0001
0000
0001
0000
0001
0000
0100
0000
0100
,
0000
0100
0000
0010
0000
0000
2000
0000
0000
3001
0000
0100
,
0000
0001
0000
1000
0000
0100
0000
1000
0000
0001
0000
0100
,
0000
0010
0000
1000
0000
0000
1001
0000
0000
1000
0000
0100
,
0000
1000
0000
0001
0000
0100
0000
0001
0000
1000
0000
0100
,
0000
0010
0000
0001
0000
0000
0000
0000
0000
2002
0000
0000
,
0000
3003
0000
0000
;

//---------------dance-single - NewbStepper-bSP----------------
#NOTEDATA:;
#CHARTNAME:NewbStepper-bSP;
#STEPSTYPE:dance-single;
#DESCRIPTION:NewbStepper-bSP;
#DIFFICULTY:Beginner;
#METER:5;
#RADARVALUES:0.190375,0.309885,0.186176,0.097987,0,136,117,19,10,0,0,0,0,0,0.190375,0.309885,0.186176,0.097987,0,136,117,19,10,0,0,0,0,0;
#CREDIT:NewbStepper;
#NOTES:
0000
0000
0000
0000
,
0001
0000
0000
0000
,
0001
0000
0000
0000
,
0020
0000
0000
0030
,
0000
0000
0000
0000
,
1000
0000
0000
0000
,
1000
0000
0000
0000
,
0200
0000
0000
0300
,
0000
0000
0000
0000
,
0001
0001
0000
0000
,
0000
0000
0000
0000
,
1000
1000
0000
0000
,
0000
0000
0000
0000
,
0010
0010
0000
0000
,
0000
0000
0000
0000
,
0100
0100
0100
0100
,
0200
0300
0001
1000
,
0001
0000
1000
0010
,
1000
0000
0001
0010
,
0001
0000
0100
0010
,
0100
0000
1001
0000
,
1010
0000
0100
0001
,
0010
0000
1001
0000
,
0101
0000
0020
0030
,
1000
0001
0001
0000
,
1000
0000
0100
0000
,
0001
1000
1000
0000
,
0001
0000
0100
0000
,
0000
1000
0000
0001
,
0000
0100
0000
0010
,
0000
1000
0000
0001
,
0000
0100
0000
1000
,
0000
0000
0000
1000
,
0000
0000
0000
0020
,
0000
0000
0030
0000
,
0000
0000
0000
0001
,
0000
0000
0000
0001
,
0000
0000
0000
0200
,
0000
0000
0300
0000
,
0000
0000
0000
1000
,
0001
1000
0000
0100
,
0010
0100
0000
0001
,
1000
0001
0000
0010
,
0100
0010
0000
1000
,
1000
1000
0000
0001
,
0001
0001
0000
0100
,
0100
0100
0000
0020
,
0030
1001
0000
1100
,
0000
0101
0000
0110
,
0000
1001
0000
0101
,
0000
1100
0000
0110
,
0000
1001
0000
0011
,
0000
1010
0000
0110
,
0000
1001
0000
1010
,
0000
0200
0300
0001
,
0000
0010
0000
0100
,
0000
1000
0000
0001
,
0000
0100
0000
0010
,
0000
1000
0000
0001
,
0000
0010
0000
0100
,
0000
1000
0000
0001
,
0100
1000
0100
0001
,
0100
0010
0000
2002
,
0000
3003
0000
0000
;

//---------------dance-double - NewbStepper-EDP----------------
#NOTEDATA:;
#CHARTNAME:NewbStepper-EDP;
#STEPSTYPE:dance-double;
#DESCRIPTION:NewbStepper-EDP;
#DIFFICULTY:Hard;
#METER:16;
#RADARVALUES:0.827293,0.960643,0.764301,0.303761,0.891685,591,513,78,31,0,0,0,0,0,0.827293,0.960643,0.764301,0.303761,0.891685,591,513,78,31,0,0,0,0,0;
#CREDIT:NewbStepper;
#NOTES:
00000000
00000000
00000000
00000000
,
21000000
00000000
30010000
01000000
00020000
00000000
00000000
00000000
,
10030000
00000000
01000000
00000000
00010000
00000000
00001000
00000000
00000100
00000000
00000001
00000100
00000001
00000000
00000100
00000000
,
00002000
00000000
00013000
00000010
00020000
00000000
00030000
00000100
,
00000010
00000000
00001000
00010000
00001000
00000000
01000000
00000000
00010000
00000000
00001000
00000000
00000010
00000000
00000100
00000000
,
00000102
00000000
00001003
00000100
00002000
00000000
00000000
00000000
,
00003001
00000000
00000100
00000000
00001000
00000000
00010000
00000000
01000000
00000000
10000000
01000000
10000000
00000000
01000000
00000000
,
00020000
00000000
00031000
00100000
00002000
00000000
00003000
01000000
,
00100000
00000000
00010000
00000000
00001000
00000000
00000010
00000000
00001000
00000000
00010000
00001000
00010000
00000000
00000010
00000000
,
00000110
00000000
00000000
00000000
00001001
00000000
00000000
00000000
00000100
00000000
00000001
00000010
00000000
00000001
00000010
00000000
,
00001000
00000000
00010000
00001000
00000000
00010000
00001000
00000000
00100000
00000000
00010000
00000000
10010000
00000000
00000000
00000000
,
01000000
00000000
10000000
00100000
00000000
10000000
00100000
00000000
00010000
00000000
00001000
00010000
00000000
00001000
00010000
00000000
,
00000100
00000000
00001000
00000010
00000000
00001000
00000010
00000000
00000100
00000000
00000001
00000000
00001001
00000000
00000000
00000000
,
00000010
00000001
00000100
00001000
00010000
01000000
00100000
00001000
,
00010000
00100000
10000000
01000000
00010000
00001000
00010000
01000000
,
00100000
00001000
00100000
00001000
00010000
00000100
00010000
00000100
00001000
00000100
00001000
00000100
00000010
00000001
00000010
00000001
,
00000200
00000000
00000000
00000000
00000000
00000300
00001000
00010000
00001000
00000000
00100000
00000000
00010000
00000000
00100000
00000000
01100000
00000000
00000000
00000000
00000000
00000000
10000000
00000000
00000000
00000000
01000000
00000000
00010000
00000000
00000000
00000000
,
00011000
00000000
00000000
00000010
00000000
00000001
00000100
00000000
00000110
00000000
00000000
00000001
00000000
00000100
00001000
00000000
,
00010000
00000000
01000000
00000000
10000000
00000000
00100000
00000000
01100000
00000000
00000000
01010000
00000000
00000000
10010000
00000000
,
11000000
00000000
00000000
01010000
00000000
00000000
00011000
00000000
00001010
00000000
00000000
00000011
00000000
00000000
00001001
00000000
,
00001000
00000000
00000000
00000000
00000100
00000000
00000000
00000000
00000010
00000000
00000000
00000000
00000001
00000000
00000000
00000000
00000100
00000000
00000000
00000000
00000010
00000000
00000000
00000000
00000110
00000000
00000000
00000000
00000000
00000000
00000000
00000000
00000000
00000001
00000000
00000000
00000000
00000000
00000000
00000100
00000000
00000000
00001000
00000000
00000000
00000000
00000000
00000000
,
00011000
00000000
00000000
00100000
00000000
10000000
01000000
00000000
01100000
00000000
00000000
10000000
00000000
01000000
00010000
00000000
,
00001000
00000000
00000100
00000000
00000001
00000000
00000010
00000000
00000011
00000000
00000000
00000101
00000000
00000000
00001100
00000000
,
00011000
00000000
00000000
00110000
00000000
00000000
10100000
00000000
20000000
00000000
32000000
00000000
03200000
00000000
00320000
00030000
,
10010000
00000000
00000000
10000000
01000000
10000000
00010000
01000000
00010000
10000000
01000000
00010000
,
00001000
00000000
00000000
00000000
00000100
00000000
00000000
00000000
00000001
00000000
00000000
00000000
00000010
00000000
00000000
00000000
00000100
00000000
00000000
00000000
00001000
00000000
00000000
00000000
00000010
00000000
00000000
00000000
00000000
00000000
00001000
00000000
00000000
00000001
00000000
00000000
00000100
00000000
00000000
00000000
00000000
00000000
00000010
00000000
00000000
00000000
00000000
00000000
,
00001001
00000000
00000000
00000001
00000100
00000001
00001000
00000100
00001000
00000001
00000100
00001000
,
00010000
00000000
01000000
00000000
10000000
00000000
00100000
00000000
01000000
00000000
00010000
00000000
10000000
01000000
00100000
00010000
00100000
01000000
10000000
00000000
00000000
00000000
01000000
00000000
,
00100000
01000000
00000000
01010000
00000000
00011000
00000000
00001100
00000000
00000110
00000000
00000001
,
00001000
00000000
00000000
00000000
00000100
00000000
00000000
00000000
00000000
00000000
00000000
00000000
00000110
00000000
00000000
00000000
00000000
00000000
00000000
00000000
00000001
00000000
00000000
00000000
00001000
00000000
00000000
00000000
00000000
00000000
00000000
00000000
00000100
00000000
00000000
00000000
00000010
00000000
00000000
00000000
00000000
00000000
00001000
00000000
00000000
00010000
00000000
00000000
,
00000000
00001000
00010000
00000000
00100000
00000000
10000000
00010000
00000000
10000000
00010000
00000000
00100000
00001000
00010000
00001000
,
00100000
00001000
00010000
00000010
00001000
00000000
00000100
00000000
00000010
00000000
00000001
00000000
00000102
00000000
00000000
00000000
,
00001003
00000100
00002000
00000000
00000000
00000000
00003001
00000100
,
00001000
00000000
00010000
00000000
01000000
00000000
10000000
01000000
10000000
00000000
01000000
00000000
00020000
00000000
00000000
00000000
,
00031000
00000000
00100000
00000000
00002000
00000000
00000000
00000000
00003000
00000000
01000000
00000000
00100000
00000000
00010000
00001000
,
00010000
00000100
00001000
00010000
00100000
01000000
21000000
00000000
,
30010000
01000000
00020000
00000000
00000000
00000000
10030000
01000000
,
00010000
00000000
00001000
00000000
00000100
00000000
00000001
00000100
00000001
00000000
00000100
00000000
00002000
00000000
00000000
00000000
,
00013000
00000010
00020000
00000000
00030000
00000100
00000010
00001000
,
00010000
00000000
00100000
00000000
00010000
00000000
00001000
00010000
00001000
00000000
00100000
00000000
01100000
00000000
00000000
10000000
,
01000000
00000000
00000000
00100000
00010000
00000000
00000000
00001000
00000100
00000000
00000000
00000010
00000001
00000000
00000000
00000100
,
00001000
00000000
00010000
00000000
00100000
00000000
00010000
00001000
00010000
00000000
00000010
00000000
00001000
00000000
00000001
00000100
,
00000000
00000010
00000100
00000000
00001000
00000000
00010000
00001000
00000000
00100000
00010000
00000000
10000000
00000000
00100000
00010000
,
00000000
00100000
10000000
00000000
01000000
00000000
00100000
00000000
10010000
00000000
00000000
00000000
00100000
00000000
10000000
00000000
,
01000000
00010000
00001000
00000100
00000010
00010000
00001000
00000010
,
00000001
00000000
00000100
00000000
00001000
00000000
00010000
00000000
00001000
00000000
00000100
00000000
00000010
00010000
00000010
00010000
,
00001000
00000000
01000000
00000000
00001000
00000000
01000000
00000000
00010000
00000000
01000000
00000000
00010000
00000000
01000000
00000000
00100000
00000000
10000000
00000000
00100000
00000000
10000000
00000000
02000000
00000000
00000000
00000000
00000000
03000000
00010000
00001000
,
00010000
00000010
00001000
00000010
00000110
00000000
00000000
00001001
00000000
00001001
00000000
00000000
00000101
00000000
00000000
00000100
,
00000000
00001000
00010000
00000000
00011000
00000000
00000000
00100000
00000000
10000000
01000000
00100000
00020000
00000000
00000000
00030000
,
01000000
00100000
01000000
00100000
10000000
00000000
00000000
11000000
00000000
01100000
00000000
00000000
00011000
00000000
00000000
00000010
,
00000000
00000100
00001000
00000000
00011000
00000000
00000000
00100000
00000000
01000000
00010000
00000000
00001000
00000000
00010000
00000000
,
00100000
00000000
01000000
00000000
01100000
00000000
00000000
10010000
00000000
10010000
00000000
00000000
11000000
00000000
00000000
01000000
,
00000000
00010000
00001000
00000000
00011000
00000000
00000000
00000010
00000000
00000001
00000100
00000010
00002000
00000000
00000000
00003000
,
00000100
00000010
00000100
00000010
00000001
00000000
00000000
00000101
00000000
00000110
00000000
00000000
00011000
00000000
00000000
00100000
,
00000000
00000000
00000000
01000000
00000000
00000000
00010000
00000000
00000000
00000000
00000000
00000000
00002000
00000000
00000000
00023000
00000000
00000000
00230000
00000000
00000000
20300000
00000000
00000000
00000000
00000000
00000000
00020000
00000000
00000000
00000000
00000000
00000000
30030000
00000000
00000000
10100000
00000000
00000000
00000000
00000000
00000000
00000000
00000000
10010000
00000000
00000000
00000000
,
00000000
10100000
00000000
00110000
00000000
00011000
00000000
00110000
00000000
00011000
00000000
00001100
,
00000000
00000101
00000000
00000110
00000000
00001000
00000001
00000000
00000000
00000011
00000000
00001001
,
00000000
00000011
00000000
00001010
00000000
00011000
00000000
00001010
00000000
00011000
00000000
01010000
,
00000000
11000000
00000000
01100000
00000000
00010000
10000000
00010000
00100000
01100000
00000000
00010000
,
10000000
00100000
00000000
00010000
00000000
00001000
00010000
00001000
00000000
00000010
00000000
00000001
,
00000100
00001000
00000000
00010000
00000000
00001000
00000010
00000000
00000000
00000001
00000100
00000001
,
00000100
00000010
00001000
00000010
00001000
00010000
01000000
00010000
01000000
00100000
10000000
00100000
,
10000000
01000000
00100000
01100000
00000000
00000000
00000000
00000000
00000000
20020000
00000000
00000000
,
00000000
30030000
00000000
00000000
;

//---------------dance-double - NewbStepper-DDP----------------
#NOTEDATA:;
#CHARTNAME:NewbStepper-DDP;
#STEPSTYPE:dance-double;
#DESCRIPTION:NewbStepper-DDP;
#DIFFICULTY:Medium;
#METER:13;
#RADARVALUES:0.593523,0.712735,0.558528,0.254767,0.372352,424,367,57,26,0,0,0,0,0,0.593523,0.712735,0.558528,0.254767,0.372352,424,367,57,26,0,0,0,0,0;
#CREDIT:NewbStepper;
#NOTES:
00000000
00000000
00000000
00000000
,
00010000
00000000
00100000
01000000
00200000
00000000
00300000
00000000
,
00010000
00000000
00001000
00000000
00100000
00000000
00010000
00000000
01000000
00000000
00000000
01000000
00100000
00000000
00010000
00000000
,
00001000
00000000
00000100
00000010
00000200
00000000
00000300
00000000
,
00001000
00010000
01000000
10000000
00100000
01000000
00100000
00010000
,
00001000
00000000
00000100
00000010
00000200
00000000
00000300
00000000
,
00001000
00000000
00010000
00000000
00000010
00000000
00001000
00000000
00000100
00000000
00000000
00000100
00000010
00000000
00001000
00000000
,
00010000
00000000
01000000
00100000
02000000
00000000
03000000
00000000
,
00010000
00001000
00000100
00000001
00000010
00000100
00000010
00001000
,
00011000
00000000
00011000
00000000
00100000
10000000
00100000
00000000
,
01000000
00010000
01000000
00000000
00100000
10000000
01000000
00010000
,
00011000
00000000
00011000
00000000
00000010
00000001
00000010
00000000
,
00000100
00001000
00000100
00000000
00000010
00000001
00000100
00001000
,
00010000
00100000
00010000
00001000
00000010
00000100
00010000
01000000
,
00010000
00001000
00100000
01000000
00100000
00001000
00000010
00000100
,
00000010
00000001
00000100
00001000
00010000
01000000
10000000
00100000
,
02000000
00000000
00000000
00000000
00000000
00000000
03000000
00000000
00110000
00000000
00000000
00101000
00000000
00000000
00001000
00000000
,
00011000
00000000
00000000
01010000
00000000
00000000
00100000
00000000
11000000
00000000
00000000
01100000
00000000
00000000
00011000
00000000
,
00010000
00000000
00000100
00000000
00001100
00000000
00000000
00000000
00001010
00000000
00000000
00010010
00000000
00000000
00010000
00000000
,
00011000
00000000
00000000
00001100
00000000
00000000
00000010
00000000
00000101
00000000
00000000
00000110
00000000
00000000
00011000
00000000
,
00001000
00000000
01000000
00000000
01010000
00000000
00000000
00000000
10100000
00000000
00000000
01100000
00000000
00000000
01000000
00000000
,
01010000
00000000
00000000
01010000
00000000
00000000
00011000
00000000
00010100
00000000
00000000
00010100
00000000
00000000
00011000
00000000
,
00001000
00000000
00000100
00000000
00000001
00000000
00000000
00000000
00000011
00000000
00000000
00000011
00000000
00000000
00000100
00000000
,
00001010
00000000
00000000
00001010
00000000
00000000
00000100
00000000
00000220
00000000
00000000
00000000
00000000
00000000
00000330
00000000
,
00001000
00000000
00000000
00000000
00000001
00000000
00000100
00000000
00001000
00000000
00000000
00000100
00000000
00000000
00000010
00000000
,
00001000
00000000
00000000
00001000
00000000
00000000
00100000
00000000
00010000
00000000
00001000
00000000
00100000
00000000
00000000
00000000
,
00010000
00000000
00000000
00000000
10000000
00000000
01000000
00000000
00010000
00000000
00000000
01000000
00000000
00000000
00100000
00000000
,
00010000
00000000
00000000
00000000
00000000
00000000
00000000
00000000
00000000
00010000
00000000
00000000
00000000
00000000
00000000
00000000
00000000
00000000
00000010
00000000
00000000
00000000
00000000
00000000
00001000
00000000
00000000
00000000
00010000
00000000
00000000
00000000
00010000
00000000
00000000
00000000
00000100
00000000
00000000
00000000
00000000
00000000
00000000
00000000
00000100
00000000
00000000
00000000
,
00000000
00001100
00000000
00000010
00000000
00000010
00000000
00000011
00000000
00001000
00000000
00000001
,
00000000
00000000
00000000
00000000
00000100
00000000
00000000
00000000
00000000
00000000
00000000
00000000
00000110
00000000
00000000
00000000
00000000
00000000
00000000
00000000
00000000
00000000
00000000
00000000
00001001
00000000
00000000
00000000
00000000
00000000
00000000
00000000
00000000
00000000
00000000
00000000
00000010
00000000
00000000
00000000
00000000
00000000
00000000
00000000
00000000
00000001
00000000
00000000
,
00000000
00000000
00000100
00000000
00000100
00000000
00000000
00001000
00000000
00000000
00010000
00000000
01000000
00000000
00000000
01000000
,
00000000
10000000
00100000
01000000
00100000
00010000
00001000
00000000
,
00000010
00000100
00000020
00000000
00000030
00000000
00001000
00010000
,
00000010
00000000
00001000
00000000
00000100
00000000
00000000
00000100
00000010
00000000
00001000
00000000
00010000
00000000
00000000
00000000
,
01000000
00100000
02000000
00000000
03000000
00000000
00010000
00001000
,
00000100
00000001
00000010
00000100
00000010
00001000
00010000
00000000
,
01000000
00100000
02000000
00000000
03000000
00000000
00010000
00001000
,
00100000
00000000
00010000
00000000
01000000
00000000
00000000
01000000
00100000
00000000
00010000
00000000
00001000
00000000
00000000
00000000
,
00000100
00000010
00000200
00000000
00000300
00000000
00001000
00010000
,
01000000
10000000
00100000
01000000
00100000
00010000
00011000
00000000
,
00011000
00000000
00000010
00000000
00000001
00000100
00000010
00000100
,
00001000
00000100
00000001
00000010
00001000
00000000
00011000
00000000
,
00011000
00000000
00100000
00000000
10000000
01000000
00100000
01000000
,
00010000
01000000
10000000
00100000
10000000
00000000
00010000
00100000
,
00001000
00000010
00000100
00001000
00000001
00000100
00001000
00010000
,
01000000
10000000
00010000
01000000
00100000
00000000
10000000
01000000
,
00100000
00010000
00001000
00000100
00000010
00000001
00000200
00000000
,
00000300
00000000
00000000
00000000
00001010
00000000
00000000
00000100
00000000
00000100
00000000
00000000
00000001
00000000
00000000
00000010
,
00000000
00000010
00000000
00000000
00001000
00000000
00000000
00010000
00000000
00001000
01000000
00000000
02020000
00000000
00000000
00000000
,
03030000
00000000
00000000
00000000
00110000
00000000
00000000
01000000
00000000
01000000
00000000
00000000
10000000
00000000
00000000
00100000
,
00000000
00100000
00000000
00000000
00010000
00000000
00000000
00001000
00000000
00010000
00000100
00000000
00002200
00000000
00000000
00000000
,
00003300
00000000
00000000
00000000
00001001
00000000
00000000
00000001
00000000
00000001
00000000
00000000
00000100
00000000
00000000
00001000
,
00000000
00001000
00000000
00000000
00100000
00000000
00000000
00010000
00000000
01000000
00000000
00000000
02200000
00000000
00000000
00000000
,
03300000
00000000
00000000
00000000
10010000
00000000
00000000
10000000
00000000
10000000
00000000
00000000
01000000
00000000
00000000
00010000
,
00000000
00000000
00000000
00010000
00000000
00000000
00000000
00000000
00000000
00000000
00000000
00000000
00000020
00000000
00000000
00000000
00000000
00000000
00000000
00000000
00000000
00000000
00000000
00000000
00000000
00000000
00000000
00000000
00000000
00000000
00000030
00000000
00000000
00000000
00000000
00000000
00001000
00000000
00000000
00000000
00000000
00000000
00000000
00000000
00000100
00000000
00000000
00000000
,
00000000
00000010
00000000
00000001
00000000
00000100
00000000
00001000
00000000
00010000
00000000
01000000
,
00000000
10000000
00000000
20020000
00000000
00000000
30030000
00000000
00000000
00010000
00000000
01000000
,
00000000
00100000
00000000
10000000
00000000
01000000
00000000
00010000
00000000
00001000
00000000
00000100
,
00000000
00000001
00000000
00002002
00000000
00000000
00003003
00000000
00000000
00000100
00000000
00000001
,
00000010
00000001
00000000
00000100
00000000
00001000
00010000
00001000
00000000
00100000
00000000
00010000
,
01000000
00010000
00000000
20000000
00000000
00000000
30000000
00000000
00000000
00100000
00000000
10000000
,
00000000
11000000
00000000
01000000
00000000
00010000
00000000
00011000
00000000
00001010
00000000
00000011
,
00000000
00000101
00000000
00000110
00000000
00000000
00000000
00000000
00000000
00002002
00000000
00000000
,
00000000
00003003
00000000
00000000
;

//---------------dance-double - NewbStepper-BDP----------------
#NOTEDATA:;
#CHARTNAME:NewbStepper-BDP;
#STEPSTYPE:dance-double;
#DESCRIPTION:NewbStepper-BDP;
#DIFFICULTY:Easy;
#METER:9;
#RADARVALUES:0.362553,0.433839,0.303761,0.166578,0.156780,259,228,31,17,0,0,0,0,0,0.362553,0.433839,0.303761,0.166578,0.156780,259,228,31,17,0,0,0,0,0;
#CREDIT:NewbStepper;
#NOTES:
// measure 0
00000000
00000000
00000000
00000000
,  // measure 1
10000000
00000000
11000000
00000000
,  // measure 2
00000000
00010000
00100000
00000000
01100000
00000000
00000000
00000000
,  // measure 3
00010000
00000000
00011000
00000000
,  // measure 4
00000000
00000000
00000010
00000000
00001000
00000001
00000000
00000100
,  // measure 5
00000001
00000000
00000101
00000000
,  // measure 6
00000000
00001000
00000010
00000000
00000110
00000000
00000000
00000000
,  // measure 7
00001000
00000000
00011000
00000000
,  // measure 8
00000000
00000000
00100000
00000000
00010000
10000000
00000000
00000000
,  // measure 9
00100000
00100000
10000000
10000000
,  // measure 10
01000000
01000000
00010000
00001000
,  // measure 11
00000010
00000010
00000001
00000001
,  // measure 12
00000100
00000100
00001000
00010000
,  // measure 13
00100000
10000000
00100000
00000000
01000000
00010000
01000000
00000000
,  // measure 14
00001000
00010000
00001000
00000000
00000100
00000010
00000100
00000000
,  // measure 15
00000220
00000000
00000000
00000330
,  // measure 16
00002000
00003000
00010000
00001000
,  // measure 17
00011000
00000000
00100000
01000000
,  // measure 18
01100000
00000000
10000000
00100000
,  // measure 19
10100000
00000000
00010000
00100000
,  // measure 20
00110000
00000000
00000000
00000000
20000000
00000000
00000000
00010000
,  // measure 21
30010000
00000000
00002000
00000000
00000000
00000000
00000000
00000001
,  // measure 22
00003001
00000000
00000010
00001000
,  // measure 23
00010000
00100000
02000000
03000000
,  // measure 24
00010000
10000000
01000000
00010000
,  // measure 25
00001000
00000100
00000001
00000000
,  // measure 26
00001000
00000001
00000100
00001000
,  // measure 27
00010000
00000000
00000000
00000000
00000000
00000000
01000000
00000000
00000000
00000000
00000000
00000000
20000000
00000000
00000000
30000000
00000000
00000000
00010000
00000000
00000000
00000000
00010000
00000000
,  // measure 28
00000000
00010000
00000000
00100000
00000000
00100000
00000000
00100000
00000000
00001000
00000000
00001000
,  // measure 29
00000000
00001000
00000000
00000020
00000000
00000000
00000030
00000000
00000000
00000100
00000000
00000000
,  // measure 30
00001010
00000100
00000011
00000100
,  // measure 31
00001000
00000000
00010000
00001000
00010000
00000000
00000001
00000000
,  // measure 32
00000000
00000000
00000101
00000000
00000000
00000000
00000000
00001000
,  // measure 33
00000010
00000110
00000000
00001000
,  // measure 34
00000000
00000000
00011000
00000000
00000000
00000000
00000000
00100000
,  // measure 35
00000000
01000000
00000000
00000000
01100000
00000000
00000000
00000000
00000000
00000000
00000000
00000000
10000000
00000000
00000000
00000000
,  // measure 36
00000000
00000000
11000000
00000000
00000000
00000000
00000000
00010000
,  // measure 37
00100000
00000000
01100000
00000000
00000000
00001000
00010000
00000000
,  // measure 38
00000000
00000000
00011000
00000000
00000000
00000000
00000000
00000010
,  // measure 39
00000000
00000100
00000000
00000000
00000110
00000000
00000000
00000000
00000001
00000000
00001000
00000000
00000001
00000000
00000000
00000000
,  // measure 40
00000001
00000001
00000001
00001000
,  // measure 41
00001000
00001000
00001000
00000100
,  // measure 42
00000100
00000100
00000100
00010000
,  // measure 43
00010000
00010000
00010000
00001000
,  // measure 44
00011000
00000000
01000000
10000000
01000000
00000000
00100000
00000000
,  // measure 45
01100000
00000000
00010000
00001000
00010000
00000000
00001000
00000000
,  // measure 46
00000100
00000001
00000010
00002000
,  // measure 47
00003000
00010000
00001000
00011000
,  // measure 48
00000000
00100000
01000000
01100000
,  // measure 49
00000000
10000000
00100000
10100000
,  // measure 50
00000000
00010000
00100000
00110000
,  // measure 51
00000000
00000000
20000000
00000000
00000000
00010000
30010000
00000000
,  // measure 52
00000000
00000000
00002000
00000000
00000000
00000001
00003001
00000000
,  // measure 53
00000000
00000000
00000200
00000000
00000000
00000010
00000310
00000000
,  // measure 54
00001000
00000000
00000000
00020200
00000000
00000000
00030300
00000000
00000000
00000010
00000000
00000010
,  // measure 55
00000000
00000010
00000000
00000001
00000000
00000001
00000000
00000001
00000000
00000100
00000000
00000100
,  // measure 56
00000000
00000100
00000000
00001000
00000000
00000000
00011000
00000000
00000000
00100000
00000000
00100000
,  // measure 57
00000000
00100000
00000000
10000000
00000000
10000000
00000000
10000000
00000000
01000000
00000000
01000000
,  // measure 58
00000000
01000000
00000000
00010000
00000000
00000000
00002000
00000000
00000000
00103000
00000000
00010000
,  // measure 59
00000000
00100000
00000000
01000000
00000000
10000000
00000000
01000000
00000000
00010000
00000000
00001000
,  // measure 60
00000000
00000010
00000000
00000001
00000000
00000000
00001001
00000000
00000000
00000010
00000000
00001000
,  // measure 61
00000000
00000010
00000000
00000100
00000000
00000001
00000000
00000100
00000000
00001000
00000000
00010000
,  // measure 62
00000000
00100000
00000000
10000000
00000000
00000000
00000000
00000000
00000000
20020000
00000000
00000000
,  // measure 63
00000000
30030000
00000000
00000000
;
