#VERSION:0.83;
#TITLE:GHOSTS (20th Anniversary Mix);
#ARTIST:saiiko2;
#BANNER:GHOSTS (20th Anniversary Mix).png;
#BACKGROUND:GHOSTS (20th Anniversary Mix)-bg.png;
#JACKET:GHOSTS (20th Anniversary Mix)-jacket.png;
#MUSIC:GHOSTS (20th Anniversary Mix).ogg;
#OFFSET:-1.655;
#SAMPLESTART:54.459;
#SAMPLELENGTH:15;
#BPMS:0=150;

//---------------dance-single - NewbStepper-bSP----------------
#NOTEDATA:;
#CHARTNAME:NewbStepper-bSP;
#STEPSTYPE:dance-single;
#DESCRIPTION:NewbStepper-bSP;
#DIFFICULTY:Beginner;
#METER:3;
#RADARVALUES:0.137363,0.209689,0.007396,0.044379,0,130,129,1,6,0,0,0,0,0,0.137363,0.209689,0.007396,0.044379,0,130,129,1,6,0,0,0,0,0;
#CREDIT:NewbStepper;
#NOTES:
0000
0000
0000
0000
,
0000
0000
0000
0000
,
0000
0000
0000
0000
,
0000
0000
0000
0000
,
0000
0000
0000
0000
,
0001
0000
0000
0000
,
1000
0000
0000
0000
,
0020
0000
0000
0000
,
0000
0000
0030
0000
,
1000
0000
0000
0000
,
0100
0000
0000
0000
,
1000
0000
0000
0000
,
0001
0000
0100
0000
,
0001
0000
0000
0000
,
1000
0000
0000
0000
,
0001
0000
0000
0000
,
0002
0000
0003
0000
,
1000
1000
1000
0000
,
0001
0001
0001
0000
,
0100
0100
0100
0000
,
0010
0010
0010
0000
,
1000
0000
1000
0000
,
0001
0000
0001
0000
,
0100
0000
0010
0000
,
0100
0000
0010
0000
,
1000
1000
1000
0000
,
0001
0001
0001
0000
,
0010
0010
0010
0000
,
0100
0100
0100
0000
,
1000
0000
1000
0000
,
0001
0000
0001
0000
,
0010
0000
0100
0000
,
0010
0000
0100
0000
,
1000
0000
0000
0000
,
0001
0000
0000
0000
,
1000
0000
0000
0000
,
0001
0000
0000
0000
,
0010
0000
0000
0000
,
0100
0000
0000
0000
,
0010
0000
0000
0000
,
0100
0000
0000
0000
,
1000
0000
1000
0000
,
0001
0000
0001
0000
,
0100
0000
0100
0000
,
0010
0000
0010
0000
,
1000
0000
0001
0000
,
0100
0000
0010
0000
,
1000
0000
0001
0000
,
0100
0000
0100
0000
,
0001
0000
0001
0000
,
0100
0000
0100
0000
,
1000
0000
1000
0000
,
0010
0000
0010
0000
,
0001
0001
0001
0000
,
0100
0100
0100
0000
,
1000
1000
1000
0000
,
0010
0010
0010
0000
,
0001
0000
0001
0000
,
0010
0000
0010
0000
,
1000
0000
1000
0000
,
0100
0000
0100
0000
,
0001
0001
0001
0000
,
0010
0010
0010
0000
,
1000
1000
1000
0000
,
0100
0100
0100
0000
,
0001
0000
0000
0000
,
1000
0000
0000
0000
,
0010
0000
0000
0000
,
0100
0000
0000
0000
,
0001
0000
0000
0000
,
0010
0000
0000
0000
,
0100
0000
0000
0000
,
1000
0000
0000
0000
,
0002
0000
0000
0000
,
0000
0000
0003
0000
,
2000
0000
0000
0000
,
0000
0000
3000
0000
,
0020
0000
0000
0000
,
0000
0000
0030
0000
,
0200
0000
0000
0000
,
0000
0000
0300
0000
,
1001
0000
0000
0000
;

//---------------dance-single - NewbStepper-BSP----------------
#NOTEDATA:;
#CHARTNAME:NewbStepper-BSP;
#STEPSTYPE:dance-single;
#DESCRIPTION:NewbStepper-BSP;
#DIFFICULTY:Easy;
#METER:5;
#RADARVALUES:0.209214,0.275425,0.051775,0.214497,0,198,191,7,29,0,0,0,0,0,0.209214,0.275425,0.051775,0.214497,0,198,191,7,29,0,0,0,0,0;
#CREDIT:NewbStepper;
#NOTES:
0000
0000
0000
0000
,
0000
0000
0000
0000
,
0000
0000
0000
0000
,
0000
0000
0000
0000
,
0000
0000
0000
0000
,
2002
0000
3003
0000
,
0220
0000
0330
0000
,
2002
0000
0000
3003
,
0000
0000
0000
0000
,
1001
0000
0000
0000
,
1000
0000
0100
0000
,
0010
0000
0001
0000
,
0100
0000
0010
0000
,
2000
0000
0000
3000
,
0002
0000
0000
0003
,
0200
0000
0000
0300
,
0020
0000
0000
0030
,
1000
1000
1000
0000
,
0001
0001
0001
0000
,
0100
0100
0100
0000
,
0010
0010
0010
0000
,
1000
0000
1000
0000
,
0001
0000
0001
0000
,
0100
0000
0010
0000
,
0100
0000
0010
0000
,
1000
1000
1000
0000
,
0001
0001
0001
0000
,
0010
0010
0010
0000
,
0100
0100
0100
0000
,
1000
0000
1000
0000
,
0001
0000
0001
0000
,
0010
0000
0100
0000
,
0010
0000
0100
0000
,
2000
0000
0000
3000
,
0200
0000
0000
0300
,
0020
0000
0000
0030
,
0002
0000
0000
0003
,
1000
0010
0100
0000
,
0001
0010
0100
0000
,
0220
0000
0330
0000
,
2002
0000
3003
0000
,
0001
0001
0001
0000
,
1000
1000
1000
0000
,
0100
0100
0100
0000
,
0010
0010
0010
0000
,
0001
0100
0001
0100
,
0010
1000
0010
1000
,
0100
0010
0100
0010
,
0200
0300
0100
0100
,
1000
0001
1000
0100
,
1000
0001
1000
0100
,
1000
0001
1000
0100
,
0010
0001
0100
0001
,
1000
0010
1000
0001
,
1000
0010
1000
0001
,
1000
0010
1000
0001
,
0100
0010
0100
0000
,
0001
1000
0001
0100
,
0001
1000
0001
0100
,
0001
1000
0001
0100
,
0010
1000
0100
1000
,
0001
0010
0001
1000
,
0001
0010
0001
1000
,
0001
0010
0001
1000
,
0100
0010
0100
0010
,
0002
0000
0000
0003
,
2000
0000
0000
3000
,
0002
0000
0000
0003
,
0200
0000
0000
0300
,
0020
0000
0000
0030
,
2000
0000
0000
3000
,
0020
0000
0000
0030
,
0200
0000
0000
0300
,
0001
0100
0001
1000
,
0001
0010
0001
0100
,
0010
1000
0100
1000
,
0001
1000
0010
0100
,
0001
0000
1000
0000
,
0010
0100
0010
0000
,
1000
0000
0100
0010
,
0001
0000
1000
0000
,
2002
0000
0000
0000
,
0000
0000
0000
3003
;

//---------------dance-single - NewbStepper-DSP----------------
#NOTEDATA:;
#CHARTNAME:NewbStepper-DSP;
#STEPSTYPE:dance-single;
#DESCRIPTION:NewbStepper-DSP;
#DIFFICULTY:Medium;
#METER:10;
#RADARVALUES:0.364539,0.520248,0.103550,0.281065,0.081361,345,331,14,38,0,0,0,0,0,0.364539,0.520248,0.103550,0.281065,0.081361,345,331,14,38,0,0,0,0,0;
#CREDIT:NewbStepper;
#NOTES:
0000
0000
0000
0000
,
0000
0000
0000
0000
,
0000
0000
0000
0000
,
0000
0000
0000
0000
,
0000
0000
0010
1000
,
0002
0000
0000
0000
,
2003
0000
0001
0000
,
3200
0000
0000
0000
,
0020
0000
0000
0330
,
1001
0000
0000
0000
,
0020
0000
2030
0000
,
3002
0000
0023
0000
,
2030
0000
3200
0000
,
0301
0000
0000
0001
0000
0000
0001
0000
0000
0001
0000
0000
0100
0000
0010
0000
,
1000
0000
0000
1000
0000
0000
1000
0000
0000
1000
0000
0000
0100
0000
0010
0000
,
0001
0000
0000
0001
0000
0000
0001
0000
1000
0000
0000
1000
0000
0000
1000
0000
,
0020
0000
0000
0030
,
1001
0100
0100
0100
,
1001
0100
0100
0100
,
1001
0100
0100
0100
,
1001
0100
0100
0100
,
1001
0100
1001
0010
,
1001
0100
1001
0010
,
1001
0100
1001
0010
,
1001
0100
0010
1001
,
0010
1000
0010
0000
0100
0001
0100
0000
,
0010
1000
0001
0000
0010
0001
1000
0000
,
0010
1000
0100
0000
0010
0001
0100
0000
,
0001
0100
1000
0000
0010
1000
0001
0000
,
1000
0100
0001
0000
0100
1000
0100
0000
,
0010
0001
0010
0000
1000
0010
0001
0000
,
0100
0010
1000
0000
0001
0100
1000
0000
,
0100
0010
1000
0000
0001
0100
0010
0000
,
2000
0000
0100
3000
,
0002
0000
0100
0003
,
0020
0000
0100
0030
,
1000
0100
0010
0001
,
0200
0000
0302
0000
,
2003
0000
3200
0000
,
0320
0000
0000
0030
,
0001
0100
0010
1000
,
0001
1000
0010
0001
,
1000
0100
0001
0010
,
0100
1000
0001
0010
,
1000
0000
0001
0000
0100
1000
0100
0010
,
0100
1000
0001
0000
0100
0001
1000
0000
,
0001
0010
0001
0000
1000
0010
1000
0000
,
0001
0100
0001
0100
0010
1000
0010
1000
,
0100
0010
0001
0100
0010
1000
0001
0000
,
1000
0000
0000
0100
0000
0000
0010
0000
0001
0000
0000
0100
0000
0000
0010
0000
,
1000
0000
0000
0001
0000
0000
0100
0000
0001
0000
0000
1000
0000
0000
0100
0000
,
0010
0000
0000
0001
0000
0000
0100
0000
0010
0000
0000
1000
0000
0000
0100
0000
,
0010
0000
0000
0001
0000
0000
1000
0000
0010
0000
0000
1000
0000
0000
0001
0000
,
0100
0000
0000
0010
0000
0000
0010
0000
1000
0000
0000
0100
0000
0000
0100
0000
,
0010
0000
0000
0001
0000
0000
0001
0000
0100
0000
0000
1000
0000
0000
1000
0000
,
0001
0000
0000
0010
0000
0000
0010
0000
0100
0000
0000
0001
0000
0000
0001
0000
,
1000
0000
0000
0010
0000
0000
0010
0000
0001
0000
0000
0010
0000
0000
0100
0000
,
1000
0100
0001
0000
0010
0001
0100
0000
,
0010
1000
0100
0000
0001
0100
1000
0000
,
0010
1000
0001
0000
0010
0100
1000
0000
,
0001
0100
1000
0000
0100
0001
0010
0000
,
0100
1000
0100
1000
0001
0100
0001
0100
,
0010
1000
0010
1000
0100
0010
0100
0010
,
0001
0100
0001
0100
1000
0100
1000
0100
,
0001
0010
0001
0010
1000
0010
1000
0010
,
0002
0000
0000
0000
,
2003
0000
0000
0000
,
3002
0000
0000
0000
,
0023
0000
0000
0000
,
1030
0010
0001
0100
,
1000
0100
0001
0010
,
1000
0010
1000
0000
0010
0001
0010
0000
,
0001
0100
0001
0000
1000
0100
0010
0001
,
2000
0000
3001
0100
,
0010
2000
3002
0023
,
0130
1000
0010
0100
,
0001
2000
3020
0230
,
0302
0000
0203
0000
,
2300
0000
3020
0000
,
0032
0000
1003
0100
,
0020
0000
0130
0000
,
2002
0000
0000
0000
,
0000
0000
0000
3003
;

//---------------dance-single - NewbStepper-ESP----------------
#NOTEDATA:;
#CHARTNAME:NewbStepper-ESP;
#STEPSTYPE:dance-single;
#DESCRIPTION:NewbStepper-ESP;
#DIFFICULTY:Hard;
#METER:13;
#RADARVALUES:0.517752,0.734468,0.281065,0.295858,0.351331,490,452,38,40,0,0,0,0,0,0.517752,0.734468,0.281065,0.295858,0.351331,490,452,38,40,0,0,0,0,0;
#CREDIT:NewbStepper;
#NOTES:
// measure 0
0000
0000
0000
0000
,  // measure 1
0000
0000
0000
0000
,  // measure 2
0000
0000
0000
0000
,  // measure 3
0000
0000
0000
0000
,  // measure 4
0000
0000
0010
0001
,  // measure 5
2000
0000
0000
0000
,  // measure 6
3002
0000
0203
0000
,  // measure 7
0320
0000
0000
0000
,  // measure 8
2000
0000
0000
3030
,  // measure 9
1001
0000
0000
1000
0000
0000
1000
0000
0001
0000
0000
0001
0000
0000
0001
0000
,  // measure 10
0100
0000
0000
0100
0000
0000
0100
0000
0010
0000
0000
0010
0000
0000
0010
0000
,  // measure 11
1000
0000
0000
1000
0000
0000
0100
0000
0001
0000
0000
0001
0000
0000
0100
0000
,  // measure 12
0010
0000
0000
0010
0000
0000
0001
0000
0100
0000
0000
0100
0000
0000
0010
0000
,  // measure 13
1010
0000
0000
1001
0000
0000
0011
0000
0000
0110
0000
0000
0010
0000
0001
0000
,  // measure 14
0101
0000
0000
1001
0000
0000
1100
0000
0000
0110
0000
0000
0100
0000
1000
0001
,  // measure 15
0100
0000
0000
0101
0000
0000
0011
0000
0010
0000
0000
0110
0000
0000
1100
0000
,  // measure 16
2002
0000
0000
3003
,  // measure 17
1000
0000
0000
0100
0000
0010
0001
0000
0100
0000
0000
0010
0000
1000
0100
0000
,  // measure 18
0010
0000
0000
0001
0000
0100
0010
0000
1000
0000
0000
0001
0000
0010
0100
0000
,  // measure 19
1000
0000
0000
0010
0000
0100
0001
0000
0010
0000
0000
0100
0000
1000
0001
0000
,  // measure 20
0100
0000
0000
0010
0000
1000
0100
0000
0010
0000
0000
0001
0000
1000
0010
0000
,  // measure 21
0100
0000
0000
0001
0000
1000
0010
0000
0100
0000
0000
0001
0000
0010
0100
0000
,  // measure 22
1000
0000
0000
0001
0000
0010
0100
0000
1000
0000
0000
0010
0000
0100
0001
0000
,  // measure 23
0010
0000
0000
0100
0000
1000
0010
0000
0100
0000
0000
0001
0000
0010
0100
0000
,  // measure 24
1000
0000
0000
0001
0000
0100
0010
0000
1000
0000
0000
0100
0000
0010
0100
0000
,  // measure 25
1000
0100
0001
0100
1000
0100
0010
0001
,  // measure 26
0100
1000
0100
0001
0100
0010
1000
0100
,  // measure 27
0001
0100
1000
0010
0001
1000
0100
0001
,  // measure 28
0010
0100
1000
0010
0001
0010
1000
0001
,  // measure 29
0011
0000
0000
1001
0000
0000
1010
0000
0000
0110
0000
0000
0010
0000
1000
0000
,  // measure 30
1100
0000
0000
1001
0000
0000
0101
0000
0000
0110
0000
0000
0100
0000
0001
1000
,  // measure 31
0100
0000
0000
1100
0000
0000
1010
0000
0000
0101
0000
0000
0001
0000
1000
0000
,  // measure 32
1010
0000
0000
0110
0000
0000
0101
0000
0000
0110
0000
0000
0010
0000
0100
0000
,  // measure 33
0002
0100
0100
0103
,  // measure 34
2000
0100
0100
3100
,  // measure 35
0002
0010
0010
0013
,  // measure 36
2000
0010
0010
3010
,  // measure 37
0002
0100
0023
0100
,  // measure 38
0032
0100
0013
0100
,  // measure 39
2000
0100
3020
0100
,  // measure 40
2030
0100
3010
0100
,  // measure 41
0001
1100
0010
1001
,  // measure 42
1000
0101
0010
1001
,  // measure 43
0100
1010
0100
0011
,  // measure 44
1000
0000
0001
1000
0010
0001
0010
1000
,  // measure 45
0001
0100
0001
0100
0010
1000
0010
1000
,  // measure 46
0001
0010
0100
1000
0001
0100
0010
1000
,  // measure 47
0001
0001
0100
0100
0010
0010
1000
1000
,  // measure 48
0010
0100
0010
0100
0010
0100
0010
0100
0001
1000
0001
1000
0001
1000
0001
0000
,  // measure 49
0010
0000
0000
0100
0000
1000
0010
0000
0100
0000
0000
0001
0000
1000
0100
0000
,  // measure 50
0010
0000
0000
0001
0000
0100
0010
0000
1000
0000
0000
0001
0000
0010
0100
0000
,  // measure 51
1000
0000
0000
0010
0000
0100
0001
0000
0010
0000
0000
0100
0000
1000
0001
0000
,  // measure 52
0100
0000
0000
0010
0000
1000
0100
0000
0010
0000
0000
0001
0000
1000
0100
0000
,  // measure 53
0010
0000
0000
0001
0000
0100
0010
0000
1000
0000
0000
0100
0000
0010
0001
0000
,  // measure 54
1000
0000
0000
0010
0000
0100
0001
0000
1000
0000
0000
0100
0000
0010
0001
0000
,  // measure 55
0100
0000
0000
0010
0000
1000
0001
0000
0010
0000
0000
0100
0000
1000
0010
0000
,  // measure 56
0100
0000
0000
0001
0000
1000
0100
0000
0010
0000
0000
0001
0000
0100
0001
0000
,  // measure 57
1000
0100
0001
0100
1000
0010
0100
0001
,  // measure 58
0100
1000
0100
0001
0010
0100
1000
0010
,  // measure 59
0001
1000
0100
0001
0010
1000
0010
0001
,  // measure 60
1000
0010
0001
0010
1000
0100
0010
0001
,  // measure 61
0100
1000
0001
0010
1000
0100
0001
1000
,  // measure 62
0010
0001
0100
0010
1000
0100
0001
1000
,  // measure 63
0010
0001
0100
0010
0100
1000
0100
0001
,  // measure 64
0010
1000
0010
0001
0100
1000
0001
0010
,  // measure 65
2000
0100
0000
3100
,  // measure 66
0002
0100
0000
0103
,  // measure 67
2000
0010
0000
3010
,  // measure 68
0002
0010
0000
0013
,  // measure 69
0001
0000
0100
0000
1000
0100
0001
0000
,  // measure 70
1000
0000
0100
0000
0001
0100
1000
0000
,  // measure 71
0010
1100
0010
0101
,  // measure 72
0010
0000
0001
1000
0010
0001
0010
1000
,  // measure 73
0200
0010
0001
1000
,  // measure 74
0310
0002
2003
3020
,  // measure 75
0230
0010
1000
0001
,  // measure 76
0310
2000
3002
0023
,  // measure 77
2030
0000
3002
0000
,  // measure 78
0203
0320
0032
0000
,  // measure 79
2003
0000
3020
0230
,  // measure 80
0302
1000
0010
0103
,  // measure 81
0220
0000
0000
0000
,  // measure 82
0000
0000
0000
0330
;

//---------------dance-double - NewbStepper-BDP----------------
#NOTEDATA:;
#CHARTNAME:NewbStepper-BDP;
#STEPSTYPE:dance-double;
#DESCRIPTION:NewbStepper-BDP;
#DIFFICULTY:Easy;
#METER:7;
#RADARVALUES:0.222950,0.275425,0.051775,0.207101,0,211,204,7,28,0,0,0,0,0,0.222950,0.275425,0.051775,0.207101,0,211,204,7,28,0,0,0,0,0;
#CREDIT:NewbStepper;
#NOTES:
00000000
00000000
00000000
00000000
,
00000000
00000000
00000000
00000000
,
00000000
00000000
00000000
00000000
,
00000000
00000000
00000000
00000000
,
00000000
00000000
00000000
00000000
,
00000000
00000000
00000000
00000000
,
00002002
00000000
00003003
00000000
,
00000220
00000000
00000330
00000000
,
00002002
00000000
00000000
00003003
,
00000000
00000000
00000000
00000000
,
00011000
00000000
00000000
00000000
,
00010000
00000000
01000000
00000000
,
10000000
00000000
00100000
00000000
,
20000000
00000000
00000000
30000000
,
02000000
00000000
00000000
03000000
,
00020000
00000000
00000000
00030000
,
00002000
00000000
00000000
00003000
,
00000100
00000001
00000100
00000001
,
00001000
00000010
00000001
00000010
,
00000100
00010000
00000100
00010000
,
00001000
00000010
00010000
00100000
,
10000000
01000000
00100000
00000000
,
00010000
01000000
00100000
00000000
,
10000000
01000000
00100000
00000000
,
00001000
00010000
00001000
00010000
,
01000000
10000000
01000000
10000000
,
00010000
00100000
10000000
00100000
,
01000000
00001000
01000000
00001000
,
00010000
00100000
00001000
00000010
,
00000001
00000100
00000010
00000000
,
00001000
00000100
00000010
00000000
,
00000001
00000100
00000010
00000000
,
00010000
00001000
00010000
00001000
,
00200000
00000000
00000000
00300000
,
00020000
00000000
00000000
00030000
,
20000000
00000000
00000000
30000000
,
02000000
00000000
00000000
03000000
,
00010000
00001000
00000100
00000000
,
00000010
00001000
00000100
00000000
,
00000220
00000000
00000330
00000000
,
00002002
00000000
00003003
00000000
,
00000010
00000001
00000010
00000000
,
00000100
00001000
00000100
00000000
,
00010000
00001000
00010000
00000000
,
00100000
00010000
00100000
10000000
,
01000000
10000000
00100000
01000000
,
00010000
00100000
00001000
00010000
,
00000100
00001000
00000010
00000100
,
00000001
00000000
00000000
00000000
,
00000100
00000001
00000100
00000001
,
00001000
00000010
00000001
00000010
,
00000100
00001000
00000100
00001000
,
00000001
00000010
00001000
00000010
,
00000100
00001000
00010000
00000000
,
01000000
10000000
00010000
00000000
,
01000000
00001000
00010000
00000000
,
00000010
00000001
00001000
00000100
,
00000001
00000010
00000001
00001000
,
00000010
00001000
00000100
00000010
,
00010000
00000010
00010000
00001000
,
00000010
00010000
00001000
00100000
,
00010000
01000000
10000000
01000000
,
00010000
01000000
00100000
00001000
,
00010000
00100000
00001000
00010000
,
00000010
00010000
00001000
00000100
,
00000002
00000000
00000000
00000003
,
00002000
00000000
00000000
00003000
,
00000200
00000000
00000000
00000300
,
00020000
00000000
00000000
00030000
,
00002000
00000000
00000000
00003000
,
00200000
00000000
00000000
00300000
,
00020000
00000000
00000000
00030000
,
02000000
00000000
00000000
03000000
,
00010000
01000000
00100000
10000000
,
01000000
00010000
00001000
00100000
,
00001000
00010000
00000010
00010000
,
00001000
00000010
00000001
00000100
,
00001000
00000000
00010000
00000000
,
00100000
10000000
00100000
00000000
,
01000000
00000000
00010000
01000000
,
00100000
00000000
00010000
00000000
,
00022000
00000000
00000000
00000000
,
00000000
00000000
00000000
00033000
;

//---------------dance-double - NewbStepper-DDP----------------
#NOTEDATA:;
#CHARTNAME:NewbStepper-DDP;
#STEPSTYPE:dance-double;
#DESCRIPTION:NewbStepper-DDP;
#DIFFICULTY:Medium;
#METER:10;
#RADARVALUES:0.336010,0.520248,0.014793,0.288462,0.022189,318,316,2,39,0,0,0,0,0,0.336010,0.520248,0.014793,0.288462,0.022189,318,316,2,39,0,0,0,0,0;
#CREDIT:NewbStepper;
#NOTES:
00000000
00000000
00000000
00000000
,
00000000
00000000
00000000
00000000
,
00000000
00000000
00000000
00000000
,
00000000
00000000
00000000
00000000
,
00000000
00000000
00010000
00001000
,
00200000
00000000
00000000
00000000
,
00320000
00000000
10000000
00000000
,
02030000
00000000
00000000
00000000
,
00200000
00000000
00000000
03300000
,
10010000
00000000
00000000
00000000
,
00200000
00000000
00302000
00000000
,
00023000
00000000
00030020
00000000
,
00002030
00000000
00003200
00000000
,
00000310
00000000
00000000
00000010
00000000
00000000
00000010
00000000
00000000
00000010
00000000
00000000
00001000
00000000
00010000
00000000
,
00100000
00000000
00000000
00100000
00000000
00000000
00100000
00000000
00000000
00100000
00000000
00000000
00010000
00000000
00001000
00000000
,
00000100
00000000
00000000
00000100
00000000
00000000
00000100
00000000
00000010
00000000
00000000
00000010
00000000
00000000
00000010
00000000
,
00020000
00000000
00000000
00030000
,
00001000
00000010
00000001
00000100
,
00001000
00010000
01000000
10000000
,
00010000
01000000
10000000
01000000
,
00100000
00010000
01000000
00100000
,
10000000
01000000
00010000
01000000
,
10000000
00100000
00010000
00100000
,
10000000
01000000
00010000
00001000
,
00000100
00000001
00001000
00000100
,
00000010
00000001
00000010
00000000
00000100
00001000
00000100
00000000
,
00000010
00000100
00010000
00000000
00001000
00100000
00010000
00000000
,
01000000
00010000
00100000
00000000
01000000
10000000
00100000
00000000
,
10000000
01000000
00010000
00000000
00001000
01000000
00010000
00000000
,
00100000
00001000
00010000
00000000
00001000
00000010
00000100
00000000
,
00001000
00000100
00000010
00000000
00000001
00000100
00000010
00000000
,
00000100
00001000
00010000
00000000
00001000
00010000
01000000
00000000
,
10000000
00100000
01000000
00000000
00100000
00010000
00001000
00000000
,
00000020
00000000
00000100
00000030
,
00020000
00000000
00000100
00030000
,
00002000
00000000
01000000
00003000
,
00010000
00100000
01000000
10000000
,
00020000
00000000
02030000
00000000
,
03002000
00000000
00023000
00000000
,
00030020
00000000
00000000
00000030
,
00001000
00000010
00000100
00000001
,
00001000
00000100
00000001
00000100
,
00001000
00000010
00001000
00010000
,
01000000
10000000
01000000
00010000
,
00100000
00000000
00001000
00000000
00010000
00000100
00001000
00000100
,
00010000
00000100
00000010
00000000
00000001
00000100
00000010
00000000
,
00001000
00000100
00010000
00000000
00001000
00100000
00010000
00000000
,
10000000
00100000
01000000
00010000
00100000
00001000
00010000
00000100
,
00002000
00003000
00000100
00000000
,
00000010
00000000
00000001
00000000
00001000
00000000
00000010
00000100
,
00001000
00000000
00010000
00000000
01000000
00000000
10000000
00010000
,
01000000
00000000
00100000
00000000
00010000
00000000
00001000
00000010
,
00000001
00001000
00000001
00001000
,
00000100
00000000
00010000
00000000
00100000
00000000
10000000
01000000
,
00010000
00000000
00001000
00000000
00000100
00000000
00000001
00000010
,
00000100
00010000
00001000
00100000
,
01000000
00000000
10000000
00000000
00100000
00000000
00010000
00001000
,
00000010
00000001
00000100
00000000
00000010
00001000
00000100
00000000
,
00000010
00001000
00010000
00000000
00100000
00010000
00001000
00000000
,
00100000
01000000
10000000
00000000
00100000
01000000
00010000
00000000
,
10000000
01000000
00010000
00000000
00001000
00000100
00000001
00000000
,
00000100
00000010
00000100
00000010
00001000
00000100
00001000
00000100
,
00010000
00001000
00010000
00001000
00100000
00010000
00100000
00010000
,
10000000
01000000
10000000
01000000
00010000
01000000
00010000
00001000
,
00010000
00001000
00000100
00001000
00000100
00000001
00000100
00000001
,
00002000
00000000
00000000
00000000
,
00003020
00000000
00000000
00000000
,
00020030
00000000
00000000
00000000
,
00032000
00000000
00000000
00000000
,
00013000
00100000
10000000
01000000
,
00010000
01000000
10000000
00100000
,
00010000
00001000
00010000
00000000
00001000
00000010
00001000
00000000
,
00000010
00000001
00000010
00000000
00000001
00000100
00000010
00001000
,
00000002
00000000
00001003
00000100
,
00000010
00000002
00000203
00002300
,
00013000
01000000
00100000
00010000
,
10000000
00200000
02300000
03020000
,
20030000
00000000
32000000
00000000
,
03020000
00000000
00032000
00000000
,
00003020
00000000
00000031
00000100
,
00000020
00000000
00000130
00000000
,
00002002
00000000
00000000
00000000
,
00000000
00000000
00000000
00003003
;

//---------------dance-double - NewbStepper-EDP----------------
#NOTEDATA:;
#CHARTNAME:NewbStepper-EDP;
#STEPSTYPE:dance-double;
#DESCRIPTION:NewbStepper-EDP;
#DIFFICULTY:Hard;
#METER:12;
#RADARVALUES:0.507185,0.703865,0.229290,0.362426,0.088757,480,449,31,49,0,0,0,0,0,0.507185,0.703865,0.229290,0.362426,0.088757,480,449,31,49,0,0,0,0,0;
#CREDIT:NewbStepper;
#NOTES:
00000000
00000000
00000000
00000000
,
00000000
00000000
00000000
00000000
,
00000000
00000000
00000000
00000000
,
00000000
00000000
00000000
00000000
,
00000000
00000000
00001000
00010000
,
00200000
00000000
00000000
00000000
,
20300000
00000000
30020000
00000000
,
02030000
00000000
00000000
00000000
,
00002000
00000000
00000000
03003000
,
00011000
00000000
00000000
00010000
00000000
00000000
00010000
00000000
00000010
00000000
00000000
00000010
00000000
00000000
00000010
00000000
,
00001000
00000000
00000000
00001000
00000000
00000000
00001000
00000000
00000001
00000000
00000000
00000001
00000000
00000000
00000001
00000000
,
00000100
00000000
00000000
00000100
00000000
00000000
00001000
00000000
00010000
00000000
00000000
00010000
00000000
00000000
01000000
00000000
,
00100000
00000000
00000000
00100000
00000000
00000000
00001000
00000000
00010000
00000000
00000000
00010000
00000000
00000000
00100000
00000000
,
10100000
00000000
00000000
10010000
00000000
00000000
01010000
00000000
00000000
01001000
00000000
00000000
00001000
00000000
00000100
00000000
,
00000101
00000000
00000000
00001001
00000000
00000000
00001010
00000000
00000000
00010010
00000000
00000000
00010000
00000000
00001000
00100000
,
00010000
00000000
00000000
01010000
00000000
00000000
10100000
00000000
10000000
00000000
00000000
11000000
00000000
00000000
00110000
00000000
,
20020000
00000000
00000000
30030000
,
10000000
00100000
01000000
00010000
00100000
01000000
00010000
01000000
,
00010000
00001000
00000100
00000001
00000100
00000010
00001000
00000100
,
00000010
00000001
00000100
00000010
00001000
00000100
00000010
00000001
,
00000100
00001000
00010000
01000000
00010000
00001000
00000100
00000001
,
00001000
00000100
00010000
00000100
00001000
00000010
00000100
00001000
,
00010000
00100000
10000000
01000000
00100000
00010000
01000000
00001000
,
00010000
00000100
00000010
00000001
00000100
00000010
00001000
00000001
,
00000010
00000100
00010000
00001000
00100000
00010000
10000000
10000000
,
00010000
01000000
10000000
01000000
00010000
00100000
00001000
00010000
,
00100000
01000000
00001000
00010000
01000000
00100000
00010000
00001000
,
00000100
00010000
00001000
00000010
00000100
00010000
00001000
00000100
,
00000010
00001000
00000100
00000001
00001000
00000010
00000001
00000010
,
00000011
00000000
00000000
00001001
00000000
00000000
00001100
00000000
00000000
00010100
00000000
00000000
00010000
00000000
01000000
00000000
,
11000000
00000000
00000000
10010000
00000000
00000000
00110000
00000000
00000000
00101000
00000000
00000000
00001000
00000000
00010000
00000010
,
00001000
00000000
00000000
00001100
00000000
00000000
00000101
00000000
00000000
00000110
00000000
00000000
00010000
00000000
00001000
00000000
,
00011000
00000000
00000000
01010000
00000000
00000000
11000000
00000000
00000000
01100000
00000000
00000000
00001000
00000000
00010000
00000000
,
00002000
01000000
00010000
01000000
,
00023000
00000100
00001000
00000100
,
00032000
00100000
00010000
00100000
,
00023000
00000010
00001000
00000010
,
00032000
01000000
00023000
01000000
,
00032000
01000000
00013000
00000010
,
00020000
00000100
00032000
00000100
,
00023000
00000100
00031000
00100000
,
00010000
10000000
01000000
00000000
10000000
00010000
01000000
00000000
,
00100000
00010000
00001000
00000000
00100000
01000000
00010000
00000000
,
00001000
00000100
00000010
00000000
00010000
00001000
00000010
00000000
,
00000001
00000100
00001000
00000100
00000010
00000100
00000001
00001000
,
00000100
00010000
00000100
00010000
00001000
00100000
00001000
00100000
,
00010000
01000000
00100000
10000000
01000000
00010000
00001000
00000100
,
00000001
00000100
00001000
00010000
00000010
00001000
00000001
00000100
,
00001100
00000000
00010000
00001000
,
00100000
01000000
10000000
01000000
00200000
00300000
00010000
01000000
,
00100000
00010000
00001000
00000010
00000002
00000003
00001000
00000010
,
00000100
00000001
00001000
00000100
00000020
00000030
00000001
00000100
,
00000010
00001000
00000100
00010000
00002000
00003000
00100000
00010000
,
01000000
00100000
10000000
01000000
00200000
00300000
00010000
01000000
,
00001000
00010000
01000000
00010000
00002000
00003000
00000100
00000001
,
00000010
00000100
00001000
00000010
00000200
00000300
00000001
00000010
,
00000100
00010000
00000010
00000100
00002000
00003000
00020000
00030000
,
00100000
10000000
01000000
00010000
00001000
00100000
00010000
01000000
,
10000000
00010000
00100000
01000000
00001000
00010000
00100000
00010000
,
00001000
00000010
00000100
00010000
00001000
00000010
00000100
00001000
,
00000001
00000010
00000100
00010000
00001000
00000100
00000001
00000010
,
00000100
00000001
00001000
00000010
00000100
00010000
00001000
00000100
,
00001000
00010000
01000000
10000000
00100000
00010000
00001000
00000010
,
00000001
00000100
00001000
00010000
00000100
00001000
00000010
00010000
,
00001000
00100000
00001000
00010000
00100000
10000000
01000000
00100000
,
00020000
01000000
10000000
00100000
,
00032000
00000100
00000001
00000010
,
00023000
01000000
10000000
00100000
,
00032000
00000100
00000001
00000010
,
00013000
01000000
00100000
00000000
10000000
01000000
00010000
00000000
,
00001000
00100000
00010000
00000000
01000000
00001000
00010000
00000000
,
00001000
00000010
00000001
00000100
00001000
00000100
00000001
00000010
,
00001000
00010000
00100000
10000000
01000000
00100000
00010000
00001000
,
00000200
00000001
00001000
00000010
,
00010300
00002000
00023000
00230000
,
02300000
10000000
00010000
00100000
,
03001000
00020000
00032000
00003020
,
00000032
00000000
00002003
00000000
,
00003200
00000320
00002030
00000000
,
00023000
00000000
00230000
20300000
,
30020000
00100000
10000000
01030000
,
02200000
00000000
00000000
00000000
,
00000000
00000000
00000000
03300000
;
