#TITLE:GET UP'N MOVE (20th Anniversary Mix);
#ARTIST:leeium ft. pageant boy;
#BANNER:GET UP'N MOVE (20th Anniversary Mix).png;
#BACKGROUND:GET UP'N MOVE (20th Anniversary Mix)-bg.png;
#MUSIC:GET UP'N MOVE (20th Anniversary Mix).ogg;
#OFFSET:1.7803;
#SAMPLESTART:58.22;
#SAMPLELENGTH:15;
#BPMS:0=132;

//---------------dance-single - Marten-ESP----------------
#NOTES:
     dance-single:
     Marten:
     Hard:
     12:
     0.510634,0.579529,0.275580,0.145895,0.255317,441,407,34,18,0,0,0.510634,0.579529,0.275580,0.145895,0.255317,441,407,34,18,0,0:
0000
0000
0000
0000
,
0000
0000
0000
0000
,
0000
0000
0000
0000
,
0000
0000
0000
0000
,
0000
0000
0000
0000
,
1000
1000
0001
0001
,
0100
0100
0010
0010
,
1000
0100
0010
0001
,
1000
0000
0001
0100
1000
0100
0020
0000
,
1030
0000
0100
0000
0010
0000
0100
0000
1000
0000
0001
0100
0000
0000
0100
0000
,
0001
0000
0100
0000
0010
0000
0100
0000
0001
0000
1000
0100
0000
0000
0100
0000
,
1000
0000
0010
0000
0100
0000
0010
0000
1000
0000
0001
0010
0000
0000
0010
0000
,
0001
0000
0010
0000
0100
0000
0010
0000
0001
0000
1000
0010
0000
0000
0010
0000
,
1010
0000
0000
0110
0000
0000
0101
0000
0000
0000
0001
0000
0001
0000
0000
0000
,
0011
0000
0000
0110
0000
0000
1100
0000
0000
0000
1000
0000
1000
0000
0001
0000
,
0100
0001
0100
0000
0010
0000
1000
0000
0001
0010
0001
0000
1000
0000
0100
0000
,
1000
0010
0001
0010
1000
0000
1001
0000
,
0220
0000
0000
0000
,
0000
0000
0000
0330
,
0010
1000
0100
0000
0010
0001
0100
0000
,
0001
1000
0100
0010
0001
1000
0002
0000
,
0003
0100
0001
1000
0100
1000
0001
0000
,
0010
0001
1000
0000
0010
0010
0100
0000
,
0001
0100
0010
0001
0010
0100
0001
0000
,
0000
1000
0100
0001
0100
1000
0001
0000
,
1000
0100
0010
0100
0001
0100
1000
0000
,
0001
0100
0010
0100
1000
0100
0001
0000
,
1000
0010
0100
0000
0001
0010
0100
0000
,
1000
0001
1000
0001
0100
0010
0100
0000
,
0101
0001
0010
0000
1100
1000
0010
0000
,
1000
0000
0010
0000
0100
0000
0001
1000
0000
0001
1000
0000
1001
0000
0000
0000
,
0010
0000
0001
0000
0100
0000
0000
0000
0010
1000
0010
1000
0010
0000
0000
0000
,
1000
0000
0000
0100
0000
0000
1000
0000
0000
0000
0000
0000
0001
0000
0000
0000
0000
0000
0100
0000
0000
0000
0000
0000
0010
0000
0000
0000
0100
0000
0000
0000
0010
0000
0000
0000
0100
0000
0000
0000
0000
0000
0000
0000
0000
0000
0000
0000
,
0201
0000
0000
0000
0301
0000
1000
0100
1000
0000
0000
0000
1000
0000
0000
0000
,
0020
0000
0000
0000
0130
0000
0001
0010
0001
0000
0000
0000
0001
0000
0000
0000
,
0200
0000
0000
0000
0301
0000
0010
0100
0010
0000
0000
0000
0010
0000
0000
0000
,
0200
0000
0000
0000
1300
0000
0010
1000
0010
0000
0000
0000
0200
0000
0000
0000
,
0301
0000
1000
0000
0100
0000
0001
0000
0100
0000
0000
0110
0000
0000
0011
0000
,
0000
0000
0000
1001
0000
0000
0010
0000
0000
0000
0000
0000
1000
0000
0100
0000
0010
0000
0001
0000
0000
0000
0000
0000
,
0100
0000
0001
0000
0100
0000
0010
0000
0100
0000
0000
0101
0000
0000
1010
0000
,
0000
0000
0000
1000
0000
0000
1100
0000
0000
0000
0000
0000
0001
0000
0100
0000
0010
0000
1000
0000
0000
0000
0000
0000
,
0001
0000
0100
0000
0001
0000
0010
0001
0010
0000
0100
0000
0001
0000
0100
0000
,
1000
0000
0001
0000
0100
0000
0010
1000
0010
0000
0100
0000
0001
0000
0010
0000
,
0100
0000
0010
0000
0001
0000
1000
0100
1000
0000
0010
0000
0100
0000
1000
0000
,
0100
0000
0010
0000
1000
0000
0001
0100
0001
0000
0010
0000
0100
0000
1000
0000
,
1001
0000
0000
1100
0000
0000
0110
0000
0000
0010
0001
0000
1000
0000
0000
0000
,
1001
0000
0000
0101
0000
0000
0110
0000
0000
0010
1000
0000
0001
0000
0000
0000
,
1000
0100
1000
0000
0001
0000
0100
0000
0010
1000
0010
0000
1000
0000
0001
0000
,
0020
0000
0000
0000
0000
0000
0130
0010
0100
0010
0000
0000
,
0002
0000
0000
0000
2003
0000
0000
0000
0000
3010
0100
0000
0110
0000
0000
0000
,
2010
0000
0000
0000
3001
0000
0010
0100
0010
0000
0000
0000
0010
0000
0000
0000
,
0002
0000
0000
0000
0103
0000
0010
1000
0010
0000
0000
0000
0010
0000
0000
0000
,
0200
0000
0000
0000
0301
0000
1000
0100
1000
0000
0000
0000
1000
0000
0001
0000
,
0200
0000
0000
0000
0310
0000
1000
0001
0010
0000
0000
0000
0010
0000
0000
0000
,
0200
0000
0000
0000
1300
0000
0001
0100
0010
0000
0000
0000
0010
0000
0000
0000
,
0100
0000
0001
0000
0010
0000
0000
0000
0100
1000
0100
1000
0100
0000
0000
0000
,
1000
0001
1000
0001
1000
0000
0010
0200
0000
0000
0000
0000
0310
0000
0000
0000
,
0101
0000
0001
0000
1000
0000
0100
1000
0100
0000
0010
0000
0001
0000
0100
0000
,
0001
0000
0000
1000
0000
0000
0010
0000
0000
0100
0000
0000
0001
0000
0010
0000
0100
0000
1000
0000
0000
0000
0000
0000
,
0001
0000
0100
0000
0010
0000
0001
0000
0010
0000
1000
0000
0001
0000
0010
0001
,
0010
0000
0000
0100
0000
0000
0001
0000
0000
0100
0000
0000
1000
0000
0010
0000
0100
0000
0001
0000
0000
0000
0000
0000
,
0101
0000
0000
0110
0000
0000
1010
0000
0000
1000
0001
0000
1000
0000
0100
0000
,
1100
0000
0000
0000
0000
0000
0000
0000
0000
0110
0000
0000
0000
0000
0000
0000
0000
0000
0011
0000
0000
0000
0000
0000
0001
0000
0000
0000
0100
0000
0000
0000
0010
0000
0000
0000
1000
0000
0000
0000
0000
0000
0001
0000
0000
0000
0000
0000
,
1000
0100
1000
0000
0001
0000
0100
0000
0001
0010
0001
0000
1000
0000
0100
0000
,
1000
0000
0000
0010
0000
0000
0100
0000
0000
0001
0000
0000
1000
0000
0100
0000
0010
0000
0001
0000
0000
0000
0000
0000
,
1001
0000
0000
0000
;

//---------------dance-single - Marten-DSP----------------
#NOTES:
     dance-single:
     Marten:
     Medium:
     10:
     0.407581,0.447818,0.129685,0.129685,0.129685,352,336,16,16,0,0,0.407581,0.447818,0.129685,0.129685,0.129685,352,336,16,16,0,0:
0000
0000
0000
0000
,
0000
0000
0000
0000
,
0000
0000
0000
0000
,
0000
0000
0000
0000
,
0000
0000
0000
0000
,
0001
0001
1000
1000
,
0100
0100
0010
0010
,
0001
0100
0010
1000
,
0001
0000
0100
0001
1000
0000
1001
0000
,
0010
1000
0001
0000
0100
0001
0010
0000
,
0100
1000
0001
0000
1000
0100
0010
0000
,
0001
0100
0010
0000
0100
0001
1000
0000
,
0010
1000
0100
0000
0010
0001
1000
0000
,
0101
0000
0000
0100
0000
0000
0100
0000
0000
0000
0010
0000
1000
0000
0000
0000
,
1100
0000
0000
0100
0000
0000
0100
0000
0000
0000
0010
0000
0001
0000
1000
0000
,
0010
1000
0001
0000
0010
0001
1000
0000
,
0001
0010
1000
0010
0001
0000
1001
0000
,
0220
0000
0000
0000
,
0000
0000
0000
0330
,
0100
1000
1000
0000
0010
1000
0001
0000
,
0100
0000
0100
0001
1000
0001
2000
0000
,
3000
0100
1000
0000
0001
0000
0100
0000
,
0001
0010
0100
0000
1000
0010
1010
0000
,
0100
0001
1000
0001
1000
0000
0100
0000
,
0000
0010
0001
0010
0100
1000
0001
0000
,
1000
0010
1000
0010
0100
0010
0100
0000
,
0001
0100
0001
0100
0001
1000
0001
0000
,
0010
0001
0010
0000
0100
1000
0100
0000
,
1000
0010
0100
0001
0010
0100
1000
0000
,
0001
0100
0100
0000
1000
0100
0100
0000
,
0001
0010
0100
1000
0001
1000
1001
0000
,
1000
0010
0010
0000
0001
0010
0010
0000
,
1000
0000
0000
0001
0000
0000
1000
0000
0000
0001
0000
0000
1000
0000
0001
0000
1000
0000
0001
0000
0000
0000
0000
0000
,
0102
0000
0000
0000
0013
0000
0001
0100
0000
0000
0000
0000
0100
0000
0000
0000
,
0020
0000
0000
0000
1030
0000
0001
1000
0000
0000
0000
0000
0100
0000
0000
0000
,
0020
0000
0000
0000
0031
0000
1000
0100
0000
0000
0000
0000
1000
0000
0000
0000
,
0020
0000
0000
0000
0130
0000
0001
1000
0000
0000
0000
0000
0002
0000
0000
0000
,
1003
0000
0100
0000
1000
0000
0001
0000
1000
0000
0000
0010
0000
0000
0100
0000
,
0000
0000
0000
0001
0000
0000
0001
0000
0000
0000
0000
0000
1000
0000
0001
0000
1000
0000
0001
0000
0000
0000
0000
0000
,
1000
0000
0010
0000
0100
0000
0000
0000
0001
0000
0000
1000
0000
0000
1001
0000
,
0000
0000
0000
0001
0000
0000
0100
0000
0000
0000
0000
0000
0001
0000
1000
0000
0001
0000
1000
0000
0000
0000
0000
0000
,
0100
1000
0100
0010
0001
0000
0100
0000
,
0001
0100
0001
1000
0010
0000
0100
0000
,
0001
0010
0001
1000
0100
0000
1000
0000
,
0001
0100
0001
0010
0001
0000
0100
0000
,
1010
0000
0000
0010
0000
0000
0010
0000
0000
0000
1000
0000
0100
0000
0000
0000
,
0011
0000
0000
0010
0000
0000
0010
0000
0000
0000
0001
0000
0100
0000
0001
0000
,
1000
0001
0010
0000
0001
1000
0010
0000
,
2002
0000
0000
3003
0000
0000
1000
0001
1000
0001
0000
0000
,
0200
0000
0000
0000
0000
0010
0310
0000
,
2000
0000
0000
0000
3001
0000
0100
0001
0000
0000
0000
0000
0010
0000
0000
0000
,
0200
0000
0000
0000
1300
0000
0001
0100
0000
0000
0000
0000
0100
0000
0000
0000
,
0020
0000
0000
0000
1030
0000
0001
1000
0000
0000
0000
0000
0001
0000
0010
0000
,
0002
0000
0000
0000
0103
0000
0001
0010
0000
0000
0000
0000
0100
0000
0000
0000
,
2000
0000
0000
0000
3100
0000
1000
0010
0000
0000
0000
0000
0100
0000
0000
0000
,
0010
1000
0001
0000
0010
0010
0010
0000
,
0001
0000
0010
0000
0100
0000
1000
0001
0000
0000
0000
0000
1001
0000
0000
0000
,
0001
0100
0001
1000
0001
0010
0001
0000
,
1000
0000
0000
0100
0000
0000
1000
0000
0000
0001
0000
0000
1000
0000
0001
0000
1000
0000
0001
0000
0000
0000
0000
0000
,
0100
0001
0100
0000
0010
1000
0010
0000
,
1000
0000
0000
0001
0000
0000
1000
0001
1000
0001
0000
0000
,
1001
0000
0000
0001
0000
0000
1000
0000
0000
0000
0010
0000
0100
0000
0000
0000
,
0110
0000
0000
0100
0000
0000
0010
0000
0000
0000
1000
0000
0001
0000
0010
0000
,
0001
0100
0001
0000
1000
0100
1000
0000
,
0001
0000
0000
1000
0000
0000
0010
0100
0010
0100
0000
0000
,
0110
0000
0000
0000
;

//---------------dance-single - Marten-BSP----------------
#NOTES:
     dance-single:
     Marten:
     Easy:
     6:
     0.274422,0.316107,0.194527,0.162106,0.008105,237,213,24,20,0,0,0.274422,0.316107,0.194527,0.162106,0.008105,237,213,24,20,0,0:
0000
0000
0000
0000
,
0000
0000
0000
0000
,
0000
0000
0000
0000
,
0000
0000
0000
0000
,
0000
0000
0000
0000
,
1000
0001
0100
0100
,
0001
1000
0100
0100
,
1000
0001
0010
0010
,
0001
1000
1001
0000
,
0010
1000
0100
1000
,
0010
0100
0001
0010
,
0001
1000
0100
1000
,
0001
0100
0010
1000
,
1001
0000
0000
0000
0000
1000
1000
0000
,
1001
0000
0000
0000
0000
0001
0001
0000
,
1000
0100
0001
0100
,
1000
0001
1001
0110
,
2002
0000
0000
0000
,
0000
0000
0000
3003
,
0001
0001
0010
0010
,
0001
1000
0100
0200
,
0300
1000
0010
1000
,
0001
0100
0010
0000
,
1000
0100
0001
0100
,
1000
0001
1000
0000
,
0010
1000
0100
0000
,
0010
0001
1000
0000
,
0010
0010
1000
1000
,
0001
1000
1001
0000
,
0001
0001
0001
0000
1000
1000
1000
0000
,
0001
1000
1001
0000
,
0010
0010
0100
0100
,
0001
1000
0220
0330
,
0001
0100
1000
0100
,
0001
0100
1000
0100
,
0001
0010
1000
0010
,
0001
0010
1000
0010
,
0110
0000
0000
0000
1001
0000
0000
0000
0001
0000
0000
0001
0000
0000
0001
0000
,
0000
1000
1000
0000
0020
0000
0030
0000
,
0100
0000
0000
0000
0001
0000
0000
0000
1000
0000
0000
1000
0000
0000
1000
0000
,
0000
0001
0001
0000
2002
0000
3003
0000
,
1000
0100
0001
0100
,
1000
0100
0001
0100
,
1000
0010
0001
0010
,
1000
0010
0001
0010
,
1001
0000
0000
0000
0000
0001
0001
0000
,
1001
0000
0000
0000
0000
1000
1000
0000
,
0001
0001
1000
1000
,
2002
0000
0000
3003
,
0020
0000
0000
0130
,
0001
1000
0100
0100
,
1000
0001
0100
0100
,
0001
0010
0100
1000
,
0001
0010
1000
0010
,
0001
0100
1000
0100
,
0001
1001
1000
1001
,
0001
1000
2002
3003
,
0001
0100
1000
0100
,
0001
0100
2002
3003
,
1000
0010
0100
0001
,
1000
0001
2002
3003
,
1000
0100
0001
0100
,
1000
0100
2002
3003
,
0001
0010
0100
1000
,
0002
0003
1001
0110
,
1001
0000
0000
0000
;

//---------------dance-single - Marten-bSP----------------
#NOTES:
     dance-single:
     Marten:
     Beginner:
     3:
     0.163264,0.237080,0.081053,0.089158,0,141,131,10,11,0,0,0.163264,0.237080,0.081053,0.089158,0,141,131,10,11,0,0:
0000
0000
0000
0000
,
0000
0000
0000
0000
,
0000
0000
0000
0000
,
0000
0000
0000
0000
,
0000
0000
0000
0000
,
0001
0000
0001
0000
,
1000
0000
1000
0000
,
0010
0000
0010
0000
,
0110
0000
0000
1001
,
0001
0000
1000
0000
,
0001
0000
1000
0000
,
0100
0000
0010
0000
,
0100
0000
0010
0000
,
0001
0000
0000
1000
,
1000
0000
0000
0001
,
0001
0000
1000
0000
,
1001
0000
0010
0000
,
2002
0000
0000
0000
,
0000
0000
0000
3003
,
0220
0000
0000
0000
,
0000
0000
0000
0330
,
0000
0001
0000
0001
,
0000
1000
0000
1000
,
0000
0001
0000
1000
,
0000
0001
0000
1000
,
1000
0000
0100
0000
,
0001
0000
0100
0000
,
1000
0000
0010
0000
,
0001
0000
0010
0000
,
1000
1000
1000
0000
,
0001
0001
0001
0000
,
2000
3000
0002
0003
,
0220
0000
0000
0330
,
0001
0001
0100
0000
,
1000
1000
0100
0000
,
0001
0001
0010
0000
,
1000
1000
0010
0000
,
0001
0000
1000
0000
,
0001
0000
0100
0000
,
0010
0000
1000
0000
,
1001
0000
1000
1001
,
1000
0000
0001
0001
,
0001
0000
0100
0000
,
0010
0000
1000
1000
,
1000
0000
0001
0000
,
1000
1000
0100
0000
,
0001
0001
0100
0000
,
1000
0000
0001
0000
,
2002
0000
0000
3003
,
0020
0000
0030
0010
,
1000
0000
0001
0000
,
0010
0000
0100
0000
,
0010
0010
0010
0000
,
0001
0000
1000
0000
,
0010
0000
0100
0000
,
0001
0001
0001
0000
,
1000
1000
1000
0000
,
0001
0000
0100
0000
,
1000
0000
0100
0000
,
0001
0001
0010
0000
,
1000
1000
0010
0000
,
0001
0000
1000
0000
,
0001
0000
1000
0000
,
0010
0010
0010
0000
,
0100
0100
0100
0000
,
1001
0000
0000
0000
;

//---------------dance-double - NewbStepper-EDP----------------
#NOTES:
     dance-double:
     NewbStepper:
     Hard:
     12:
     0.488634,0.553187,0.170211,0.129685,0.210738,422,401,21,16,0,0,0.488634,0.553187,0.170211,0.129685,0.210738,422,401,21,16,0,0:
// measure 0
00000000
00000000
00000000
00000000
,  // measure 1
00000000
00000000
00000000
00000000
,  // measure 2
00000000
00000000
00000000
00000000
,  // measure 3
00000000
00000000
00000000
00000000
,  // measure 4
00000000
00000000
00000000
00000000
,  // measure 5
10000000
10000000
00010000
00010000
,  // measure 6
01000000
01000000
00001000
00001000
,  // measure 7
00010000
00001000
00000100
00000010
,  // measure 8
00000001
00000000
00000010
00001000
00000100
00000010
00000002
00000000
,  // measure 9
00001003
00000000
00000100
00000000
00000010
00000000
00000100
00000000
00010000
00000000
00001000
00010000
00000000
00000000
00100000
00000000
,  // measure 10
00010000
00000000
00100000
00000000
01000000
00000000
00001000
00000000
00100000
00000000
00010000
10000000
00000000
00000000
10000000
00000000
,  // measure 11
00010000
00000000
01000000
00000000
00100000
00000000
01000000
00000000
00001000
00000000
00010000
00001000
00000000
00000000
00000010
00000000
,  // measure 12
00001000
00000000
00000010
00000000
00000100
00000000
00010000
00000000
00000010
00000000
00001000
00000001
00000000
00000000
00000100
00000000
,  // measure 13
00000110
00000000
00000000
00000001
00000000
00000000
00000100
00000000
00001000
00000000
00010000
00000000
01000000
00000000
00000000
00000000
,  // measure 14
01100000
00000000
00000000
10000000
00000000
00000000
01000000
00000000
00010000
00000000
00001000
00000000
00000100
00000000
00000000
00000000
,  // measure 15
00000001
00000100
00000001
00000000
00000010
00000000
00000100
00000000
00001000
00000100
00001000
00000000
00000010
00000000
00010000
00000000
,  // measure 16
00001000
00000010
00001000
00010000
00100000
00000000
01100000
00000000
,  // measure 17
20020000
00000000
00000000
00000000
,  // measure 18
00000000
00000000
00000000
30030000
,  // measure 19
00100000
10000000
01000000
00000000
00100000
00010000
01000000
00000000
,  // measure 20
00001000
00010000
01000000
00100000
00001000
00010000
00002000
00000000
,  // measure 21
00003000
00000100
00000001
00001000
00000100
00001000
00000001
00000000
,  // measure 22
00000010
00000001
00001000
00000000
00000100
00000100
00010000
00000000
,  // measure 23
00001000
01000000
00100000
00010000
00001000
01000000
00100000
00000000
,  // measure 24
00000000
10000000
01000000
00010000
00001000
00000100
00000001
00000000
,  // measure 25
00000010
00000100
00010000
00001000
00000010
00001000
00010000
00000000
,  // measure 26
00100000
01000000
00001000
00010000
00100000
00010000
00001000
00000000
,  // measure 27
01000000
00010000
00100000
00000000
00010000
10000000
00100000
00000000
,  // measure 28
01000000
00001000
01000000
00001000
00010000
00000100
00010000
00000000
,  // measure 29
00010100
00010000
00000010
00000000
01001000
00001000
00100000
00000000
,  // measure 30
00010000
10000000
00100000
00010000
00001000
00000010
00000001
00000000
,  // measure 31
00000100
00000000
00000001
00000000
00000010
00000000
00000000
00000000
00000100
00010000
00000100
00010000
00000100
00000000
00000000
00000000
,  // measure 32
00010000
00001000
00010000
00000000
00001000
00000000
01000000
00000000
00100000
00000000
00000000
00000000
10010000
00000000
00000000
00000000
,  // measure 33
00000000
00000000
11000000
00000000
00000000
00000000
01000000
00010000
00000000
00000000
00002000
00000000
00000000
00000000
00003000
00000000
,  // measure 34
00000000
00000000
00000101
00000000
00000000
00000000
00000100
00001000
00000000
00000000
00020000
00000000
00000000
00000000
00030000
00000000
,  // measure 35
00000000
00000000
10100000
00000000
00000000
00000000
00100000
00010000
00000000
00000000
00002000
00000000
00000000
00000000
00003000
00000000
,  // measure 36
00000000
00000000
00000011
00000000
00000000
00000000
00000010
00001000
00000000
00000000
00020000
00000000
00000000
00000000
00030000
00000000
,  // measure 37
00000000
00100000
10000000
01000000
00010000
00011000
00000000
00000010
,  // measure 38
00000001
00000000
00000000
00000100
00000000
00000000
00001000
00000000
00000000
00000000
00000000
00000000
00001000
00000000
00010000
00000000
00100000
00000000
01000000
00000000
00000000
00000000
00000000
00000000
,  // measure 39
00001000
00100000
00010000
00100000
00001000
00010000
00100000
10000000
,  // measure 40
00000000
00000000
00000000
01000000
00000000
00000000
00010000
00000000
00000000
00000000
00000000
00000000
00010000
00000000
00001000
00000000
00000010
00000000
00000100
00000000
00000000
00000000
00000000
00000000
,  // measure 41
00001000
00000000
00000001
00000000
00000100
00000000
00000010
00010000
00000010
00000000
00000100
00000000
00001000
00000000
01000000
00000000
,  // measure 42
00010000
00000000
10000000
00000000
01000000
00000000
00100000
00001000
00100000
00000000
01000000
00000000
00010000
00000000
00000100
00000000
,  // measure 43
00001000
00000000
00000001
00000000
00000010
00000000
00000100
00010000
00000100
00000000
00000010
00000000
00001000
00000000
00100000
00000000
,  // measure 44
00010000
00000000
10000000
00000000
00100000
00000000
01000000
00001000
01000000
00000000
00100000
00000000
00010000
00000000
00000010
00000000
,  // measure 45
00001010
00000000
00001000
00000100
00000000
00001000
00000100
00000000
00000000
00000000
00010000
00000000
00011000
00000000
00000000
00000000
,  // measure 46
00110000
00000000
00010000
01000000
00000000
00010000
01000000
00000000
00000000
00000000
00001000
00000000
00011000
00000000
00000000
00000000
,  // measure 47
00010000
00001000
00010000
00000000
00001000
00000000
01000000
00000000
00001000
00010000
00001000
00000000
00010000
00000000
00000100
00000000
,  // measure 48
00000020
00000000
00000000
00000000
00000000
00000000
00000130
00000010
00000100
00000010
00000000
00000000
,  // measure 49
00000002
00000000
00002003
00000000
00003010
00010000
00100000
00000000
,  // measure 50
20000000
00000000
30020000
00000000
00130000
00001000
00000010
00000000
,  // measure 51
00000001
00000000
00000100
00000000
00001000
00000000
00010000
00001000
00010000
00000000
00100000
00000000
10000000
00000000
00000000
00000000
,  // measure 52
10000000
00000000
01000000
00000000
00010000
00000000
00001000
00010000
00001000
00000000
00000010
00000000
00000001
00000000
00000000
00000000
,  // measure 53
00002000
00000000
00000000
00000000
00003001
00000000
00000010
00000100
00001000
00000000
00001000
00000000
00000010
00000000
00000000
00000000
,  // measure 54
00020000
00000000
00000000
00000000
00031000
00000000
00100000
00001000
00010000
00000000
00100000
00000000
10000000
00000000
00000000
00000000
,  // measure 55
01000000
00000000
10000000
00000000
00100000
00000000
00000000
00000000
01000000
00010000
01000000
00010000
01000000
00000000
00000000
00000000
,  // measure 56
00001000
00010000
00001000
00010000
00001000
00000000
00000010
00000200
00000000
00000000
00000000
00000000
00000310
00000000
00000000
00000000
,  // measure 57
00000011
00000000
00000001
00000000
00000100
00000000
00000010
00010000
00000010
00000000
00000100
00000000
00001000
00000000
00010000
00000000
,  // measure 58
01000000
00000000
00000000
10000000
00000000
00000000
01000000
00000000
00000000
00100000
00000000
00000000
00010000
00000000
01000000
00000000
00100000
00000000
10000000
00000000
00000000
00000000
00000000
00000000
,  // measure 59
10100000
00000000
10000000
00000000
01000000
00000000
00100000
00001000
00100000
00000000
01000000
00000000
00010000
00000000
00001000
00000000
,  // measure 60
00000100
00000000
00000000
00000001
00000000
00000000
00000100
00000000
00000000
00000010
00000000
00000000
00001000
00000000
00000100
00000000
00000010
00000000
00000001
00000000
00000000
00000000
00000000
00000000
,  // measure 61
00000110
00000000
00000000
00000001
00000000
00000000
00000100
00000000
00001000
00000000
00010000
00000000
01000000
00000000
00000000
00000000
,  // measure 62
01100000
00000000
00000000
10000000
00000000
00000000
01000000
00000000
00010000
00000000
00001000
00000000
00000100
00000000
00000000
00000000
,  // measure 63
00000001
00000100
00000001
00000000
00000010
00000000
00000100
00000000
00001000
00000100
00001000
00000000
00000010
00000000
00010000
00000000
,  // measure 64
00001000
00000000
00000000
00000010
00000000
00000000
00001000
00000000
00000000
00010000
00000000
00000000
00100000
00000000
01000000
00000000
00010000
00000000
00100000
00000000
00000000
00000000
00000000
00000000
,  // measure 65
10010000
00000000
00000000
00000000
;

//---------------dance-double - NewbStepper-DDP----------------
#NOTES:
     dance-double:
     NewbStepper:
     Medium:
     10:
     0.408739,0.447818,0.154001,0.105369,0.101316,353,334,19,13,0,0,0.408739,0.447818,0.154001,0.105369,0.101316,353,334,19,13,0,0:
// measure 0
00000000
00000000
00000000
00000000
,  // measure 1
00000000
00000000
00000000
00000000
,  // measure 2
00000000
00000000
00000000
00000000
,  // measure 3
00000000
00000000
00000000
00000000
,  // measure 4
00000000
00000000
00000000
00000000
,  // measure 5
00000001
00000001
00001000
00001000
,  // measure 6
00000100
00000100
00010000
00010000
,  // measure 7
00001000
01000000
00100000
10000000
,  // measure 8
00010000
00000000
01000000
00001000
00010000
00000000
00011000
00000000
,  // measure 9
00000010
00001000
00000001
00000000
00000100
00001000
00010000
00000000
,  // measure 10
00001000
00100000
00010000
00000000
10000000
00100000
01000000
00000000
,  // measure 11
00010000
01000000
00001000
00000000
00010000
00000010
00001000
00000000
,  // measure 12
00000001
00000100
00001000
00000000
00010000
01000000
10000000
00000000
,  // measure 13
11000000
00000000
00000000
01000000
00000000
00000000
01000000
00000000
00000000
00000000
00010000
00000000
00001000
00000000
00000000
00000000
,  // measure 14
00000101
00000000
00000000
00000100
00000000
00000000
00000100
00000000
00000000
00000000
00001000
00000000
00010000
00000000
00100000
00000000
,  // measure 15
10000000
00010000
01000000
00000000
00010000
10000000
01000000
00000000
,  // measure 16
00010000
00001000
00000010
00000100
00000010
00000000
00000110
00000000
,  // measure 17
00002002
00000000
00000000
00000000
,  // measure 18
00000000
00000000
00000000
00003003
,  // measure 19
00000100
00000001
00000001
00000000
00000010
00000001
00001000
00000000
,  // measure 20
00000100
00000000
00000100
00010000
00001000
00010000
02000000
00000000
,  // measure 21
03000000
00100000
00010000
00000000
10000000
00000000
01000000
00000000
,  // measure 22
00010000
00001000
00010000
00000000
00000010
00001000
00001010
00000000
,  // measure 23
00000100
00000001
00001000
00000001
00001000
00000000
00000100
00000000
,  // measure 24
00000000
00000010
00000100
00010000
00001000
00100000
00010000
00000000
,  // measure 25
10000000
00100000
10000000
00100000
01000000
00010000
01000000
00000000
,  // measure 26
00001000
00010000
00001000
00010000
00000100
00000010
00000100
00000000
,  // measure 27
00000010
00000001
00000010
00000000
00000100
00001000
00000100
00000000
,  // measure 28
00000010
00001000
00010000
00001000
00010000
00100000
10000000
00000000
,  // measure 29
00010000
01000000
01000000
00000000
10000000
01000000
01000000
00000000
,  // measure 30
00010000
00100000
00001000
00010000
00000100
00000010
00000110
00000000
,  // measure 31
00001000
00000100
00000100
00000000
00000001
00000100
00000100
00000000
,  // measure 32
00001000
00000010
00010000
00001000
00100000
00000000
01100000
00000000
,  // measure 33
20010000
00000000
00000000
00000000
30100000
00000000
00010000
00001000
00000000
00000000
00000000
00000000
00000010
00000000
00000000
00000000
,  // measure 34
00001002
00000000
00000000
00000000
00000013
00000000
00001000
00010000
00000000
00000000
00000000
00000000
00100000
00000000
00000000
00000000
,  // measure 35
20010000
00000000
00000000
00000000
31000000
00000000
00010000
00001000
00000000
00000000
00000000
00000000
00000100
00000000
00000000
00000000
,  // measure 36
00001002
00000000
00000000
00000000
00000103
00000000
00001000
00010000
00000000
00000000
00000000
00000000
01000000
00000000
00000000
00000000
,  // measure 37
10000000
00000000
01000000
00000000
10000000
00000000
00010000
00000000
10000000
00000000
00000000
00100000
00000000
00000000
01000000
00000000
,  // measure 38
00000000
00000000
00000000
00001000
00000000
00000000
00001000
00000000
00000000
00000000
00000000
00000000
00010000
00000000
00001000
00000000
00010000
00000000
00001000
00000000
00000000
00000000
00000000
00000000
,  // measure 39
00000100
00000000
00000001
00000000
00001000
00000000
00000000
00000000
00000001
00000000
00000000
00000010
00000000
00000000
00000100
00000000
,  // measure 40
00000000
00000000
00000000
00010000
00000000
00000000
00010000
00000000
00000000
00000000
00000000
00000000
00001000
00000000
00010000
00000000
00001000
00000000
00010000
00000000
00000000
00000000
00000000
00000000
,  // measure 41
01000000
10000000
01000000
00100000
01000000
00010000
00001000
00000000
,  // measure 42
00000100
00000001
00000100
00000010
00000100
00001000
00010000
00000000
,  // measure 43
00100000
10000000
00100000
01000000
00100000
00010000
00001000
00000000
,  // measure 44
00000010
00000001
00000010
00000100
00000010
00001000
00010000
00000000
,  // measure 45
10100000
00000000
00000000
00100000
00000000
00000000
00100000
00000000
00000000
00000000
00010000
00000000
00001000
00000000
00000000
00000000
,  // measure 46
00000011
00000000
00000000
00000010
00000000
00000000
00000010
00000000
00000000
00000000
00001000
00000000
00010000
00000000
00000000
00000000
,  // measure 47
00001000
01000000
00001000
00000000
00010000
00000100
00010000
00000000
,  // measure 48
00022000
00000000
00000000
00033000
00000000
00000000
00001000
00010000
00001000
00010000
00000000
00000000
,  // measure 49
02000000
00000000
00000000
00000000
00000000
00100000
03100000
00000000
,  // measure 50
00001000
00000000
00010000
00000000
00001000
00000100
00000001
00000000
,  // measure 51
00000200
00000000
00000000
00000000
00000000
00000010
00000310
00000000
,  // measure 52
00010000
00000000
00001000
00000000
00010000
01000000
10000000
00000000
,  // measure 53
00200000
00000000
10300000
00000000
01000000
00010000
00001000
00000000
,  // measure 54
00000020
00000000
00000031
00000000
00000100
00001000
00010000
00000000
,  // measure 55
00100000
10000000
00100000
00000000
01000000
00010000
01000000
00000000
,  // measure 56
00001000
00000000
00010000
00000000
00001000
00000000
00010000
00000010
00000000
00000000
00000000
00000000
00000110
00000000
00000000
00000000
,  // measure 57
00000001
00000100
00000001
00001000
00000100
00010000
00001000
00000000
,  // measure 58
00100000
00000000
00000000
00010000
00000000
00000000
00100000
00000000
00000000
01000000
00000000
00000000
10000000
00000000
00010000
00000000
10000000
00000000
00010000
00000000
00000000
00000000
00000000
00000000
,  // measure 59
00100000
00001000
00100000
00000000
00001000
00010000
00001000
00000000
,  // measure 60
00000010
00000000
00000000
00000001
00000000
00000000
00001000
00000001
00001000
00000001
00000000
00000000
,  // measure 61
00000101
00000000
00000000
00000100
00000000
00000000
00000100
00000000
00000000
00000000
00001000
00000000
00010000
00000000
00000000
00000000
,  // measure 62
11000000
00000000
00000000
01000000
00000000
00000000
01000000
00000000
00000000
00000000
00010000
00000000
00001000
00000000
00000010
00000000
,  // measure 63
00000001
00001000
00000100
00000000
00001000
00000001
00000100
00000000
,  // measure 64
00001000
00000000
00000000
00010000
00000000
00000000
00100000
01000000
00100000
01000000
00000000
00000000
,  // measure 65
01100000
00000000
00000000
00000000
;

//---------------dance-double - NewbStepper-BDP----------------
#NOTES:
     dance-double:
     NewbStepper:
     Easy:
     6:
     0.272107,0.342449,0.178317,0.170211,0.008105,235,213,22,21,0,0,0.272107,0.342449,0.178317,0.170211,0.008105,235,213,22,21,0,0:
// measure 0
00000000
00000000
00000000
00000000
,  // measure 1
00000000
00000000
00000000
00000000
,  // measure 2
00000000
00000000
00000000
00000000
,  // measure 3
00000000
00000000
00000000
00000000
,  // measure 4
00000000
00000000
00000000
00000000
,  // measure 5
00001000
00010000
00000100
00000100
,  // measure 6
00010000
00001000
01000000
01000000
,  // measure 7
00001000
00010000
00000010
00000010
,  // measure 8
00010000
00001000
00011000
00000000
,  // measure 9
00100000
10000000
01000000
10000000
,  // measure 10
00100000
01000000
00010000
00100000
,  // measure 11
00001000
00010000
00000100
00001000
,  // measure 12
00000001
00000100
00000010
00001000
,  // measure 13
00001001
00000000
00000000
00000000
00000000
00010000
00010000
00000000
,  // measure 14
00011000
00000000
00000000
00000000
00000000
10000000
10000000
00000000
,  // measure 15
00010000
01000000
10000000
01000000
,  // measure 16
00010000
00100000
00001000
00011000
,  // measure 17
00022000
00000000
00000000
00000000
,  // measure 18
00000000
00000000
00000000
00033000
,  // measure 19
00010000
00010000
00001000
00001000
,  // measure 20
00000010
00000100
00001000
00002000
,  // measure 21
00003000
00000001
00000010
00000001
,  // measure 22
00001000
00000100
00010000
00000000
,  // measure 23
00001000
00100000
01000000
00100000
,  // measure 24
00001000
00010000
00001000
00000000
,  // measure 25
00010000
00001000
00000010
00000000
,  // measure 26
00001000
00010000
00100000
00000000
,  // measure 27
10000000
10000000
00010000
00010000
,  // measure 28
01000000
00100000
01100000
00000000
,  // measure 29
00010000
00010000
00010000
00000000
00001000
00001000
00001000
00000000
,  // measure 30
00000100
00000010
00000110
00000000
,  // measure 31
00000100
00000100
00000001
00000001
,  // measure 32
00001000
00000001
00002002
00003003
,  // measure 33
00000001
00000100
00001000
00000100
,  // measure 34
00000001
00000100
00001000
00010000
,  // measure 35
01000000
10000000
01000000
00010000
,  // measure 36
01000000
10000000
00100000
00010000
,  // measure 37
00011000
00000000
00000000
00000000
00011000
00000000
00000000
00000000
00001000
00000000
00000000
00001000
00000000
00000000
00001000
00000000
,  // measure 38
00000000
00000010
00000010
00000000
00000220
00000000
00000330
00000000
,  // measure 39
00000010
00000000
00000000
00000000
00001000
00000000
00000000
00000000
00010000
00000000
00000000
00010000
00000000
00000000
00010000
00000000
,  // measure 40
00000000
00100000
00100000
00000000
02200000
00000000
03300000
00000000
,  // measure 41
10000000
01000000
00010000
01000000
,  // measure 42
10000000
01000000
00010000
00001000
,  // measure 43
00000100
00000001
00000010
00001000
,  // measure 44
00010000
00100000
10000000
00010000
,  // measure 45
10010000
00000000
00000000
00000000
00000000
00001000
00001000
00000000
,  // measure 46
00011000
00000000
00000000
00000000
00000000
00000001
00000001
00000000
,  // measure 47
00001000
00001000
00000001
00000001
,  // measure 48
00002002
00000000
00000000
00003003
,  // measure 49
00000020
00000000
00000000
00001030
,  // measure 50
00010000
00001000
01000000
01000000
,  // measure 51
00001000
00010000
00000100
00000100
,  // measure 52
00010000
00001000
00000010
00001000
,  // measure 53
00010000
00100000
10000000
00100000
,  // measure 54
00010000
00001000
00000100
00000001
,  // measure 55
00001000
00000001
00000100
00001000
,  // measure 56
00010000
00001000
00022000
00033000
,  // measure 57
00010000
01000000
10000000
01000000
,  // measure 58
00010000
00001000
00022000
00033000
,  // measure 59
00001000
00000100
00000001
00000100
,  // measure 60
00001000
00010000
00022000
00033000
,  // measure 61
00010000
00100000
10000000
00100000
,  // measure 62
00010000
00001000
00022000
00033000
,  // measure 63
00001000
00000010
00000001
00000010
,  // measure 64
00002000
00003000
00011000
00011000
,  // measure 65
00011000
00000000
00000000
00000000
;
