#VERSION:0.83;
#TITLE:G;
#ARTIST:Dynamite Grizzly;
#BANNER:G.png;
#BACKGROUND:G-bg.png;
#JACKET:G-jacket.png;
#MUSIC:G.ogg;
#OFFSET:-0.001;
#SAMPLESTART:78.368;
#SAMPLELENGTH:15;
#BPMS:0=147;

//---------------dance-single - RIME-bSP----------------
#NOTEDATA:;
#CHARTNAME:RIME-bSP;
#STEPSTYPE:dance-single;
#DESCRIPTION:RIME-bSP;
#DIFFICULTY:Beginner;
#METER:3;
#CREDIT:RIME;
#NOTES:
0000
0000
0000
0000
,
0000
0000
0000
0000
,
0000
0000
0000
0000
,
0000
0000
0000
0000
,
1000
0000
0000
0000
,
0001
0000
0000
0000
,
1000
0000
0000
0000
,
0001
0001
0001
0001
,
0001
0000
0000
0000
,
0010
0000
0000
0000
,
0100
0000
0000
0000
,
1000
0000
0000
0000
,
0010
0000
0000
0000
,
0100
0000
0000
0000
,
0001
0000
0000
0000
,
2000
0000
0000
0000
,
3001
0000
0001
0000
,
0001
0000
0000
0000
,
1000
0000
1000
0000
,
1000
0000
0000
0000
,
0010
0000
0010
0000
,
0010
0000
0000
0000
,
0100
0000
0100
0000
,
0100
0000
0000
0000
,
0001
0000
0010
0000
,
0001
0000
0000
0000
,
1000
0000
0010
0000
,
1000
0000
0000
0000
,
0001
0000
0100
0000
,
0001
0000
0000
0000
,
1000
0000
0100
0000
,
1000
1000
1000
1000
,
2000
0000
0000
0000
,
3020
0000
0000
0000
,
0230
0000
0000
0000
,
0302
0000
0000
0000
,
2003
0000
0000
0000
,
3200
0000
0000
0000
,
0320
0000
0000
0000
,
0032
0000
0000
0000
,
1003
0000
1000
0000
,
1000
0000
0000
0000
,
0001
0000
0001
0000
,
0001
0000
0000
0000
,
0010
0000
0010
0000
,
0010
0000
0000
0000
,
0100
0000
0100
0000
,
0100
0100
0100
0100
,
0100
0000
1000
0000
,
0100
0000
1000
0000
,
0001
0000
0100
0000
,
0001
0000
0100
0000
,
0010
0000
1000
0000
,
0010
0000
1000
0000
,
0001
0000
0010
0000
,
0001
0000
0010
0000
,
0100
0000
0010
0000
,
0100
0000
0010
0000
,
0001
0000
1000
0000
,
0001
0000
1000
0000
,
0010
0000
1000
0000
,
0010
0000
1000
0000
,
0001
0000
0100
0000
,
0001
0001
0001
0001
,
2002
0000
0000
0000
,
0000
0000
0000
0000
,
3003
0000
0000
0000
;

//---------------dance-single - RIME-BSP----------------
#NOTEDATA:;
#CHARTNAME:RIME-BSP;
#STEPSTYPE:dance-single;
#DESCRIPTION:RIME-BSP;
#DIFFICULTY:Easy;
#METER:7;
#CREDIT:RIME;
#NOTES:
0000
0000
0000
0000
,
0000
0000
0000
0000
,
0000
0000
0000
0000
,
0000
0000
0000
0000
,
0010
1000
0001
0000
,
0010
0001
1000
0000
,
0100
1000
0001
0000
,
0100
0001
1000
0001
,
0010
0100
2000
0001
,
0010
0001
0010
3001
,
0002
0100
0100
0100
,
1000
1000
1000
1003
,
0001
0010
0100
1000
,
0020
0100
0100
0130
,
0110
0010
1000
0001
,
2000
0000
0000
0000
,
3001
1000
0100
0010
,
0001
0100
0010
1000
,
0100
0010
0100
1000
,
0010
0100
0010
1000
,
0100
0010
0001
1000
,
0001
0100
0010
1000
,
0001
0010
0100
0010
,
0001
0100
0010
0100
,
0002
1000
0100
1003
,
2000
0001
0010
3001
,
0002
0100
0010
0103
,
2000
0100
0010
3100
,
1000
0100
0001
0010
,
0001
0100
1000
0010
,
1000
0001
0010
0100
,
1000
0001
0100
0010
,
2020
3030
2002
3003
,
0101
2002
0000
3003
,
0022
0033
2002
3003
,
1100
2002
0000
3003
,
0220
0000
0000
0330
,
1001
0220
0000
0330
,
2020
3030
0202
0303
,
0001
0010
0100
1000
,
2002
3003
1000
0100
,
0001
0000
0001
0100
,
1000
0000
1000
0010
,
0001
0000
0001
0010
,
1000
1100
0000
1100
,
0100
0110
0000
0110
,
0010
0000
0001
0000
,
1001
1001
1001
1001
,
1000
0010
0001
1000
,
0100
0101
0001
1000
,
0001
0010
1000
0001
,
0100
1100
1000
0001
,
0100
0100
0010
1000
,
1001
0011
0010
0100
,
1000
0010
0100
0001
,
0100
0001
1000
0100
,
0101
0100
1000
0001
,
0101
0100
0010
1000
,
1100
0100
0001
1000
,
1010
0010
0100
1000
,
1010
0010
0100
0001
,
1000
0100
0001
0100
,
2200
0000
0000
3300
,
1100
0011
0101
1010
,
2002
0000
0000
0000
,
0000
0000
0000
0000
,
3003
0000
0000
0000
;

//---------------dance-single - RIME-DSP----------------
#NOTEDATA:;
#CHARTNAME:RIME-DSP;
#STEPSTYPE:dance-single;
#DESCRIPTION:RIME-DSP;
#DIFFICULTY:Medium;
#METER:10;
#CREDIT:RIME;
#NOTES:
0000
0000
0000
0000
,
0000
0000
0000
0000
,
0000
0000
0000
0000
,
0000
0000
0000
0000
,
0010
0000
1000
0100
0010
0000
0100
0000
,
1000
0000
0010
1000
0100
0000
0010
0000
,
0001
0000
0010
0001
0100
0000
0001
0000
,
0011
0101
1010
1100
,
0100
0000
0010
0100
0010
0100
0010
0000
,
0001
0010
0001
1000
0001
0010
0001
0000
,
0100
0010
0100
0000
0010
1000
0010
0000
,
1000
0100
1000
0000
0100
0001
0100
0000
,
0010
0000
0100
0010
0100
0010
0100
0000
,
1000
0010
1000
0001
1000
0010
1000
0000
,
1010
0010
0100
0000
0001
0100
0001
0000
,
0010
0001
0010
0000
1000
0010
1000
0000
,
1010
0010
0001
0000
0010
0001
0100
0000
,
0010
1000
0100
0000
0010
0100
1000
0000
,
0001
0100
0001
0000
1000
0100
0001
0000
,
0100
0010
0100
0000
0100
1000
0001
0000
,
0100
0010
0100
0000
0010
1000
0001
0000
,
1000
0010
0001
0000
1000
0100
0001
0000
,
0010
0100
0010
0000
0001
0100
0001
0000
,
1000
0001
1000
0000
0100
0010
0100
0000
,
0110
0010
0001
0000
0100
0001
0100
0000
,
0010
1000
0010
0000
1000
0100
1000
0000
,
0100
0010
0001
0000
0100
0010
1000
0000
,
0001
0010
1000
0000
0001
0100
1000
0000
,
0010
0100
0010
0000
0100
0001
0010
0000
,
0100
0010
0100
0000
0010
0001
0100
0000
,
0001
1000
0001
0000
1000
0100
1000
0000
,
1100
0011
0101
1010
,
1000
0000
0000
1000
0000
0000
1000
0000
0001
0000
0000
0001
0000
0000
0001
0000
,
0010
0210
0000
1300
,
0100
0000
0000
0100
0000
0000
0100
0000
0010
0000
0000
0010
0000
0000
0010
0000
,
0001
0000
1002
0000
0000
0000
0103
0001
,
0020
0000
0100
0000
0001
0000
0130
0010
,
0002
1000
0100
1003
,
0001
0010
0001
0010
0100
0010
0100
0010
,
0100
1000
0001
0100
0010
1000
0001
0010
,
0100
0000
0000
0100
0000
0000
0100
0000
1000
0000
0000
1000
0000
0000
1000
0000
,
0001
0201
0000
0310
,
0100
0000
0000
0100
0000
0000
0100
0000
0001
0000
0000
0001
0000
0000
0001
0000
,
1000
1200
0000
0310
,
0100
0000
1100
0000
1000
0000
1001
0001
,
0100
0110
0010
1010
,
1000
0100
1000
0100
0010
0100
0010
0100
,
0110
0011
1100
1001
,
0001
0000
0000
0100
0000
0000
0001
0000
1000
0000
0000
0100
0000
0000
1000
0000
,
0010
0210
0001
0310
,
0100
0000
0000
0001
0000
0000
0100
0000
0010
0000
0000
1000
0000
0000
0010
0000
,
0100
0102
0010
1003
,
2001
0010
0100
3001
,
1002
0010
0100
1003
,
1002
0013
2001
3100
,
1000
0100
0010
0010
0001
0100
0010
0010
,
1000
0000
0000
0100
0000
0000
0010
0000
0100
0000
0000
1000
0000
0000
0010
0000
,
0100
0102
0010
1003
,
0001
0000
0000
0010
0000
0000
0100
0000
0010
0000
0000
0001
0000
0000
0100
0000
,
0010
2010
0100
3001
,
1200
0010
0001
0310
,
0120
0001
0100
1030
,
1000
0010
1000
0010
0001
1000
0001
1000
,
1100
1010
0101
0011
,
2002
0000
0000
0000
,
0000
0000
0000
0000
,
3003
0000
0000
0000
;

//---------------dance-single - Nitrospan-ESP----------------
#NOTEDATA:;
#CHARTNAME:Nitrospan-ESP;
#STEPSTYPE:dance-single;
#DESCRIPTION:Nitrospan-ESP;
#DIFFICULTY:Hard;
#METER:14;
#CREDIT:Nitrospan;
#NOTES:
0000
0000
0000
0000
,
0000
0000
0000
0000
,
0000
0000
0000
0000
,
0000
0000
0000
0000
,
1000
0100
0001
0000
0001
0100
1000
0000
,
1000
0000
0010
0000
0100
0000
0001
0000
0010
0000
0000
0100
0000
0000
0010
0000
,
0001
0100
1000
0000
1000
0100
0001
0000
,
0011
1100
1010
0101
,
0010
1000
0100
1000
0010
0100
0001
0100
,
0010
0000
1000
0000
0100
0000
1000
0000
0010
0000
0000
0010
0000
0000
0010
0000
,
0100
0001
0010
0001
0100
0010
1000
0010
,
0100
0000
0001
0000
0010
0000
0001
0000
0100
0000
0000
0100
0000
0000
0100
0000
,
0010
1000
0100
0000
0010
0001
0100
0000
,
0010
0000
1000
0000
0100
0000
0010
0000
0001
0000
0000
0001
0000
0000
0001
0000
,
0100
0001
0010
0000
0100
1000
0010
0000
,
2002
0000
0000
3003
,
1000
0000
0100
0000
1000
0010
1000
0000
0001
0000
0010
0001
0000
0100
0000
0001
,
1000
0000
0010
0000
0100
0001
0100
0000
0010
0000
1000
0001
0000
0000
0010
0000
,
0001
0000
0100
0000
0001
0010
0001
0000
1000
0000
0010
1000
0000
0100
0000
1000
,
0001
0000
0010
0000
0100
1000
0100
0000
0010
0000
0001
1000
0000
0000
0001
0000
,
0010
0000
0100
0000
0010
0001
0010
0000
0100
0000
1000
0100
0000
1000
0000
0001
,
0100
0000
0010
0000
1000
0010
1000
0000
0010
0000
1000
0001
0000
0000
0100
0000
,
0001
0000
1000
0000
0010
1000
0010
0000
0100
0000
0001
0100
0000
0001
0000
1000
,
0100
0000
0010
0000
0001
0010
0001
0000
0010
0000
0001
1000
0000
0000
0100
0000
,
0010
0001
0000
0000
0001
0100
0000
0000
0100
1000
0000
0000
1000
0010
0000
0000
,
0010
1000
0000
0000
1000
0100
0000
0000
0100
0001
0000
0000
0001
1000
0000
0000
,
0010
1000
0000
0000
1000
0100
0000
0000
0100
0001
0000
0000
0001
0010
0000
0000
,
0010
0001
0000
0000
0001
0100
0000
0000
0100
1000
0000
0000
1000
0001
0000
0000
,
0001
0100
0000
0000
0010
1000
0000
0000
0100
1000
0000
0000
0001
0100
0000
0000
,
0001
0010
0000
0000
0100
1000
0000
0000
0010
0100
0000
0000
0001
1000
0000
0000
,
0001
0100
0010
1000
0010
0100
0001
0010
,
1100
0011
0101
1010
,
2000
0000
0000
3001
0100
0001
0200
0000
0000
0310
1000
0010
,
1000
0000
1000
0002
0000
0000
0000
0000
0000
0003
0000
0000
,
0020
0000
0000
0130
1000
0100
2000
0000
0000
3001
0100
0001
,
0100
0000
0100
0020
0000
0000
0000
0000
0000
1030
0001
1000
,
0002
0000
0000
0000
0000
0000
0000
0000
0000
1003
0010
1000
,
0010
0200
0000
0301
,
1001
0000
0000
0000
0000
0002
2000
0000
0000
0000
0000
0000
,
0000
0000
0000
3003
,
1001
0000
0000
1000
0001
0000
0100
0000
0010
0000
0000
1000
0010
0000
0100
0000
,
0001
0000
0000
1000
0100
0000
0010
0000
0001
0000
0000
1000
0000
0000
0001
0000
,
0100
0000
0000
0001
1000
0000
0010
0000
0100
0000
0000
0001
0100
0000
0010
0000
,
1000
0000
0000
0000
0000
0000
0000
0000
0000
0001
0000
0000
0010
0000
0000
0000
0000
0000
0100
0000
0000
0000
0000
0000
1000
0000
0000
0000
0000
0000
0000
0000
0001
0000
0000
0000
1000
0000
0000
0000
0100
0000
0000
0000
0010
0000
0000
0000
,
0001
0000
0000
0011
0000
0000
1000
0000
0000
0001
0100
0010
,
1000
0000
0001
0100
0000
0000
0010
0000
0000
1001
0000
0000
,
0200
0000
0000
0300
0000
0002
2000
0000
0000
3003
0000
0000
,
1010
0101
0011
1100
,
0001
0000
0010
0000
0100
1000
0100
0000
1000
0000
0010
1000
0000
0000
0010
0000
,
0100
0000
0001
0000
0010
0001
0010
0000
0100
0000
1000
0001
0000
0000
1000
0000
,
0010
0000
0100
0000
0001
0100
0001
0000
0010
0000
0001
1000
0000
0000
0100
0000
,
1000
0000
0000
0000
0000
0000
0010
0000
0000
0000
0000
0000
0100
0000
0000
0001
0000
0000
0100
0000
0000
0000
0000
0000
0010
0000
0000
0000
0000
0000
1000
0000
0000
0100
0000
0000
1000
0000
0000
0000
0100
0000
0000
0000
1000
0000
0000
0000
,
0001
0000
0000
0000
0000
0000
0100
0000
0000
0000
0000
0000
0010
0000
0000
1000
0000
0000
0010
0000
0000
0000
0000
0000
0100
0000
0000
0000
0000
0000
0001
0000
0000
0100
0000
0000
0001
0000
0000
0000
0100
0000
0000
0000
0001
0000
0000
0000
,
1000
0000
0100
0000
0010
0001
0010
0000
0100
0000
1000
0100
1000
0000
0001
0000
,
0100
0000
0010
1000
0010
1000
0010
0000
0100
0000
0001
1000
0000
0001
1000
0000
,
0100
0000
0010
0001
0010
0001
0010
0000
0100
0000
1000
0010
0000
0100
0001
0000
,
1000
0000
0010
0000
0100
0001
0100
0000
0001
0000
0010
0001
0000
0000
0010
0000
,
0100
0000
1000
0000
0010
1000
0010
0000
0100
0000
0001
1000
0000
0000
0001
0000
,
0010
0000
0100
0000
1000
0100
1000
0000
0010
0000
1000
0001
0000
0000
0100
0000
,
0001
0000
0000
0000
0000
0000
0010
0000
0000
0000
0000
0000
0100
0000
0000
1000
0000
0000
0100
0000
0000
0000
0000
0000
0010
0000
0000
0000
0000
0000
0001
0000
0000
0100
0000
0000
0001
0000
0000
0000
0100
0000
0000
0000
0001
0000
0000
0000
,
1000
0000
0000
0000
0000
0000
0100
0000
0000
0000
0000
0000
0010
0000
0000
0001
0000
0000
0010
0000
0000
0000
0000
0000
0100
0000
0000
0000
0000
0000
1000
0000
0000
0100
0000
0000
1000
0000
0000
0000
0100
0000
0000
0000
1000
0000
0000
0000
,
0001
0000
0100
0000
0010
1000
0010
0000
0100
0000
0001
0100
0001
0000
0000
0000
,
2002
0000
0000
0000
0000
0003
3000
0000
0000
0000
0000
0000
,
1010
0011
0101
1100
,
2002
0000
0000
0000
,
0000
0000
0000
0000
,
3003
0000
0000
0000
;

//---------------dance-double - RIME-BDP----------------
#NOTEDATA:;
#CHARTNAME:RIME-BDP;
#STEPSTYPE:dance-double;
#DESCRIPTION:RIME-BDP;
#DIFFICULTY:Easy;
#METER:6;
#CREDIT:RIME;
#NOTES:
00000000
00000000
00000000
00000000
,
00000000
00000000
00000000
00000000
,
00000000
00000000
00000000
00000000
,
00000000
00000000
00000000
00000000
,
00010000
00000000
00010000
00000000
,
00001000
00000000
00001000
00000000
,
01000000
00000000
01000000
00000000
,
01010000
10010000
01010000
10010000
,
20000000
00000000
32000000
00000000
,
03020000
00000000
00032000
00000000
,
00003200
00000000
00000302
00000000
,
00000023
00000000
00000230
00000000
,
00001300
00000000
00001000
00000000
,
00000100
00000000
00000100
00000000
,
00010000
00000000
00010000
00000000
,
00100000
00000000
00100000
00000000
,
10000000
00010000
10000000
00000000
,
00010000
10000000
00010000
00000000
,
00100000
00010000
00100000
00000000
,
00010000
00100000
00001000
00000000
,
00010000
00001000
00010000
00000000
,
00001000
00010000
00001000
00000000
,
00010000
00000100
00010000
00000000
,
00000100
00001000
00000100
00000000
,
00000010
00000001
00000100
00000000
,
00000010
00001000
00000100
00000000
,
00000100
00001000
00010000
00000000
,
00010000
00100000
01000000
00000000
,
00010000
00100000
01000000
00000000
,
10000000
00100000
01000000
00000000
,
00100000
00010000
00001000
00000000
,
00011000
01001000
00011000
01001000
,
02000000
00000000
03020000
00000000
,
10030000
10000000
00000000
00000000
,
00020000
00000000
00230000
00000000
,
00301000
00001000
00000000
00000000
,
00002000
00000000
00000000
00000000
,
00020000
00000000
00000000
00000000
,
00033000
00000000
00000000
00000000
,
00010000
00000100
00000010
00000001
,
00000101
00000000
00000100
00000000
,
00000001
00000020
00000000
00000130
,
00000010
00000000
00000010
00000000
,
00000001
00000200
00000000
00000310
,
00000100
00000000
00000100
00001000
,
00010000
00000000
00001000
00010000
,
01000000
00000000
10000000
00000000
,
10100000
10010000
10100000
10010000
,
10000000
01000000
00010000
01000000
,
10000000
10020000
00000000
01030000
,
00010000
01000000
10000000
01000000
,
00010000
20010000
00000000
31000000
,
10000000
00000000
00100000
00010000
,
00001000
00000000
00010000
00001000
,
00000010
00000000
00000100
00000000
,
00000010
00000001
00000100
00001000
,
00010000
00000000
00001000
00000000
,
00100000
00120000
00000000
01030000
,
00010000
00000000
10000000
00000000
,
01000000
01200000
00000000
00310000
,
00100000
00000000
00010000
00100000
,
00001000
00000000
00001000
00010000
,
00000010
00000000
00000100
00000000
,
00000110
00001001
00000110
00001001
,
00000202
00000000
00000000
00000000
,
00000303
00000000
00000000
00000000
;

//---------------dance-double - RIME-DDP----------------
#NOTEDATA:;
#CHARTNAME:RIME-DDP;
#STEPSTYPE:dance-double;
#DESCRIPTION:RIME-DDP;
#DIFFICULTY:Medium;
#METER:11;
#CREDIT:RIME;
#NOTES:
00000000
00000000
00000000
00000000
,
00000000
00000000
00000000
00000000
,
00000000
00000000
00000000
00000000
,
00000000
00000000
00000000
00000000
,
10000000
00000000
00010000
01000000
00010000
00000000
10000000
01000000
,
10000000
00000000
00010000
10000000
00010000
00000000
01000000
00010000
,
01000000
00000000
00001000
00010000
00001000
00000000
00010000
00001000
,
00011000
00001100
00000110
00000011
,
00000001
00000000
00001000
00000001
00001000
00000000
00000001
00000100
,
00000001
00000000
00001000
00000100
00001000
00000000
00000100
00000010
,
00000100
00000000
00000010
00000001
00000010
00000000
00000001
00000100
,
00000001
00000000
00000100
00001000
00000100
00000000
00001000
00010000
,
00012000
01000000
00010000
01003000
,
02000000
00010000
00100000
03010000
,
01020000
00100000
01000000
00130000
,
00200000
00001000
00010000
00301000
,
00100000
00001000
00000010
00000000
00001000
00000010
00000001
00000000
,
00000010
00000001
00000100
00000000
00000001
00000100
00001000
00000000
,
00000100
00001000
00010000
00000000
00010000
01000000
10000000
00000000
,
10000000
00100000
01000000
00000000
00100000
01000000
00010000
00000000
,
10000000
00100000
00010000
00000000
00100000
00010000
00000010
00000000
,
00000010
00001000
00000001
00000000
00000010
00000001
00000100
00000000
,
00000001
00000100
00001000
00000000
00000100
00001000
00010000
00000000
,
00001000
00010000
01000000
00000000
10000000
00100000
01000000
00010000
,
10000000
01000000
10000000
01000000
00100000
00010000
00100000
00000000
,
00100000
00001000
00100000
00001000
00000010
00000001
00000010
00000000
,
00000001
00000100
00000001
00000100
00001000
00000100
00001000
00000000
,
00001000
00010000
00001000
00010000
01000000
10000000
01000000
00000000
,
10000000
00100000
00010000
00001000
00010000
00100000
10000000
00000000
,
10000000
01000000
00010000
00001000
00010000
01000000
10000000
00000000
,
01000000
00010000
00001000
00000100
00000001
00000100
00000001
00000000
,
00000011
00011000
10100000
00011000
,
00002000
00000000
00000000
00103000
00200000
00000000
00000000
00300010
,
00100010
01000100
00000000
00000100
,
00020000
00000000
00000000
00030010
00000020
00000000
00000000
00010030
,
00010010
01001000
00000000
00000100
,
00010100
00000000
00000100
01000000
,
00001000
02001000
00000000
03010000
,
00000200
00000000
00002300
00000000
,
00003001
00002000
00003200
00000320
,
00000031
00000000
00000010
00000001
00000100
00000000
00000010
00001000
,
00000100
00000000
00000110
00000000
00000010
00000001
00001000
00000010
,
00010000
00000000
00001000
00010000
00000100
00000000
00001000
00000100
,
00010000
00000000
00012000
00000000
00103000
00001000
00100000
01000000
,
10000000
10100000
10000000
10010000
,
10000000
11000000
10000000
10010000
,
10000000
01000000
10000000
01000000
00010000
00001000
00010000
00001000
,
01001000
00010100
00101000
00010010
,
00000110
00000000
00000100
00000001
00000010
00000000
00000100
00001000
,
00000010
00000000
00010010
00000000
00000010
00010000
00001000
01000000
,
00010000
00000000
01000000
00010000
10000000
00000000
01000000
10000000
,
00010000
00000000
10010000
00000000
10000000
00100000
00010000
00001000
,
00200000
00000000
01000000
00000000
10000000
00000000
01300000
00100000
,
00020000
00000000
01000000
00000000
00001000
00000000
01030000
00010000
,
00200000
00010000
00001000
00310000
,
00100000
00002000
00023000
00030200
,
00000310
00000000
00000100
00010000
00001000
00000000
00010000
00001000
,
01000000
00000000
02010000
00000000
03100000
01000000
00010000
10000000
,
01000000
00000000
00100000
01000000
10000000
00000000
00100000
01000000
,
00010000
00000000
00210000
00000000
01300000
00100000
00010000
01000000
,
00002000
00000000
00010000
00000000
00000010
00000000
00013000
00001000
,
00000020
00000000
00000001
00000000
00000100
00000000
00000031
00000010
,
00000200
00001000
00000001
00001300
,
00001100
00010100
01001000
00101000
,
00020200
00000000
00000000
00000000
,
00030300
00000000
00000000
00000000
;

//---------------dance-double - RIME-EDP----------------
#NOTEDATA:;
#CHARTNAME:RIME-EDP;
#STEPSTYPE:dance-double;
#DESCRIPTION:RIME-EDP;;
#DIFFICULTY:Hard;
#METER:16;
#CREDIT:RIME;
#NOTES:
00000000
00000000
00000000
00000000
,
00000000
00000000
00000000
00000000
,
00000000
00000000
00000000
00000000
,
00000000
00000000
00000000
00000000
,
10000000
01000000
00010000
00001000
01000000
00010000
00000100
00000000
,
00000001
00000100
00001000
00010000
00000100
00001000
01000000
00000000
,
10000000
00100000
00010000
00001000
00100000
00010000
00000010
00000000
,
00000011
00000010
00000110
00000100
00001100
00001000
00001010
00000000
,
00000110
00000100
00000001
00001000
00000002
00000010
00002003
00000010
,
00003002
00000100
00002003
00000100
00003002
00001000
00002003
00000001
,
00003020
00010000
00020030
00000100
00030200
00001000
00002300
00000010
,
00003020
00000100
00000230
00000001
00000302
00000010
00000023
00001000
,
00002030
00010000
02003000
00010000
03002000
00010000
02003000
00010000
,
03002000
00010000
00203000
00010000
00302000
00010000
00203000
00010000
,
00301000
00000000
00000000
00100000
01000000
00000000
00000000
01000000
10000000
00000000
00000000
10000000
00010000
00000000
00000000
00010000
,
01000000
00000000
00000000
01000000
00100000
00000000
00000000
00100000
00010000
00000000
00000000
00010000
00001000
00000000
00000000
00001000
,
00000010
00000000
00000001
00000010
00000001
00000000
00000100
00000000
00001000
00000000
00000100
00000000
00000001
00000000
00000000
00000000
,
00000010
00000000
00000100
00001000
00000100
00000000
00000010
00000000
00000001
00000000
00001000
00000000
01000000
00000000
00000000
00000000
,
10000000
00000000
00100000
10000000
00100000
00000000
01000000
00000000
00010000
00000000
00100000
00000000
01000000
00000000
00000000
00000000
,
00100000
00000000
00010000
00100000
00010000
00000000
01000000
00000000
00001000
00000000
00000010
00000000
00000100
00000000
00000000
00000000
,
00000010
00000001
00000010
00000001
00000010
00000000
00000100
00000000
00001000
00000000
00000001
00000000
00000100
00000000
00000000
00000000
,
00001000
00010000
00001000
00010000
00001000
00000000
01000000
00000000
00010000
00000000
00100000
00000000
01000000
00000000
00000000
00000000
,
10000000
01000000
10000000
01000000
10000000
00000000
00010000
00000000
01000000
00000000
00001000
00000000
00010000
00000000
00000000
00000000
,
00001000
00000010
00001000
00000010
00001000
00000000
00000010
00000000
00000100
00000000
00010000
00000000
00001000
00000000
00000000
00000000
,
00010000
00000000
00001000
01000000
00001000
01000000
00001000
01000000
00010000
00000000
10000000
00000000
01000000
00000000
00000000
00000000
,
00100000
00000000
00010000
00100000
00010000
00100000
00010000
00100000
00001000
00000000
00000010
00000000
00000001
00000000
00000000
00000000
,
00000100
00000000
00000010
00001000
00000010
00001000
00000010
00001000
00000001
00000000
00000010
00000000
00000100
00000000
00000000
00000000
,
00001000
00000000
00000100
00000010
00000100
00000010
00000100
00000010
00000001
00000000
00001000
00000000
00010000
00000000
00000000
00000000
,
01000000
00000000
00100000
10000000
00010000
00100000
00010000
10000000
00100000
00000000
01000000
00000000
00010000
00000000
00000000
00000000
,
00100000
00000000
00001000
00010000
00001000
00100000
00010000
00100000
00001000
00000000
00000100
00000000
00000001
00000000
00000000
00000000
,
00000010
00000000
00000100
00001000
00000100
00010000
00001000
00010000
00000100
00000000
00010000
00000000
01000000
00000000
00000000
00000000
,
00100000
00010000
00100000
00010000
10000000
00100000
10000000
00100000
01000000
00010000
01000000
00010000
00100000
00001000
00100000
00001000
,
00000010
00000000
00000000
00000001
00000100
00000010
00001000
00000000
00000000
00000001
00000010
00000100
,
00001000
00000000
00000000
00000001
00001000
00000000
00000000
00000000
00000010
00000000
00000000
00000000
00010000
00000000
00000000
00000000
,
00001000
00000000
00000000
00100000
01000000
10000000
00010000
00000000
00000000
01000000
00100000
10000000
,
01000000
00000000
00000000
00000000
00000000
00000000
00000000
00000000
00000000
00100000
00000000
00000000
00010000
00000000
00000000
00000000
00000000
00000000
00000000
00000000
00000000
00000000
00000000
00000000
01000000
00000000
00000000
00000000
00000000
00000000
00000000
00000000
00000000
00000000
00000000
00000000
00100000
00000000
00000000
00000000
10000000
00000000
00000000
00000000
00010000
00000000
00000000
00000000
,
20010000
00000000
00000000
00000000
00000000
00000000
31000000
00000000
00000000
00000000
00000000
00000000
10000000
00000000
00000000
01000000
00000000
00000000
00010000
00000000
00001000
00000000
00010000
00000000
,
00001000
00000000
00000000
00001000
00000100
00000000
00000000
00000000
00000100
00000000
00000001
00000000
00000010
00000000
00000100
00000000
,
00001000
00000100
00001000
00000100
00001000
00000000
00000010
00000000
00000100
00000001
00000100
00000001
00000100
00000000
00000010
00000000
,
00010000
00001000
00010000
00001000
00200000
00000000
00000000
00000000
00320000
00000000
00000000
00000000
20030000
00000000
00000000
00000000
,
30100000
00000000
10000000
00100000
00000000
10000000
00010000
00000000
10000000
01000000
00000000
10000000
00010000
00000000
01000000
00000000
,
00100000
00000000
00010000
00001000
00000000
00010000
00000100
00000000
00010000
00000010
00000000
00010000
00001000
00000000
00000010
00000000
,
00000001
00000000
00000100
00000001
00000000
00000010
00000001
00000000
00001000
00000001
00000000
00000100
00000001
00000000
00000010
00000000
,
00000100
00000000
00000000
00000000
00000000
00000000
00001000
00000000
00000000
00000100
00000000
00000000
00000000
00000000
00000000
00010000
00000000
00000000
00000100
00000000
00000000
00000000
00000000
00000000
00000010
00000000
00000000
00000100
00000000
00000000
00000000
00000000
00000000
00010000
00000000
00000000
00000100
00000000
00000000
00000000
00010000
00000000
00000000
00000000
00001000
00000000
00000000
00000000
,
01000000
00000000
00000000
00000000
00000000
00000000
00100000
00000000
00000000
10000000
00000000
00000000
00000000
00000000
00000000
00010000
00000000
00000000
10000000
00000000
00000000
00000000
00000000
00000000
01000000
00000000
00000000
10000000
00000000
00000000
00000000
00000000
00000000
00010000
00000000
00000000
10000000
00000000
00000000
00000000
00100000
00000000
00000000
00000000
00010000
00000000
00000000
00000000
,
00001000
00000000
00000010
00000001
00000000
00000100
00000001
00000000
00001000
00000001
00000000
00000010
00000001
00000000
00000100
00000000
,
00000010
00000000
00001000
00000010
00000000
00010000
00001000
00000000
00100000
00000000
00010000
01000000
00100000
10000000
01000000
00100000
,
00020000
00030020
00000032
00000203
,
00000310
00000000
00000100
00000001
00000100
00000001
00000100
00000001
00001000
00000000
00000100
00001000
00000100
00001000
00000100
00001000
,
00000010
00000000
00000010
00010000
00001000
00000000
00000000
00000000
00100000
00001000
01000000
00100000
10000000
00010000
00100000
01000000
,
10000000
00000000
01000000
10000000
01000000
10000000
01000000
10000000
00010000
00000000
01000000
00010000
01000000
00010000
01000000
00010000
,
10000000
00000000
00100000
01000000
00020000
00000000
00000000
00000000
00130000
00010000
01000000
00001000
00010000
00000010
00000100
00000001
,
00000010
00000000
00000100
00000010
00000100
00000000
00001000
00000000
00000010
00000100
00000001
00001000
00000100
00010000
00001000
00000100
,
00000001
00000000
00000010
00000100
00000010
00000000
00000100
00000000
00001000
00000100
00010000
00001000
00100000
01000000
10000000
00100000
,
01000000
00000000
00100000
10000000
00100000
10000000
00010000
00000000
00100000
00000000
01000000
10000000
01000000
10000000
00010000
01000000
,
00010000
00000000
01000000
00100000
20000000
00000000
31000000
00000000
02000000
00000000
03010000
00000000
00020000
00000000
00031000
00000000
,
00010000
00000000
00000010
00001000
00000010
00001000
00000010
00001000
00000001
00000000
00000010
00000001
00000010
00000001
00000010
00000001
,
00001000
00000000
00000010
00001000
00000200
00000000
00000310
00000000
00000100
00010000
00001000
00100000
00010000
01000000
00100000
10000000
,
01000000
00000000
00100000
01000000
00100000
01000000
00100000
01000000
10000000
00000000
00100000
01000000
00100000
01000000
00100000
01000000
,
00010000
00000000
00100000
00010000
02000000
00000000
03001000
00000000
01000000
00001000
00010000
00000010
00000100
00000001
00000010
00000100
,
00001000
00000000
00000100
00000010
00000100
00000010
00000100
00000000
00001000
00000010
00010000
00001000
01000000
00001000
00000100
00000001
,
00000010
00000000
00000100
00000010
00000100
00000010
00000100
00000000
00000010
00000001
00000100
00001000
00010000
00001000
00100000
00010000
,
01000000
00000000
00100000
10000000
00100000
10000000
00100000
00000000
01000000
00000000
00010000
00100000
00010000
00100000
00010000
00000000
,
00100000
00001000
00100000
00001000
00010000
00001000
00010000
00001000
00010000
00000010
00010000
00000010
00000100
00000010
00000100
00000020
,
00000200
00000000
00000000
00000000
,
00000000
00000000
00000000
00000000
,
00000330
00000000
00000000
00000000
;
