#VERSION:0.83;
#TITLE:Funky Life;
#ARTIST:Sound Souler;
#BANNER:Funky Life.png;
#BACKGROUND:Funky Life-bg.png;
#JACKET:Funky Life-jacket.png;
#MUSIC:Funky Life.ogg;
#OFFSET:-0.075;
#SAMPLESTART:38.844;
#SAMPLELENGTH:15;
#BPMS:0=130;

//---------------dance-single - NewbStepper-bSP----------------
#NOTEDATA:;
#CHARTNAME:NewbStepper-bSP;
#STEPSTYPE:dance-single;
#DESCRIPTION:NewbStepper-bSP;
#DIFFICULTY:Beginner;
#METER:1;
#RADARVALUES:0.079612,0.123246,0.035723,0,0,78,73,5,0,0,0,0,0,0,0.079612,0.123246,0.035723,0,0,78,73,5,0,0,0,0,0,0;
#CREDIT:NewbStepper;
#NOTES:
0000
0000
0000
0000
,
0000
0000
0000
0000
,
0000
0000
0000
0000
,
0000
0000
0000
0000
,
0000
0000
0000
0000
,
0000
0000
0000
0000
,
0000
0000
0000
0000
,
0000
0000
0000
0000
,
0000
0000
0000
0000
,
0001
0000
0000
0000
,
0000
0000
0000
0000
,
0000
0000
0000
0000
,
0000
0000
0000
0000
,
1000
0000
1000
0000
,
1000
0000
0000
0000
,
0001
0000
0001
0000
,
0001
0000
0000
0000
,
1000
0000
1000
0000
,
1000
0000
0000
0000
,
0001
0000
0001
0000
,
0001
0000
0000
0000
,
0100
0000
0000
0000
,
0100
0000
0000
0000
,
0010
0000
0000
0000
,
0110
0000
0000
0000
,
0010
0000
0000
0000
,
0010
0000
0000
0000
,
0100
0000
0000
0000
,
0110
0000
0000
0000
,
0001
0000
1000
0000
,
0001
0000
1000
0000
,
0010
0000
0000
0000
,
0010
0000
0000
0000
,
1000
0000
0001
0000
,
1000
0000
0001
0000
,
0010
0000
0010
0000
,
0010
0000
0000
0000
,
1001
0000
0000
0000
,
0000
0000
0000
0000
,
0100
0000
0000
0000
,
0100
0000
0000
0000
,
1001
0000
0000
0000
,
0000
0000
0000
0000
,
0100
0000
0000
0000
,
0100
0000
0000
0000
,
0001
0000
0001
0000
,
0001
0000
0000
0000
,
1000
0000
1000
0000
,
1000
0000
0000
0000
,
0001
0000
0001
0000
,
0001
0000
0000
0000
,
1000
0000
1000
0000
,
1000
0000
0000
0000
,
0001
0000
0000
0000
,
1000
0000
0000
0000
,
0100
0000
0000
0000
,
0010
0000
0000
0000
,
0001
0000
0000
0000
,
1000
0000
0000
0000
,
0010
0000
0000
0000
,
0100
0000
0000
0000
,
1001
0000
0000
0000
,
0010
0000
0000
0000
,
0001
0000
1000
0000
,
0001
0000
1000
0000
,
0010
0000
0000
0000
,
1000
0000
0001
0000
,
1000
0000
0001
0000
,
0010
0000
0000
0000
,
0100
0000
0000
0000
;

//---------------dance-single - NewbStepper-ESP----------------
#NOTEDATA:;
#CHARTNAME:NewbStepper-ESP;
#STEPSTYPE:dance-single;
#DESCRIPTION:NewbStepper-ESP;
#DIFFICULTY:Hard;
#METER:14;
#RADARVALUES:0.563410,0.657133,0.357235,0.071447,0.718042,552,502,50,10,0,0,0,0,0,0.563410,0.657133,0.357235,0.071447,0.718042,552,502,50,10,0,0,0,0,0;
#CREDIT:NewbStepper;
#NOTES:
// measure 0
0000
0000
0000
0000
,  // measure 1
0000
0000
0000
0000
,  // measure 2
0000
0000
0000
0000
,  // measure 3
0000
0000
0000
0000
,  // measure 4
0000
0000
0000
0000
,  // measure 5
0000
0000
0000
0000
,  // measure 6
0000
0000
0000
0000
,  // measure 7
0000
0000
0000
0000
,  // measure 8
0000
0000
0000
0000
,  // measure 9
1100
0000
0010
0001
0000
0000
1000
0000
0000
0000
0010
1000
0000
0000
0001
0000
,  // measure 10
0000
0000
0100
0001
0000
0000
1000
0000
0000
0000
0100
1000
0000
0000
0001
0000
,  // measure 11
0000
0000
0010
0001
0000
0000
0100
0000
0000
0000
0010
1000
0000
0000
0100
0000
,  // measure 12
0000
0000
0010
0001
0000
0000
0100
0000
0010
0000
1000
0000
0100
0000
0010
0000
,  // measure 13
0001
0000
0100
0001
0000
0100
0000
0001
0000
1000
0100
0000
0000
0100
0010
0001
,  // measure 14
1000
0000
0100
1000
0000
0100
0000
0110
0000
0000
0011
0000
0100
0000
1000
0000
,  // measure 15
0001
0000
0100
0010
0000
0010
0000
2000
0000
0000
3001
0000
0100
0000
0010
0000
,  // measure 16
2010
0000
0000
0000
3000
0001
0100
0001
0010
0100
1000
0001
0100
0000
0010
0000
,  // measure 17
1000
0000
0010
1000
0000
0010
0000
1000
0000
0000
0001
0100
0000
1000
0100
0001
,  // measure 18
1000
0000
0001
0010
0000
0001
0000
0011
0000
0000
1100
0000
0010
0000
0001
0000
,  // measure 19
0100
0000
0010
0100
0000
0100
0000
0002
0000
0000
1003
0000
0010
0000
0100
0000
,  // measure 20
0102
0000
0000
0000
0003
1000
0010
1000
0100
0010
0001
1000
0010
0000
0100
0000
,  // measure 21
0001
0000
0100
0001
0000
1000
0000
0100
0000
0000
0010
1000
0000
0010
0001
1000
,  // measure 22
0010
0000
1000
0010
0000
1000
0000
1001
0000
0000
0110
0000
0011
0000
1001
0000
,  // measure 23
1000
0000
0100
0010
0000
0100
0000
0001
0000
0100
0010
0000
1001
0000
0000
0000
,  // measure 24
1100
0000
0000
0011
0000
0110
0000
1001
,  // measure 25
1000
0000
0100
1000
0000
0100
0000
1000
0000
0001
0100
0000
0000
0100
0010
1000
,  // measure 26
0001
0000
0100
0001
0000
0100
0000
0110
0000
0000
1010
0000
0100
0000
0001
0000
,  // measure 27
1000
0000
0100
0010
0000
0010
0000
0002
0000
0000
1003
0000
0100
0000
0010
0000
,  // measure 28
0012
0000
0000
0000
0003
1000
0100
1000
0010
0100
0001
1000
0100
0000
0010
0000
,  // measure 29
0001
0000
0010
1000
0000
0010
0000
0000
0001
0000
0100
0000
0010
0000
1000
0100
,  // measure 30
1000
0000
0010
0001
0000
0010
0000
0000
1000
0000
0100
0000
0010
0000
0001
0100
,  // measure 31
0001
0000
1000
0100
0000
0010
0000
0000
0001
0000
0100
0010
0000
0100
0010
0000
,  // measure 32
1000
0000
0100
0001
0000
0100
0000
0000
1000
0000
0001
0000
0100
0000
0001
0000
,  // measure 33
1000
0000
0100
0010
0000
0100
0000
0000
1000
0000
0001
0000
1000
0000
0010
0100
,  // measure 34
0001
0000
0100
1000
0000
0100
0000
0000
0010
0000
1000
0000
0100
0000
0010
0000
,  // measure 35
0001
0000
0100
0010
0000
0100
0000
0000
1000
0000
0100
0010
0000
0100
0000
0000
,  // measure 36
0001
0100
0001
0000
0100
0010
0100
0000
0010
1000
0010
0000
1000
0000
0100
0000
,  // measure 37
0010
0000
0001
0100
0000
0100
0000
0000
0010
0000
1000
0100
0000
0100
0000
0000
,  // measure 38
1000
0000
0001
0010
0000
0010
0000
0000
0001
0000
1000
0010
0000
0010
0000
0000
,  // measure 39
1000
0100
1000
0100
0001
0100
0001
0100
,  // measure 40
1000
0000
0100
0010
0000
0001
0000
0001
0100
0010
1000
0000
0100
0010
0001
0000
,  // measure 41
1000
0000
0100
0000
0000
1100
0000
0000
0001
0000
0100
0000
0000
0101
0000
0000
,  // measure 42
1000
0000
0010
0000
0000
1010
0000
0000
0001
0000
0010
0000
0000
0011
0000
0000
,  // measure 43
0000
0000
1100
0000
0000
1100
0000
0000
0000
0000
0011
0000
0000
0011
0000
0000
,  // measure 44
1000
0000
0001
0100
0001
0100
0000
0010
1000
0010
0000
1000
0100
0010
0001
1000
,  // measure 45
0010
0000
0000
0000
0010
0000
0000
0010
0000
0100
0001
0000
0000
0000
0000
0000
,  // measure 46
0010
0000
0000
0010
0000
0100
0000
0110
0000
0000
1000
0000
0001
0000
1000
0000
,  // measure 47
0010
0000
1000
0001
0000
0100
0000
0020
0000
0000
1030
0000
0100
0000
0010
0000
,  // measure 48
0002
0000
0000
0000
0003
1000
0010
1000
0001
1000
0100
0010
0001
0000
0100
0000
,  // measure 49
1000
0000
0100
0010
0000
1000
0000
0001
0000
0100
0010
0000
0000
1000
0100
0010
,  // measure 50
0001
0000
0100
0010
0000
1000
0000
1010
0000
0000
0110
0000
0101
0000
1001
0000
,  // measure 51
1000
0100
0010
0001
0000
0001
0100
1000
0000
0000
0100
0000
0001
0000
0010
0000
,  // measure 52
0110
0000
0000
0000
0000
0001
0100
0010
0100
1000
0100
0001
0010
0000
0100
0000
,  // measure 53
1000
0000
0001
0100
0000
0001
0100
0000
0000
0000
0010
1000
0000
1010
0000
0000
,  // measure 54
0000
0000
0100
0010
0000
0110
0000
0000
0000
0000
0100
0001
0000
0100
0010
1000
,  // measure 55
0010
0100
0010
0000
1000
0010
0000
0010
0100
0001
0100
0000
0001
0010
0000
0100
,  // measure 56
1000
0000
0010
0100
0000
0001
0010
0100
1000
0000
0000
0000
0000
0001
0100
0010
,  // measure 57
1000
0000
0001
0010
0000
0001
0010
0000
0000
0000
0100
1000
0001
0000
0100
0000
,  // measure 58
0101
0000
0001
0000
0000
0011
0000
0000
0000
0000
1000
0000
0000
0010
1000
0100
,  // measure 59
0010
0000
0001
0100
0000
1000
0100
0000
0010
0000
1000
0100
0000
0001
0100
0000
,  // measure 60
0010
0000
0110
0000
0000
0110
0000
0000
1000
0000
1001
0000
0000
1001
0000
0000
,  // measure 61
0010
0000
1000
0010
0000
0100
0001
0000
0000
0000
1100
0000
0010
0000
0001
0100
,  // measure 62
0010
0000
1010
0000
0000
0110
0000
0000
0000
0000
0011
0000
0000
0110
0000
0000
,  // measure 63
1000
0100
1000
0001
0100
0001
1000
0100
0010
0001
1000
0010
0100
0001
1000
0001
,  // measure 64
1000
0000
0000
0000
0000
0000
0010
0100
0010
0000
0000
0000
0000
0000
1000
0100
,  // measure 65
1000
0000
0100
0010
0000
0100
0010
0000
0000
0000
0001
0000
0100
0000
1000
0000
,  // measure 66
0100
0000
0001
0000
1000
0000
0100
0000
0001
0000
0100
0000
1000
0000
0001
1000
,  // measure 67
0100
0000
1000
0010
0000
0100
0000
0000
0100
0000
0001
0010
0000
0100
0000
0000
,  // measure 68
0110
0000
1100
0101
,  // measure 69
2002
0000
0000
0000
,  // measure 70
0000
0000
0000
3003
;

//---------------dance-single - NewbStepper-DSP----------------
#NOTEDATA:;
#CHARTNAME:NewbStepper-DSP;
#STEPSTYPE:dance-single;
#DESCRIPTION:NewbStepper-DSP;
#DIFFICULTY:Medium;
#METER:10;
#RADARVALUES:0.350090,0.404390,0.214341,0.057158,0.114315,343,313,30,8,0,0,0,0,0,0.350090,0.404390,0.214341,0.057158,0.114315,343,313,30,8,0,0,0,0,0;
#CREDIT:NewbStepper;
#NOTES:
0000
0000
0000
0000
,
0000
0000
0000
0000
,
0000
0000
0000
0000
,
0000
0000
0000
0000
,
0000
0000
0000
0000
,
0000
0000
0000
0000
,
0000
0000
0000
0000
,
0000
0000
0000
0000
,
0000
0000
0000
0000
,
1001
0100
0010
0001
0000
0100
0010
1000
,
0000
0100
0010
0001
0000
1000
0010
0100
,
0000
0001
0000
1000
0000
0100
0000
0001
,
0000
0100
0000
1000
0000
0010
0100
0001
,
1000
0000
1100
0000
0010
0100
0010
0000
,
0001
0101
1001
0110
,
0001
0100
1000
0100
0001
1000
0100
0010
,
0002
0000
0003
0100
0010
0100
0010
1000
,
0001
0000
0101
0000
0010
0100
0010
0000
,
1000
1100
1001
0110
,
1000
0100
0001
0100
1000
0001
0100
0010
,
2000
0000
3000
0100
0010
0100
0010
0001
,
1000
0000
0000
0000
0001
0000
0000
1000
0000
0000
0100
0010
0000
0000
0000
0000
,
0001
0000
0000
0000
1000
0000
0000
0001
0000
0000
0100
0000
0010
0000
0000
0000
,
1000
0100
0001
0100
1000
0001
0100
0000
,
0110
0000
0000
1001
0000
0100
0000
0010
,
0001
0000
1000
0000
0010
0100
0110
0000
,
1000
0000
0000
0000
0001
0000
0000
0100
0000
0000
0010
0000
0010
0000
0000
0000
,
1000
0100
0010
0001
1000
0001
0100
0010
,
2000
0000
3002
0000
,
1003
0100
0010
0000
0001
0100
0010
0000
,
1000
0001
1000
0001
0010
0000
0110
0000
,
0001
0100
0010
0000
1000
0100
0010
0000
,
0001
1000
0001
1000
0010
0000
0110
0000
,
0001
0100
1000
0010
,
1000
0100
0001
0010
,
1000
0100
0001
1000
,
0001
0010
0001
1000
0010
1000
0001
0100
,
0010
0000
1000
0000
0000
1000
0000
0000
0000
0000
0001
0000
0000
0001
0000
0000
,
0000
0000
1000
0000
0000
1000
0000
0000
0000
0000
0001
0000
0000
0001
0000
0000
,
0000
0000
0100
0000
0000
0100
0000
0000
0000
0000
0010
0000
0000
0010
0000
0000
,
1000
0100
1000
0000
0001
0100
0001
0000
,
1001
0000
0010
0000
0000
0001
0000
0000
0000
0000
0100
0000
0000
0010
0000
0000
,
0000
0000
1000
0000
0000
0100
0000
0000
0000
0000
0010
0000
0000
0001
0000
0000
,
0000
0000
1000
0000
0000
0100
0000
0000
0000
0000
0001
0000
0000
0100
0000
0000
,
0110
0000
1000
0001
1000
0010
0100
0000
,
0001
0000
0101
0000
0010
0100
0010
0000
,
1000
1100
1001
0110
,
1000
0100
0001
0100
1000
0001
0100
0010
,
2000
0000
3000
0100
0010
0100
0010
0001
,
1000
0000
1100
0000
0010
0100
0010
0000
,
0001
0101
1001
0110
,
0001
0100
1000
0100
0001
1000
0100
0010
,
0002
0000
0003
0100
0010
0100
0010
1000
,
0001
0000
1000
0000
0000
1000
0000
0000
0000
0000
0001
0000
0000
0001
0000
0000
,
0000
0000
1000
0000
0000
1000
0000
0000
0000
0000
0001
0000
0000
0001
0000
0000
,
0000
0000
0100
0000
0000
0100
0000
0000
0000
0000
0010
0000
0000
0010
0000
0000
,
0000
0000
0100
0000
0000
1000
0000
0000
0000
0000
0100
0000
0000
0001
0000
0000
,
1000
0000
0001
0000
0000
0001
0000
0000
0000
0000
1000
0000
0000
1000
0000
0000
,
0000
0000
0001
0000
0000
0001
0000
0000
0000
0000
1000
0000
0000
1000
0000
0000
,
0000
0000
0100
0000
0000
0100
0000
0000
0000
0000
0010
0000
0000
0010
0000
0000
,
0000
0000
0100
0000
0000
0001
0000
0000
0000
0000
0100
0000
0000
1000
0000
0000
,
0001
0100
1000
0000
0100
0000
0001
0010
,
0001
1000
0010
1000
0001
0000
1001
0000
,
0010
1000
0010
0000
0100
0001
0100
0000
,
0110
0000
1001
0000
,
1000
0100
0001
0000
0100
0000
1000
0010
,
1000
0001
0010
0001
1000
0000
1001
0000
,
0010
0001
0010
0000
0100
1000
0100
0000
,
0110
0000
0001
1000
,
2002
0000
0000
0000
,
0000
0000
0000
3003
;

//---------------dance-single - NewbStepper-BSP----------------
#NOTEDATA:;
#CHARTNAME:NewbStepper-BSP;
#STEPSTYPE:dance-single;
#DESCRIPTION:NewbStepper-BSP;
#DIFFICULTY:Easy;
#METER:4;
#RADARVALUES:0.171473,0.227469,0.085736,0.007145,0,168,156,12,1,0,0,0,0,0,0.171473,0.227469,0.085736,0.007145,0,168,156,12,1,0,0,0,0,0;
#CREDIT:NewbStepper;
#NOTES:
0000
0000
0000
0000
,
0000
0000
0000
0000
,
0000
0000
0000
0000
,
0000
0000
0000
0000
,
0000
0000
0000
0000
,
0000
0000
0000
0000
,
0000
0000
0000
0000
,
0000
0000
0000
0000
,
0000
0000
0000
0000
,
0100
0010
0000
0010
,
0100
0010
0000
0010
,
1000
0010
0000
0010
,
0001
0010
1000
0000
,
0001
0000
1000
0000
,
0010
1000
0010
0000
,
0100
0000
0010
0000
,
0110
0000
0000
0000
,
1000
0000
0001
0000
,
0010
0001
0010
0000
,
0100
0000
0010
0000
,
0110
0000
0000
0000
,
1000
0100
1000
0100
,
1000
0000
0001
0000
,
0010
0001
0010
0000
,
0110
0000
0000
0001
0000
1000
0000
0000
,
0001
0100
0001
0100
,
0001
0000
1000
0000
,
0010
1000
0010
0000
,
0110
0000
0000
0000
,
0001
1000
0001
0000
,
1000
0001
1000
0000
,
0010
0010
0100
0010
,
0010
0000
1001
0000
,
1000
0001
1000
0000
,
0001
1000
0001
0000
,
0010
0010
0100
0010
,
0010
0000
0100
0000
,
1001
0000
0000
0000
,
0001
0000
0000
0000
,
0100
0000
0000
0000
,
0010
0000
0000
0000
,
0110
0000
1000
0001
,
1000
0000
0010
0000
,
1000
0000
0001
1000
,
0001
0100
0010
1000
,
0001
0000
1000
0000
,
0010
1000
0010
0000
,
0100
0000
0010
0000
,
0110
0000
0000
0000
,
1000
0000
0001
0000
,
0010
0001
0010
0000
,
0100
0000
0010
0000
,
0110
0000
0000
0000
,
1000
0100
1000
0000
,
0001
0100
0001
0000
,
1000
0010
0001
0010
,
1000
0000
1001
0000
,
0001
0100
0001
0000
,
1000
0100
1000
0000
,
0001
0010
1000
0010
,
0001
0000
1001
0000
,
1000
0001
1000
0000
,
0001
1000
0001
0000
,
0010
0010
0100
0010
,
0010
0000
1001
0000
,
0001
1000
0001
0000
,
1000
0001
1000
0000
,
0010
0010
0100
0010
,
0010
0000
1000
0100
,
0020
0000
0000
0000
,
0000
0000
0000
0030
;

//---------------dance-double - NewbStepper-EDP----------------
#NOTEDATA:;
#CHARTNAME:NewbStepper-EDP;
#STEPSTYPE:dance-double;
#DESCRIPTION:NewbStepper-EDP;
#DIFFICULTY:Hard;
#METER:14;
#RADARVALUES:0.533811,0.631859,0.264354,0.042868,0.650167,523,486,37,6,0,0,0,0,0,0.533811,0.631859,0.264354,0.042868,0.650167,523,486,37,6,0,0,0,0,0;
#CREDIT:NewbStepper;
#NOTES:
00000000
00000000
00000000
00000000
,
00000000
00000000
00000000
00000000
,
00000000
00000000
00000000
00000000
,
00000000
00000000
00000000
00000000
,
00000000
00000000
00000000
00000000
,
00000000
00000000
00000000
00000000
,
00000000
00000000
00000000
00000000
,
00000000
00000000
00000000
00000000
,
00000000
00000000
00000000
00000000
,
00011000
00000000
00100000
00010000
00000000
00000000
10000000
00000000
00000000
00000000
00100000
10000000
00000000
00000000
00010000
00000000
,
00000000
00000000
01000000
00010000
00000000
00000000
00001000
00000000
00000000
00000000
00000010
00001000
00000000
00000000
00000001
00000000
,
00000000
00000000
00000010
00000001
00000000
00000000
00000100
00000000
00000000
00000000
00000010
00001000
00000000
00000000
00010000
00000000
,
00000000
00000000
01000000
00010000
00000000
00000000
00100000
00000000
00001000
00000000
00010000
00000000
00100000
00000000
10000000
00000000
,
00010000
00000000
01000000
00010000
00000000
01000000
00000000
00001000
00000000
00010000
00001000
00000000
00000000
00001000
00010000
00000010
,
00001000
00000000
00000100
00001000
00000000
00000100
00000000
00000110
00000000
00000000
00000001
00000000
00000100
00000000
00001000
00000000
,
00010000
00000000
01000000
00100000
00000000
00100000
00000000
00020000
00000000
00000000
10030000
00000000
01000000
00000000
00010000
00000000
,
00011000
00000000
00000000
00000000
00000000
00000010
00001000
00000001
00000010
00000100
00001000
00000001
00000100
00000000
00000010
00000000
,
00001000
00000000
00000100
00001000
00000000
00000100
00000000
00010000
00000000
00000000
00001000
00010000
00000000
00010000
00001000
00100000
,
00010000
00000000
01000000
00010000
00000000
01000000
00000000
01100000
00000000
00000000
10000000
00000000
01000000
00000000
00010000
00000000
,
00001000
00000000
00000100
00000010
00000000
00000010
00000000
00002000
00000000
00000000
00003001
00000000
00000100
00000000
00001000
00000000
,
00011000
00000000
00000000
00000000
00000000
00100000
00010000
10000000
00100000
01000000
00010000
10000000
01000000
00000000
00100000
00000000
,
00001000
00000000
00010000
00001000
00000000
00100000
00000000
00010000
00000000
00000000
00001000
00000100
00000000
00000010
00000001
00000010
,
00000100
00000000
00010000
00001000
00000000
00000010
00000000
00000001
00000000
00000000
00000100
00000000
00001000
00000000
00010000
00000000
,
01000000
00000000
10000000
00100000
00000000
00100000
00000000
01000000
00000000
00001000
00010000
00000000
00110000
00000000
00000000
00000000
,
10100000
00000000
00000000
01010000
00000000
00011000
00000000
00001100
,
00000010
00000000
00000001
00000100
00000000
00000001
00000000
00001000
00000000
00000100
00000010
00000000
00000000
00000001
00000100
00001000
,
00010000
00000000
00100000
10000000
00000000
00010000
00000000
10000000
00000000
00000000
01000000
00000000
00100000
01000000
00100000
00000000
,
00001000
00000000
00010000
00001000
00000000
00100000
00000000
00010000
00000000
00001000
00000100
00000000
00000010
00000000
00000001
00000000
,
00001001
00000000
00000000
00000000
00000000
00000000
00000100
00000010
00000100
00000010
00001000
00000100
00010000
00000000
00001000
00000000
,
00100000
00000000
00010000
00100000
00000000
10000000
00000000
00000000
00100000
00000000
00010000
00000000
00001000
00000000
00000100
00001000
,
00000010
00000000
00001000
00000010
00000000
00000001
00000000
00000000
00000010
00000000
00001000
00000000
00010000
00000000
01000000
00010000
,
10000000
00000000
01000000
00010000
00000000
00001000
00000000
00000000
00100000
00000000
00010000
00000000
01000000
00000000
00100000
00010000
,
00001000
00000000
00000100
00000001
00000000
00001000
00000000
00000000
00000001
00000000
00000100
00000000
00000010
00000000
00001000
00000000
,
00010000
00000000
01000000
00010000
00000000
10000000
00000000
00000000
00010000
00000000
01000000
00000000
00001000
00000000
00010000
00000010
,
00001000
00000000
00000100
00001000
00000000
00000001
00000000
00000000
00000100
00000000
00000010
00000000
00000100
00000000
00001000
00000000
,
00010000
00000000
01000000
00100000
00000000
01000000
00000000
00000000
10000000
00000000
01000000
00100000
00000000
01000000
00000000
00000000
,
00010000
00001000
00000100
00000001
00000010
00000001
00001000
00000010
,
00010000
00000000
00001000
00100000
00000000
00100000
00000000
00000000
00001000
00000000
00010000
00000010
00000000
00000010
00000000
00000000
,
00010000
00000000
00001000
01000000
00000000
01000000
00000000
00000000
00001000
00000000
00010000
00000100
00000000
00000100
00000000
00000000
,
00000010
00000001
00000100
00000010
00001000
00000100
00010000
00001000
,
00100000
00010000
10000000
00100000
01000000
00000000
10010000
00000000
,
10000000
00000000
01000000
00000000
00000000
11000000
00000000
00000000
01000000
00000000
00010000
00000000
00000000
01010000
00000000
00000000
,
00010000
00000000
00001000
00000000
00000000
00011000
00000000
00000000
00001000
00000000
00000010
00000000
00000000
00001010
00000000
00000000
,
00000000
00000000
00000011
00000000
00000000
00000011
00000000
00000000
00000000
00000000
00001100
00000000
00000000
00001100
00000000
00000000
,
00000001
00000100
00000010
00001000
00010000
01000000
00100000
10000000
,
00010000
00000000
00000000
00000000
00010000
00000000
00000000
00010000
00000000
01000000
00100000
00000000
00000000
00000000
00000000
00000000
,
10000000
00000000
00000000
01000000
00000000
00010000
00000000
00011000
00000000
00000000
00000010
00000000
00000001
00000000
00001000
00000000
,
00000010
00000000
00010000
00001000
00000000
00000100
00000000
00000002
00000000
00000000
00000013
00000000
00000100
00000000
00001000
00000000
,
00020000
00000000
00000000
00000000
00030000
10000000
00100000
10000000
00010000
10000000
01000000
00100000
00010000
00000000
01000000
00000000
,
00001000
00000000
00010000
00001000
00000000
00000010
00000000
00001000
00000000
00010000
00001000
00000000
00000000
00000100
00000010
00000100
,
00000010
00000000
00001000
00000100
00000000
00000001
00000000
00000100
00000000
00000000
00000010
00000000
00001000
00000000
00010000
00000000
,
00100000
10000000
00100000
10000000
00000000
01000000
00010000
00001000
00000000
00000000
00000100
00000000
00000001
00000000
00000010
00000000
,
00000110
00000000
00000000
00000000
00000000
00000001
00000100
00000010
00000100
00001000
00010000
00001000
00010000
00000000
00100000
00000000
,
10000000
00000000
00010000
01000000
00000000
00010000
01000000
00000000
00000000
00000000
00100000
10000000
00000000
10100000
00000000
00000000
,
00000000
00000000
01000000
00010000
00000000
01010000
00000000
00000000
00000000
00000000
00100000
00001000
00000000
00100000
00010000
10000000
,
00010000
00100000
00010000
00000000
00100000
00001000
00100000
00000000
00001000
00010000
00001000
00000000
00010000
00000010
00010000
00000010
,
00001000
00000000
00000001
00000010
00000000
00000001
00000100
00000010
00001000
00000000
00000000
00000000
00000000
00010000
01000000
00100000
,
10000000
00000000
00010000
00100000
00000000
00010000
00100000
00000000
00000000
00000000
01000000
00000000
00010000
00000000
00001000
00000000
,
00000010
00000000
00000001
00000000
00000000
00000011
00000000
00000000
00000000
00000000
00001000
00000000
00000000
00000001
00000100
00000010
,
00001000
00000000
00000001
00000100
00000000
00001000
00010000
00000000
00100000
00000000
10000000
01000000
00000000
00010000
00001000
00000000
,
00000010
00000000
00000110
00000000
00000000
00000110
00000000
00000000
00001000
00000000
00001001
00000000
00000000
00001001
00000000
00000000
,
00000010
00000000
00000001
00000100
00000000
00000010
00001000
00000000
00000000
00000000
00000001
00000000
00000100
00000000
00001000
00010000
,
00001000
00000000
00011000
00000000
00000000
00011000
00000000
00000000
00000000
00000000
01010000
00000000
00000000
01010000
00000000
00000000
,
10000000
01000000
10000000
00000000
01000000
00010000
00000000
00010000
00001000
00000100
00001000
00000000
00000100
00000001
00000000
00000001
,
00001000
00000000
00000000
00000000
00000000
00000000
00000010
00000100
00000010
00000000
00000000
00000000
00000000
00000000
00010000
00001000
,
00010000
00000000
00000100
00001000
00000000
00000100
00001000
00000000
00000000
00000000
00000001
00000000
00000100
00000000
00001000
00000000
,
00010000
00000000
01000000
00000000
10000000
00000000
00010000
00000000
01000000
00000000
00100000
00000000
10000000
00000000
01000000
00010000
,
00001000
00000000
00100000
00010000
00000000
00001000
00000000
00000000
00000100
00000000
00000010
00000001
00000000
00000100
00000000
00000000
,
00000110
00000000
00000101
00001100
,
00022000
00000000
00000000
00000000
,
00000000
00000000
00000000
00033000
;

//---------------dance-double - NewbStepper-DDP----------------
#NOTEDATA:;
#CHARTNAME:NewbStepper-DDP;
#STEPSTYPE:dance-double;
#DESCRIPTION:NewbStepper-DDP;
#DIFFICULTY:Medium;
#METER:10;
#RADARVALUES:0.336821,0.379115,0.128605,0.057158,0.114315,330,312,18,8,0,0,0,0,0,0.336821,0.379115,0.128605,0.057158,0.114315,330,312,18,8,0,0,0,0,0;
#CREDIT:NewbStepper;
#NOTES:
00000000
00000000
00000000
00000000
,
00000000
00000000
00000000
00000000
,
00000000
00000000
00000000
00000000
,
00000000
00000000
00000000
00000000
,
00000000
00000000
00000000
00000000
,
00000000
00000000
00000000
00000000
,
00000000
00000000
00000000
00000000
,
00000000
00000000
00000000
00000000
,
00000000
00000000
00000000
00000000
10000000
01000000
00100000
00010000
,
00000000
01000000
00100000
00010000
00000000
00100000
00010000
00001000
,
00000000
00010000
00001000
00000010
00000000
00001000
00000010
00000001
,
00000000
00001000
00000000
00000001
00000000
00000100
00000000
00001000
,
00000000
00010000
00000000
01000000
00000000
10000000
01000000
00100000
,
00010000
00000000
01010000
00000000
00100000
01000000
00100000
00000000
,
00010000
00011000
00000100
00000010
,
00000001
00000100
00001000
00000100
00000001
00001000
00000100
00010000
,
00002000
00000000
00003000
01000000
00001000
00010000
00000100
00000000
,
00001000
00000000
00001100
00000000
00000010
00000100
00000010
00000000
,
00001000
00011000
01000000
00100000
,
10000000
01000000
00010000
01000000
10000000
00010000
01000000
00001000
,
00020000
00000000
00030000
00000100
00010000
00001000
01000000
00000000
,
00100000
00000000
00000000
00000000
10000000
00000000
00000000
01000000
00000000
00000000
00010000
00001000
00000000
00000000
00000000
00000000
,
00000010
00000000
00000000
00000000
00000001
00000000
00000000
00000100
00000000
00000000
00001000
00000000
00010000
00000000
00000000
00000000
,
00000100
00001000
00000100
00010000
00001000
00100000
00010000
00000000
,
10010000
00000000
00000000
10000000
00000000
01000000
00000000
00010000
,
00001000
00000000
00000010
00000000
00000001
00000100
00001000
00000000
,
00010000
00000000
00000000
00000000
00100000
00000000
00000000
10000000
00000000
00000000
00010000
00000000
00010000
00000000
00000000
00000000
,
10000000
01000000
00100000
00001000
00010000
00000100
00000010
00000001
,
00002000
00000000
00003002
00000000
,
00001003
00000100
00000010
00000000
00000001
00000100
00000010
00000000
,
00010000
00001000
00010000
00001000
00100000
00000000
01100000
00000000
,
00010000
01000000
00100000
00000000
10000000
01000000
00100000
00000000
,
00001000
00010000
00001000
00010000
00000010
00000000
00000110
00000000
,
00000001
00000100
00001000
00010000
,
00001000
00000100
00000001
00000010
,
00001000
00010000
01000000
10000000
,
00010000
00100000
00010000
10000000
00100000
10000000
00010000
01000000
,
00001000
00000000
00010000
00000000
00000000
00010000
00000000
00000000
00000000
00000000
00001000
00000000
00000000
00001000
00000000
00000000
,
00000000
00000000
00000100
00000000
00000000
00000100
00000000
00000000
00000000
00000000
00000001
00000000
00000000
00000001
00000000
00000000
,
00000000
00000000
00000010
00000000
00000000
00000010
00000000
00000000
00000000
00000000
00000100
00000000
00000000
00000100
00000000
00000000
,
00001000
00000100
00001000
00000000
00000001
00000100
00000001
00000000
,
00001000
00000000
00000100
00000000
00000000
00010000
00000000
00000000
00000000
00000000
00001000
00000000
00000000
01000000
00000000
00000000
,
00000000
00000000
00100000
00000000
00000000
10000000
00000000
00000000
00000000
00000000
01000000
00000000
00000000
00010000
00000000
00000000
,
00000000
00000000
00001000
00000000
00000000
00000100
00000000
00000000
00000000
00000000
00000001
00000000
00000000
00000100
00000000
00000000
,
00000110
00000000
00000001
00001000
00000001
00000010
00000100
00000000
,
00001000
00000000
00001100
00000000
00000010
00000100
00000010
00000000
,
00001000
00011000
01000000
00100000
,
10000000
01000000
00010000
01000000
10000000
00010000
01000000
00001000
,
00020000
00000000
00030000
00000100
00010000
00001000
01000000
00000000
,
00010000
00000000
01010000
00000000
00100000
01000000
00100000
00000000
,
00010000
00011000
00000100
00000010
,
00000001
00000100
00001000
00000100
00000001
00001000
00000100
00010000
,
00002000
00000000
00003000
01000000
00001000
00010000
00000100
00000000
,
00001000
00000000
00000001
00000000
00000000
00000001
00000000
00000000
00000000
00000000
00001000
00000000
00000000
00001000
00000000
00000000
,
00000000
00000000
00010000
00000000
00000000
00010000
00000000
00000000
00000000
00000000
10000000
00000000
00000000
10000000
00000000
00000000
,
00000000
00000000
01000000
00000000
00000000
01000000
00000000
00000000
00000000
00000000
00100000
00000000
00000000
00100000
00000000
00000000
,
00000000
00000000
00001000
00000000
00000000
00010000
00000000
00000000
00000000
00000000
00100000
00000000
00000000
10000000
00000000
00000000
,
00010000
00000000
10000000
00000000
00000000
10000000
00000000
00000000
00000000
00000000
00010000
00000000
00000000
00010000
00000000
00000000
,
00000000
00000000
00001000
00000000
00000000
00001000
00000000
00000000
00000000
00000000
00000001
00000000
00000000
00000001
00000000
00000000
,
00000000
00000000
00000100
00000000
00000000
00000100
00000000
00000000
00000000
00000000
00000010
00000000
00000000
00000010
00000000
00000000
,
00000000
00000000
00010000
00000000
00000000
00001000
00000000
00000000
00000000
00000000
00000010
00000000
00000000
00000001
00000000
00000000
,
00001000
00000100
00000001
00000000
00000100
00000000
00001000
00000010
,
00010000
00001000
00100000
00010000
10000000
00000000
10010000
00000000
,
00100000
10000000
00100000
00000000
01000000
00010000
01000000
00000000
,
01100000
00000000
10010000
00000000
,
00010000
01000000
10000000
00000000
01000000
00000000
00010000
00100000
,
00001000
00010000
00000010
00001000
00000001
00000000
00001001
00000000
,
00000010
00000001
00000010
00000000
00000100
00001000
00000100
00000000
,
00000110
00000000
00010000
00001000
,
00022000
00000000
00000000
00000000
,
00000000
00000000
00000000
00033000
;

//---------------dance-double - NewbStepper-BDP----------------
#NOTEDATA:;
#CHARTNAME:NewbStepper-BDP;
#STEPSTYPE:dance-double;
#DESCRIPTION:NewbStepper-BDP;
#DIFFICULTY:Easy;
#METER:4;
#RADARVALUES:0.170452,0.227469,0.078592,0.007145,0,167,156,11,1,0,0,0,0,0,0.170452,0.227469,0.078592,0.007145,0,167,156,11,1,0,0,0,0,0;
#CREDIT:NewbStepper;
#NOTES:
00000000
00000000
00000000
00000000
,
00000000
00000000
00000000
00000000
,
00000000
00000000
00000000
00000000
,
00000000
00000000
00000000
00000000
,
00000000
00000000
00000000
00000000
,
00000000
00000000
00000000
00000000
,
00000000
00000000
00000000
00000000
,
00000000
00000000
00000000
00000000
,
00000000
00000000
00000000
00000000
,
00001000
00010000
00000000
00010000
,
00001000
00010000
00000000
00010000
,
00000010
00010000
00000000
00010000
,
00001000
00010000
00100000
00000000
,
10000000
00000000
00010000
00000000
,
00100000
00010000
00100000
00000000
,
00001000
00000000
00010000
00000000
,
00011000
00000000
00000000
00000000
,
00000001
00000000
00001000
00000000
,
00000010
00001000
00000010
00000000
,
00010000
00000000
00001000
00000000
,
00011000
00000000
00000000
00000000
,
10000000
01000000
10000000
01000000
,
10000000
00000000
00010000
00000000
,
00100000
00001000
00100000
00000000
,
00011000
00000000
00000000
00001000
00000000
00000100
00000000
00000000
,
00000001
00000100
00000001
00000100
,
00000001
00000000
00001000
00000000
,
00000010
00010000
00000010
00000000
,
00011000
00000000
00000000
00000000
,
10000000
00010000
10000000
00000000
,
00010000
10000000
00010000
00000000
,
00100000
00100000
00001000
00010000
,
00010000
00000000
00011000
00000000
,
00000001
00001000
00000001
00000000
,
00001000
00000001
00001000
00000000
,
00000010
00000010
00010000
00001000
,
00001000
00000000
00010000
00000000
,
00011000
00000000
00000000
00000000
,
00010000
00000000
00000000
00000000
,
01000000
00000000
00000000
00000000
,
00100000
00000000
00000000
00000000
,
10000000
00000000
00100000
00010000
,
00100000
00000000
00001000
00000000
,
00010000
00000000
00000100
00001000
,
00000100
00000010
00000001
00001000
,
00000001
00000000
00001000
00000000
,
00000010
00001000
00000010
00000000
,
00010000
00000000
00001000
00000000
,
00011000
00000000
00000000
00000000
,
10000000
00000000
00010000
00000000
,
00100000
00010000
00100000
00000000
,
00001000
00000000
00010000
00000000
,
00011000
00000000
00000000
00000000
,
00000001
00000100
00000001
00000000
,
00001000
00000100
00001000
00000000
,
00000001
00000100
00001000
00010000
,
00100000
00000000
10010000
00000000
,
10000000
01000000
10000000
00000000
,
00010000
01000000
00010000
00000000
,
10000000
01000000
00010000
00001000
,
00000010
00000000
00001001
00000000
,
00000001
00001000
00000001
00000000
,
00001000
00000001
00001000
00000000
,
00000010
00000010
00010000
00001000
,
00001000
00000000
00011000
00000000
,
10000000
00010000
10000000
00000000
,
00010000
10000000
00010000
00000000
,
00100000
00100000
00001000
00010000
,
00010000
00000000
00001000
00000100
,
00000020
00000000
00000000
00000000
,
00000000
00000000
00000000
00000030
;
