#TITLE:Funky Drivin';
#ARTIST:KO3;
#CREDIT:FREQUENCY LAB;
#BANNER:Funky Drivin.png;
#BACKGROUND:Funky Drivin-bg.png;
#MUSIC:Funky Drivin.ogg;
#SAMPLESTART:45;
#SAMPLELENGTH:15;
#BPMS:0=128;

//---------------dance-single - RGTM-bSP----------------
#NOTES:
     dance-single:
     RGTM:
     Beginner:
     1:
     0.063861,0.175673,0.007843,0,0,57,56,1,0,0,0,0.063861,0.175673,0.007843,0,0,57,56,1,0,0,0:
0000
0000
0000
0000
,
0000
0000
0000
0000
,
0000
0000
0000
0000
,
0000
0000
0000
0000
,
1000
0000
0000
0000
,
0000
0000
0000
0000
,
0001
0000
0000
0000
,
0100
0000
0000
0000
,
0001
0000
0000
0000
,
0001
0000
0000
0000
,
1000
0000
0000
0000
,
1000
0000
0000
0000
,
0010
0000
0000
0000
,
0010
0000
0000
0000
,
0100
0000
0000
0000
,
0100
0000
0000
0000
,
0001
0000
0000
0000
,
0000
0000
0000
0000
,
0000
0000
0000
0000
,
0000
0000
0000
0000
,
1000
0000
0000
0000
,
0000
0000
0000
0000
,
0000
0000
0000
0000
,
0100
0000
0000
0000
,
1000
0000
0000
0000
,
1000
0000
0000
0000
,
0001
0000
0000
0000
,
0001
0000
0000
0000
,
0100
0000
0000
0000
,
0100
0000
0000
0000
,
0010
0000
0000
0000
,
0010
0000
0000
0000
,
1000
0000
0000
0000
,
0000
0000
0000
0000
,
1000
0000
0000
0000
,
0000
0000
0000
0000
,
0001
0000
0000
0000
,
0000
0000
0000
0000
,
0001
0000
0000
0000
,
0000
0000
0000
0000
,
1000
0000
0000
0000
,
0100
0000
0000
0000
,
0010
0000
0000
0000
,
0001
0000
0000
0000
,
1000
0000
1000
0000
,
0001
0000
0001
0000
,
0100
0100
0100
0100
,
0100
0000
0000
0000
,
0001
0000
0000
0000
,
0001
0000
0000
0000
,
1000
0000
0000
0000
,
1000
0000
0000
0000
,
0010
0000
0000
0000
,
0010
0000
0000
0000
,
0100
0000
0000
0000
,
0100
0000
0000
0000
,
0001
0000
0000
0000
,
1000
0000
0000
0000
,
0100
0000
0000
0000
,
0010
0000
0000
0000
,
0001
0000
0000
0000
,
1000
0000
0000
0000
,
0010
0000
0000
0000
,
0100
0000
0000
0000
,
1001
0000
0000
0000
;

//---------------dance-single - RGTM-BSP----------------
#NOTES:
     dance-single:
     RGTM:
     Easy:
     4:
     0.171415,0.225865,0.007843,0.039213,0,153,152,1,5,0,0,0.171415,0.225865,0.007843,0.039213,0,153,152,1,5,0,0:
0000
0000
0000
0000
,
0000
0000
0000
0000
,
0000
0000
0000
0000
,
0000
0000
0000
0000
,
0000
1000
0000
0001
,
0000
1000
0000
0001
,
0000
0010
0000
0100
,
0200
0000
0000
0300
,
1000
1000
0001
0000
,
0100
0010
0100
0000
,
0001
0001
1000
0000
,
0100
0010
0100
0000
,
1000
1000
0001
0001
,
0010
0100
0010
0000
,
0001
0001
1000
1000
,
0010
0000
0000
0010
,
0200
0000
0000
0000
,
0300
0000
0000
0000
,
0000
0000
0000
0000
,
0000
0000
0000
0000
,
0000
0001
0000
1000
,
0000
0001
0000
1000
,
0000
0010
0000
0100
,
0200
0000
0000
0300
,
0001
0001
1000
0000
,
0100
0010
0100
0000
,
1000
1000
0001
0000
,
0100
0010
0100
0000
,
0001
0001
1000
1000
,
0010
0100
0010
0000
,
1000
1000
0001
0001
,
0010
0000
0000
0000
,
0200
0000
0000
0000
,
0300
0000
0000
0000
,
0000
0000
0000
0000
,
0000
0000
0000
0000
,
1000
0000
0000
0000
,
1000
0000
0000
0000
,
0001
0000
0000
0000
,
0001
0000
0000
0000
,
1000
0001
0000
0001
,
1000
0001
0000
0001
,
0100
0010
0000
0010
,
0100
0010
0000
0010
,
1000
0000
0001
0000
,
1000
0000
0001
0000
,
1000
0001
1000
0001
,
0200
0000
0000
0300
,
0001
0001
1000
1000
,
0100
0010
0100
0010
,
0001
0001
1000
1000
,
0010
0100
0010
0010
,
1000
1000
0001
0001
,
0010
0100
0010
0100
,
1000
1000
0001
0001
,
0100
0100
0010
0000
,
1000
1000
0001
0001
,
0100
0010
0100
0010
,
1000
1000
0001
0001
,
0010
0100
0010
0010
,
0001
0001
1000
1000
,
0010
0100
0010
0100
,
0001
0001
1000
1000
,
0100
0000
0000
0100
,
1001
0000
0000
0000
;

//---------------dance-single - RGTM-DSP----------------
#NOTES:
     dance-single:
     RGTM:
     Medium:
     7:
     0.274488,0.388205,0.290173,0.094110,0,245,208,37,12,0,0,0.274488,0.388205,0.290173,0.094110,0,245,208,37,12,0,0:
0000
0000
0000
0000
,
0000
0000
0000
0000
,
0000
0000
0000
0000
,
0000
0000
0000
0000
,
1000
0001
1000
0001
,
0100
0010
0100
0010
,
1000
0100
0010
0001
,
0200
0000
0000
0310
,
1000
1000
0001
0001
,
0010
0010
0100
1000
,
0001
0001
0100
0100
,
0010
0000
0010
0000
1000
0001
1000
0000
,
0001
0001
1000
1000
,
0010
0000
0010
0000
0100
0010
0100
0000
,
0001
0001
1000
1000
,
0200
0000
0000
0310
,
2002
0000
0000
0000
,
3003
0000
0000
0000
,
0000
0000
0000
0000
,
0000
0000
0000
0000
,
0001
1000
0000
1000
,
0010
0100
0000
0100
,
0001
1000
0000
1000
,
0200
0000
0000
0310
,
1100
0101
1000
0001
,
1000
1000
0100
0010
,
0011
1010
0001
1000
,
0001
0000
0001
0000
0100
0010
0100
0000
,
0101
1100
1001
0001
,
1000
0000
0100
0000
0010
0100
0010
0000
,
0011
1010
1001
0001
,
0200
0000
0000
0300
,
2002
0000
0000
0000
,
3003
0000
0000
0000
,
0000
0000
0000
0000
,
0000
0000
0000
0000
,
0000
1000
0000
1000
0000
0001
0000
0001
,
0000
1000
0000
0001
0000
1000
0000
0001
,
0000
0010
0000
0010
0000
0100
0000
0100
,
0000
0010
0000
0100
0000
0010
0000
0100
,
0100
1000
0000
0001
,
0100
0001
0000
1000
,
0010
1000
0000
0001
,
0010
0001
0000
1000
,
0110
0010
1001
1000
,
0110
0100
1001
0001
,
0110
1001
0110
1001
,
0200
0000
0000
0310
,
0011
0000
1010
0000
0001
1000
0100
0000
,
0010
0100
1000
0001
,
0101
0000
1100
0000
0001
1000
0100
0000
,
0010
0000
0001
0000
0100
0010
0100
0000
,
1010
0000
0011
0000
1000
0001
0100
0000
,
0010
0100
0001
1000
,
1100
0000
0101
0000
1000
0001
0100
0000
,
0010
0000
1000
0000
0100
0010
0100
0000
,
0011
0000
1010
0000
0001
1000
0100
0000
,
0010
0000
0100
0000
1000
0001
0100
0000
,
0101
0000
1100
0000
0001
1000
0100
0000
,
0010
0000
0001
0000
0100
0010
0100
0000
,
1010
0000
0011
0000
1000
0001
0100
0000
,
0010
0000
0100
0000
0001
1000
0100
0000
,
1100
0000
0101
0000
1000
0001
0100
0000
,
0020
0000
0000
0130
,
2002
0000
0000
0000
,
0000
0000
0000
0000
,
3003
0000
0000
0000
;

//---------------dance-single - RGTM-ESP----------------
#NOTES:
     dance-single:
     RGTM:
     Hard:
     11:
     0.413413,0.491726,0.125480,0.376441,0.219591,369,353,16,48,0,0,0.413413,0.491726,0.125480,0.376441,0.219591,369,353,16,48,0,0:
0000
0000
0000
0000
,
0000
0000
0000
0000
,
0000
0000
0000
0000
,
0000
0000
0000
0000
,
0001
0000
0010
0000
0100
1000
0100
0000
,
0010
0000
0001
0000
0100
0000
0010
0100
,
0010
1000
0100
0010
,
1001
0000
0000
0001
0000
0000
0200
0000
0000
0000
0310
0000
0110
0000
0100
0000
,
0001
0000
0000
0001
0000
0000
1000
0000
0000
0000
1000
0000
0010
0000
0000
0100
,
0010
0000
0000
0010
0000
0000
1000
0100
0000
0100
0010
0000
0001
0000
1000
0000
,
1000
0000
0000
1000
0000
0000
0001
0000
0000
0000
0001
0000
0010
0000
0000
0100
,
0010
0000
0000
0010
0000
0000
0001
0100
0000
0100
0010
0000
1000
0000
0001
0100
,
0001
0000
0000
1000
0000
0000
0100
0000
0000
0000
0010
0000
0100
0000
0000
1000
,
0001
0000
0000
0100
0000
0000
0010
0100
0000
0100
0001
0000
1000
0000
0001
0000
,
0001
0000
0000
1000
0000
0000
0010
0000
0000
0000
0100
0000
0010
1000
0000
1000
,
0001
0000
0000
1000
0000
0000
0020
0000
0000
0000
0130
0000
0110
0000
0010
0000
,
2000
0000
0000
0000
,
3000
0002
0000
0023
0000
0130
0000
0200
,
0000
1300
0000
0000
0000
1000
0001
0200
,
0000
0000
0000
0000
0000
0000
0000
0301
,
0020
0100
0000
0100
,
0030
0002
0100
2003
0000
3100
1000
0200
,
0000
0310
0100
0000
0000
1000
0001
0001
,
0100
0000
0000
0100
0000
0000
0020
0000
0000
0000
1030
0000
1001
0000
0001
0000
,
2000
0010
0001
3100
,
1000
0020
1030
0002
1003
0200
1300
0100
,
0010
0200
1000
0000
0310
0100
1000
0002
,
0100
0000
1000
0000
0010
0000
1003
0001
,
0020
1000
0100
0031
,
0010
2000
3010
0200
0310
0001
1000
0002
,
0103
0020
1000
0000
0130
0001
1000
0010
,
0010
0000
0000
0010
0000
0000
0200
0000
0000
0000
0301
0000
0000
0000
1000
0000
,
1001
0000
0000
0001
0000
0000
0010
0000
0000
0000
0010
0000
0000
0010
0000
0000
,
0010
0000
0000
0010
0000
0000
0100
0000
0000
0000
0100
0000
0000
0100
0000
0000
,
1000
0000
0000
1000
0000
0000
0010
0000
0000
0000
0010
0000
0000
0010
0000
0000
,
0010
0000
0000
0010
0000
0000
0100
0000
0000
0000
0100
0000
0000
0100
0000
0000
,
0001
0000
0000
0001
0000
0000
0010
0000
0000
0000
0010
0000
0000
0010
0000
0000
,
0010
0000
0000
0010
0000
0000
1000
0000
0000
0000
1000
0000
0000
1000
0000
0000
,
0100
0000
0000
0100
0000
0000
0001
0000
0000
0000
0001
0000
0000
0001
0000
0000
,
0001
0000
0000
0001
0000
0000
1000
0000
0000
0000
1000
0000
0000
1000
0000
0000
,
0001
0000
0000
1000
0100
0000
0010
0000
0000
0000
0001
0000
1000
0001
0000
0000
,
1000
0000
0000
0001
0100
0000
0010
0000
0000
0000
1000
0000
0001
1000
0000
0000
,
0001
0000
0000
0010
0100
0000
1000
0000
0000
0000
0001
0000
1000
0010
0000
0000
,
1000
1000
1000
1000
,
1001
0000
0001
0100
0110
0000
0010
1000
,
1001
0000
1000
0100
0110
0000
0010
0001
,
1001
1100
0101
0110
,
1001
0000
0000
1000
0000
0000
0200
0000
0000
0000
0310
0000
0110
0000
0100
0000
,
2000
0100
0001
3010
,
1000
0200
1300
0002
1003
0020
1030
0010
,
0100
0020
1000
0000
0130
0010
1000
0002
,
0010
0000
1000
0000
0100
0000
1003
0001
,
0200
1000
0010
0301
,
0100
2000
3100
0020
0130
0001
1000
0002
,
0013
0200
1000
0000
0310
0001
1000
0010
,
0100
0002
0000
2003
0000
3100
0010
0001
,
1000
0000
0000
0100
1000
0000
0010
0000
0000
0000
0100
0000
0010
0100
0000
0001
,
0100
0020
1030
0200
0310
0001
1000
0002
,
0103
0020
1000
0000
0130
0010
1000
0100
,
0010
0000
0000
0010
0100
0000
1000
0100
0000
1000
0001
0000
1000
0000
0001
0100
,
0010
0000
0000
0010
0100
0000
0001
0000
0000
0000
1000
0000
0100
0000
0010
0100
,
0010
0002
0013
2000
3010
0001
0100
0002
,
1003
0020
0100
0000
0031
0010
1000
0001
,
0010
0000
0000
0010
0000
0000
0200
0000
0000
0000
1300
0000
1001
0000
0001
0000
,
0200
0000
0000
0000
,
0000
0000
0000
0000
,
0300
0000
0000
0000
;

//---------------dance-single - RGTM-CSP----------------
#NOTES:
     dance-single:
     RGTM:
     Challenge:
     14:
     0.562421,0.698769,0.180378,0.399969,0.592110,502,479,23,51,0,0,0.562421,0.698769,0.180378,0.399969,0.592110,502,479,23,51,0,0:
0000
0000
0000
0000
,
0000
0000
0000
0000
,
0000
0000
0000
0000
,
0000
0000
0000
0000
,
1000
0000
0000
0010
0100
0000
0001
0100
0000
0000
0010
0000
1000
0000
0100
1000
,
0100
0000
0010
0100
0010
0000
0001
0000
0000
0010
1000
0000
0010
0000
0001
0010
,
0100
0000
0000
1000
0100
0000
1000
0001
0000
0001
0100
0000
0010
0000
1000
0001
,
0020
0000
0000
1000
0000
0000
0100
0000
0000
0000
0031
0000
1001
0000
1001
0000
,
1000
0000
0000
0010
1000
0000
0010
0000
0000
1000
0100
0000
0010
0000
0001
1000
,
0000
0000
1000
0100
0010
0000
0010
0100
0000
1000
0001
0000
1000
0000
0001
0100
,
0001
0000
0000
0010
0001
0000
0010
0000
0000
0001
0100
0000
0010
0000
1000
0001
,
0000
0000
0001
0100
0010
0000
0010
0100
0000
0001
1000
0000
0001
0000
1000
0100
,
1000
0000
0000
0100
1000
0000
0100
0000
0000
1000
0010
0000
0100
0000
0001
1000
,
0000
0000
1000
0010
0100
0000
0100
0010
0000
1000
0001
0000
1000
0000
0001
0010
,
0001
0000
0000
0100
0001
0000
0100
0000
0000
0001
0010
0000
0100
0000
1000
0001
,
0200
0000
0000
1000
0000
0000
0010
0000
0000
0000
0301
0000
1001
0000
1001
0000
,
2000
0000
0000
0000
,
3000
0020
0000
2030
0000
3100
0000
0200
,
0000
0000
0310
0000
0000
0000
0000
0000
0000
0000
0100
1000
0010
0100
0002
0000
,
0000
0000
0000
0000
0000
0000
0000
0000
0000
0000
0000
0000
0000
0000
1003
0001
,
0020
0100
0000
0100
,
0030
0002
0010
2003
0000
3100
0010
0200
,
0000
2300
0100
3000
0000
0001
0001
1000
,
0020
0000
0000
0001
0000
0000
0100
0000
0000
0000
1030
0000
1001
0000
1001
0000
,
0002
0000
0000
0010
0000
0000
1000
0000
0000
0000
1000
0000
0000
1000
0000
0000
,
1003
0000
0020
0100
0030
0000
0002
0010
0003
0010
0200
0000
0300
1000
0100
0010
,
0100
0000
2000
0001
3000
0000
0100
0000
0000
0000
0010
0100
0001
1000
0200
0000
,
0010
0000
0000
0010
0000
0000
1000
0000
0000
0000
1000
0000
0000
1300
0100
1000
,
0020
0000
0000
0001
0000
0000
0100
0000
0000
0000
0100
0000
0000
0100
0030
0000
,
0100
0000
2000
0100
3000
0000
0020
0100
0030
0100
0001
0000
0000
1000
0001
1000
,
0100
0000
0200
0010
0000
0000
1000
0000
0000
0000
2300
0000
3000
0001
0200
0000
,
0320
0000
0000
0001
0000
0000
0100
0000
0000
0000
1000
0000
0030
0000
0010
1000
,
0001
0000
0010
0001
0000
0000
0010
0000
0000
0000
0100
0000
0000
0010
0100
0000
,
1000
0000
0010
1000
0000
0000
0010
0000
0000
0000
0100
0000
0000
0010
0100
0000
,
0001
0000
1000
0001
0000
0000
0010
0000
0000
0000
0100
0000
0000
0010
0100
0000
,
1000
0000
0001
1000
0000
0000
0010
0000
0000
0000
0100
0000
0000
0010
0100
0000
,
0001
0000
0100
0001
0100
0000
0010
0000
1000
0000
0010
0000
1000
0001
1000
0000
,
0100
0000
0010
0100
0010
0000
0001
0000
0100
0000
0010
0000
1000
0001
1000
0000
,
0001
0000
0010
0001
0010
0000
0100
0000
1000
0000
0100
0000
1000
0001
1000
0000
,
0010
0000
0100
0010
0100
0000
0001
0000
0010
0000
0100
0000
1000
0001
1000
0000
,
1001
0000
0000
0001
0100
0000
0010
0000
0000
0000
0100
0000
0001
1000
0000
0000
,
1001
0000
0000
1000
0100
0000
0010
0100
0000
0100
0010
0000
0001
0000
1000
0000
,
1001
0000
0000
1000
0010
0000
0100
0000
0000
0000
0010
0000
1000
0001
0000
0000
,
1001
0000
0000
0001
0010
0000
0100
0010
0000
0010
0100
0000
1000
0000
0001
0000
,
0101
0000
0000
0001
0010
0000
0100
0000
1100
0000
0000
1000
0010
0100
0001
0000
,
0011
0000
0000
0001
0100
0000
0010
0000
1010
0000
0000
1000
0100
0010
0001
0000
,
0011
1000
1010
0001
0101
1000
1100
0001
,
0100
0000
0001
0100
0010
0000
1000
0100
0000
0001
0100
0000
0110
0000
1001
0000
,
2000
0000
0000
0010
0000
0000
0001
0000
0000
0000
0001
0000
0000
0001
0000
0000
,
3001
0000
0020
0100
0030
0000
2000
0010
3000
0010
0200
0000
0300
0001
0100
0010
,
0100
0000
0002
1000
0003
0000
0100
0000
0000
0000
0010
0100
1000
0001
0200
0000
,
0010
0000
0000
0010
0000
0000
0001
0000
0000
0000
0001
0000
0000
0301
0100
0001
,
0020
0000
0000
1000
0000
0000
0100
0000
0000
0000
0100
0000
0000
0100
0030
0000
,
0100
0000
0002
0100
0003
0000
0020
0100
0030
0100
1000
0000
0000
0001
1000
0001
,
0100
0000
0200
0010
0000
0000
0001
0000
0000
0000
0302
0000
0003
1000
0200
0000
,
0300
0000
0020
0000
0031
0000
0010
0100
0000
0100
2000
0000
3001
0000
0001
1000
,
0001
0000
0000
0010
0100
0000
1000
0000
0000
1000
0010
0000
0100
0000
0001
1000
,
0100
0000
0002
0000
0103
0000
0020
0100
0030
0100
2000
0000
3000
0000
1000
0001
,
0100
0000
0020
0001
0030
0000
0010
0000
1000
0000
0001
0010
0100
1000
0010
0000
,
0100
0000
1000
0100
0010
0000
0001
0010
0000
1000
0010
0000
0100
0000
0001
1000
,
0010
0000
0000
1000
0100
0000
0010
0000
0000
0001
0010
0000
0100
0000
1000
0001
,
1000
0000
0020
0000
0031
0000
2000
0100
3000
0100
0001
0000
1000
0000
0002
0000
,
0013
0000
0200
0000
0310
0000
0100
1000
0000
0001
0200
0000
0310
0000
1000
0001
,
1000
0010
1000
0010
0100
0001
0100
0001
0010
0100
1000
0001
0100
0000
0110
0000
,
2002
0000
0000
0000
,
0000
0000
0000
0000
,
3003
0000
0000
0000
;

//---------------dance-double - RGTM-CDP----------------
#NOTES:
     dance-double:
     RGTM:
     Challenge:
     14:
     0.543375,0.698769,0.219591,0.454866,0.396047,485,457,28,58,0,0,0.543375,0.698769,0.219591,0.454866,0.396047,485,457,28,58,0,0:
// measure 0
00000000
00000000
00000000
00000000
,  // measure 1
00000000
00000000
00000000
00000000
,  // measure 2
00000000
00000000
00000000
00000000
,  // measure 3
00000000
00000000
00000000
00000000
,  // measure 4
10000000
00000000
01000000
00000000
00010000
00000000
00001000
00010000
00001000
00000000
00000100
00000000
00000001
00000000
00000010
00000100
,  // measure 5
00000000
00000000
00000010
00000001
00000000
00000000
00000100
00000000
00000000
00000010
00001000
00000000
00000100
00000000
00010000
00001000
,  // measure 6
00010000
00000000
00100000
01000000
00000000
00000000
00010000
10000000
00000000
00000000
01000000
00000000
00100000
00000000
00001000
00010000
,  // measure 7
00002000
00000000
00000000
00000100
00000000
00000000
00010000
00000000
00000000
00000000
00103000
00000000
00101000
00000000
00110000
00000000
,  // measure 8
10010000
00000000
10000000
00010000
00000000
00000000
01000000
00000000
00000000
00000000
00100000
00000000
01000000
00001000
00000000
00001000
,  // measure 9
00010000
00000000
00010000
00000100
00000000
00000000
00000010
00000100
00000000
00000100
00001000
00000000
00000010
00000000
00000100
00000001
,  // measure 10
00000100
00000000
00000000
00000010
00000100
00000000
00001000
00000000
00000000
00000000
00010000
00000000
00100000
01000000
00000000
01000000
,  // measure 11
00010000
00000000
00010000
10000000
00000000
00000000
01000000
00100000
00000000
00010000
10000000
00000000
00100000
00000000
00010000
00001000
,  // measure 12
00010000
00000000
00010000
00000100
00000000
00000000
00000010
00000000
00000000
00000000
00000100
00000000
00001000
00000001
00000000
00000001
,  // measure 13
00000100
00000000
00000100
00000010
00000000
00000000
00000100
00001000
00000000
00001000
00010000
00000000
01000000
00000000
10000000
01000000
,  // measure 14
10000000
00000000
10000000
00100000
00000000
00000000
01000000
00000000
00000000
00000000
00001000
00000000
00010000
00001000
00000000
00001000
,  // measure 15
00020000
00000000
00000000
00100000
00000000
00000000
00001000
00000000
00000000
00000000
00030100
00000000
00010100
00000000
00001100
00000000
,  // measure 16
00002000
00000000
00000000
00000000
,  // measure 17
00003000
00200000
00000000
20300000
00000000
31000000
00000000
02000000
,  // measure 18
00000000
00000000
03100000
00000000
00000000
00000000
00000000
00000000
00000000
00000000
01000000
00010000
00001000
00010000
00000200
00000000
,  // measure 19
00000000
00000000
00000000
00000000
00000000
00000000
00000000
00000000
00000000
00000000
00000000
00000000
00000300
00000000
00000001
00000100
,  // measure 20
00002000
00000010
00000000
00000010
,  // measure 21
00003000
00000200
00001000
00020300
00000000
00130000
01000000
00200000
,  // measure 22
00000000
10300000
00010000
00000000
00000000
10000000
01000000
01000000
,  // measure 23
00200000
00000000
00000000
10000000
00000000
00000000
00010000
00000000
00000000
00000000
01300000
00000000
01100000
00000000
00110000
00000000
,  // measure 24
10020000
10000000
00100000
01000000
,  // measure 25
10030000
00200000
00310000
00002000
00003100
00000010
00001000
00000020
,  // measure 26
00000130
00000000
00000002
00000000
00001003
00000000
00000000
00000000
00000100
00000000
00000010
00000100
00010000
00001000
00200000
00000000
,  // measure 27
01000000
00000000
00000000
00000000
00010000
00000000
00000000
00000000
10000000
00000000
00000000
00000000
01300000
00000000
00100000
01000000
,  // measure 28
20000000
00100000
00010000
01000000
,  // measure 29
30100000
00020000
00130000
02000000
03001000
00010000
00000100
00020000
,  // measure 30
00030010
00000200
00000301
00000000
00000010
00002000
00013000
02000000
,  // measure 31
03200000
00000000
00000000
00010000
00000000
00000000
10000000
00000000
00000000
00000000
01000000
00000000
00000000
00000000
01300000
00000000
,  // measure 32
11000000
00000000
01000000
10000000
00000000
00000000
00100000
00000000
00000000
00000000
00100000
00000000
00000000
00100000
01000000
00000000
,  // measure 33
00100000
00000000
10000000
00100000
00000000
00000000
01000000
00000000
00000000
00000000
01000000
00000000
00000000
01000000
00010000
00000000
,  // measure 34
00100000
00000000
00001000
00100000
00000000
00000000
00001000
00000000
00000000
00000000
00001000
00000000
00000000
00001000
01000000
00000000
,  // measure 35
00001000
00000000
00100000
00001000
00000000
00000000
00010000
00000000
00000000
00000000
00010000
00000000
00000000
00010000
00000100
00000000
,  // measure 36
00001000
00000000
00000100
00001000
00000010
00000000
00010000
00000000
00001000
00000000
00010000
00000000
00000100
00010000
00000100
00000000
,  // measure 37
00010000
00000000
00001000
00010000
00001000
00000000
00000100
00000000
00000010
00000000
00000100
00000000
00000001
00000100
00000001
00000000
,  // measure 38
00000010
00000000
00000100
00000010
00000100
00000000
00001000
00000000
00000010
00000000
00001000
00000000
00000100
00001000
00000100
00000000
,  // measure 39
00001000
00000000
00000010
00001000
00000010
00000000
00000100
00000000
00001000
00000000
00000100
00000000
00000010
00000100
00000010
00000000
,  // measure 40
00001001
00000000
00000000
00000001
00000010
00000000
00001000
00000000
00000000
00000000
00010000
00000000
00000100
00000000
00010000
00001000
,  // measure 41
00011000
00000000
00000000
00010000
00100000
00000000
10000000
00010000
00000000
00010000
00100000
00000000
01000000
00000000
01000000
10000000
,  // measure 42
10010000
00000000
00000000
10000000
00100000
00000000
00010000
00000000
00000000
00000000
00001000
00000000
01000000
00000000
00001000
00010000
,  // measure 43
00011000
00000000
00000000
00000000
00010000
00000000
00000100
00000010
00000000
00000010
00000001
00000000
00000100
00000000
00000100
00000001
,  // measure 44
00001001
00000000
00000000
00000001
00000010
00000000
00001000
00000000
00011000
00000000
00000000
00010000
00100000
10000000
00010000
00000000
,  // measure 45
10010000
00000000
00000000
10000000
01000000
00000000
00010000
00000000
00011000
00000000
00000000
00001000
00000100
00000001
00001000
00000000
,  // measure 46
00001001
00000100
00011000
00100000
10010000
01000000
00011000
00000010
,  // measure 47
00001001
00000000
00000001
00000100
00000010
00000000
00010000
00001000
00000000
00001000
01000000
00000000
01001000
00000000
01100000
00000000
,  // measure 48
10020000
10000000
01000000
00100000
,  // measure 49
10030000
02000000
03010000
00002000
00003010
00000100
00001000
00000200
,  // measure 50
00000310
00000000
00000002
00000000
00001003
00000000
00000000
00000000
00000010
00000000
00000100
00000010
00010000
00001000
02000000
00000000
,  // measure 51
00100000
00000000
00000000
00000000
00010000
00000000
00000000
00000000
10000000
00000000
00000000
00000000
03100000
00000000
01000000
00100000
,  // measure 52
20000000
01000000
00010000
00100000
,  // measure 53
31000000
00020000
01030000
00200000
00301000
00010000
00000010
00020000
,  // measure 54
00030100
00000020
00000031
00000000
00000100
00002000
00013000
00200000
,  // measure 55
01300000
00020000
10030000
02000000
03000000
00020000
02030000
13000000
,  // measure 56
10010000
00000000
10000000
01000000
00100000
00000000
00001000
01000000
00000000
00010000
00100000
00000000
01000000
00000000
00010000
00001000
,  // measure 57
00010000
00000200
00001000
00000320
00001000
00000032
00000103
00000002
,  // measure 58
00000010
00000000
00002003
00000000
00000100
00000000
00003000
00000000
00001000
00000000
00000100
00010000
00001000
00100000
02000000
00000000
,  // measure 59
03010000
00000000
01000000
10000000
00010000
00000000
00100000
00001000
00000000
00010000
00000100
00000000
00000010
00000000
00000100
00001000
,  // measure 60
00000001
00000000
00000001
00000100
00000010
00000000
00010000
00000100
00000000
00001000
00000010
00000000
00000100
00000000
00001000
00010000
,  // measure 61
00001000
02000000
00010000
03200000
00010000
20300000
31000000
20000000
,  // measure 62
00100000
30020000
01030000
00000000
00010000
00200000
00301000
00020000
,  // measure 63
00030100
00010000
00000100
00010000
00001000
01000000
00001000
01000000
00001000
00010000
00001000
00010000
00000100
00000000
00000110
00000000
,  // measure 64
00002002
00000000
00000000
00000000
,  // measure 65
00000000
00000000
00000000
00000000
,  // measure 66
00003003
00000000
00000000
00000000
;

//---------------dance-double - RGTM-EDP----------------
#NOTES:
     dance-double:
     RGTM:
     Hard:
     11:
     0.410052,0.465846,0.086268,0.164693,0.109795,366,355,11,21,0,0,0.410052,0.465846,0.086268,0.164693,0.109795,366,355,11,21,0,0:
// measure 0
00000000
00000000
00000000
00000000
,  // measure 1
00000000
00000000
00000000
00000000
,  // measure 2
00000000
00000000
00000000
00000000
,  // measure 3
00000000
00000000
00000000
00000000
,  // measure 4
00000001
00000010
00001000
00010000
00100000
10000000
01000000
00010000
,  // measure 5
00001000
00000100
00000001
00000100
00001000
00010000
01000000
10000000
,  // measure 6
00100000
00010000
00001000
00000010
00000001
00000010
00001000
00010000
,  // measure 7
00002000
00000000
00000000
01000000
00000000
00000000
01000000
00000000
00000000
00000000
00010000
00003000
00001000
00000000
00001000
00000000
,  // measure 8
00010000
00000000
00000000
00010000
00001000
00000000
00000000
00000000
01000000
00000000
00100000
00000000
01000000
00000000
00000000
00000000
,  // measure 9
00010000
10000000
01000000
00100000
01000000
10000000
00010000
00000000
,  // measure 10
00100000
00000000
00000000
00100000
01000000
00000000
00000000
00000000
00010000
00000000
00001000
00000000
00010000
00000000
00000000
00000000
,  // measure 11
00000100
00001000
00000010
00000001
00000010
00001000
00000100
00000100
,  // measure 12
00001000
00000000
00000000
00001000
00000001
00000000
00000000
00000000
00000100
00000000
00000010
00000000
00000100
00000000
00000000
00000000
,  // measure 13
00000001
00000100
00001000
00010000
00001000
00000100
00000010
00000000
,  // measure 14
00010000
00000000
00000000
00001000
00010000
00000000
00000000
00000000
00100000
00000000
01000000
00000000
00100000
00000000
00010000
00000000
,  // measure 15
20000000
00000000
00000000
00100000
00000000
00000000
00010000
00000000
00000000
00000000
30010000
00000000
10000000
00000000
10000000
00000000
,  // measure 16
00200000
00000000
00000000
00000000
,  // measure 17
00300000
02000000
00000000
03002000
00000000
00013000
00000000
00020000
,  // measure 18
00000000
00030100
00000000
00000000
00000000
00000010
00000100
00002000
,  // measure 19
00000000
00000000
00000000
00000000
00000000
00000000
00003000
00000100
,  // measure 20
00000020
00001000
00000000
00000100
,  // measure 21
00000030
00000002
00000000
00000203
00000000
00001300
00000000
00002000
,  // measure 22
00000000
00013000
00000000
00000000
00000000
00010000
01000000
01000000
,  // measure 23
00200000
00000000
00000000
01000000
00000000
00000000
01000000
00000000
00000000
00000000
00310000
00000000
10000000
00000000
10000000
00000000
,  // measure 24
00200000
00010000
10000000
01300000
,  // measure 25
00100000
01000000
00001000
00100000
00001000
00010000
00000100
00010000
,  // measure 26
00000100
00000010
00000100
00000000
00001000
00000001
00000010
00000200
,  // measure 27
00000001
00000000
00000010
00000000
00001000
00000000
00000310
00000100
,  // measure 28
00002000
00000010
00000001
00003100
,  // measure 29
00001000
00000010
00010000
00000100
00010000
00001000
00100000
00001000
,  // measure 30
00100000
01000000
10000000
00000000
00100000
10000000
00010000
00100000
,  // measure 31
02000000
00000000
00000000
00010000
00000000
00000000
10000000
00000000
00000000
00000000
00100000
00000000
00000000
00100000
00000000
00000000
,  // measure 32
13000000
00000000
00000000
10000000
00000000
00000000
01000000
00000000
00000000
00000000
01000000
00000000
00000000
01000000
00000000
00000000
,  // measure 33
01000000
00000000
00000000
01000000
00000000
00000000
00010000
00000000
00000000
00000000
00010000
00000000
00000000
00010000
00000000
00000000
,  // measure 34
00001000
00000000
00000000
00001000
00000000
00000000
00000100
00000000
00000000
00000000
00000100
00000000
00000000
00000100
00000000
00000000
,  // measure 35
00000100
00000000
00000000
00000100
00000000
00000000
00000001
00000000
00000000
00000000
00000001
00000000
00000000
00000001
00000000
00000000
,  // measure 36
00000010
00000000
00000000
00000010
00000000
00000000
00001000
00000000
00000000
00000000
00001000
00000000
00000000
00001000
00000000
00000000
,  // measure 37
00001000
00000000
00000000
00001000
00000000
00000000
00010000
00000000
00000000
00000000
00010000
00000000
00000000
00010000
00000000
00000000
,  // measure 38
00100000
00000000
00000000
00100000
00000000
00000000
10000000
00000000
00000000
00000000
10000000
00000000
00000000
10000000
00000000
00000000
,  // measure 39
10000000
00000000
00000000
10000000
00000000
00000000
00010000
00000000
00000000
00000000
00010000
00000000
00000000
00010000
00000000
00000000
,  // measure 40
01100000
00000000
10000000
00000000
00000000
01000000
00010000
00000000
,  // measure 41
00011000
00000000
00001000
00000100
00000000
00000001
00001000
00000000
,  // measure 42
00000110
00000000
00000001
00000000
00000000
00000100
00001000
00000000
,  // measure 43
00011000
00000000
00010000
00000000
00010000
00000000
01000000
10000000
,  // measure 44
10010000
00000000
10000000
00100000
00010000
00000000
00001000
00010000
,  // measure 45
00011000
00000000
00001000
00000100
00000001
00000000
00000001
00001000
,  // measure 46
00001001
00010100
01001000
10010000
,  // measure 47
10000000
00000000
00000000
01000000
00100000
00000000
00000000
00001000
00000000
00001000
00010000
00000000
00000010
00000000
00000010
00000000
,  // measure 48
00000200
00001000
00000001
00000310
,  // measure 49
00000100
00000010
00010000
00000100
00010000
00001000
00100000
00001000
,  // measure 50
00100000
01000000
00100000
00000000
00010000
10000000
01000000
00200000
,  // measure 51
10000000
00000000
01000000
00000000
00010000
00000000
01300000
00100000
,  // measure 52
00020000
01000000
10000000
00130000
,  // measure 53
00010000
01000000
00001000
00100000
00001000
00010000
00000100
00010000
,  // measure 54
00000100
00000010
00000001
00000000
00000100
00000001
00001000
00000100
,  // measure 55
00010000
00000100
00010000
00001000
00000000
00001000
01000000
00100000
,  // measure 56
10000000
00100000
00010000
00001000
00010000
00000100
00000010
00000001
,  // measure 57
00001000
00000001
00000100
00001000
00010000
00001000
00010000
00100000
,  // measure 58
10000000
01000000
00010000
01000000
10000000
00100000
00010000
00001000
,  // measure 59
00010000
00000100
00000001
00000100
00001000
00000010
00000001
00000010
,  // measure 60
00000100
00000001
00000010
00001000
00010000
01000000
10000000
00100000
,  // measure 61
00010000
00001000
00010000
00000100
00000010
00000001
00000100
00001000
,  // measure 62
00010000
01000000
10000000
00100000
01000000
00010000
00100000
00001000
,  // measure 63
00010000
00010000
00000100
00000100
00000010
00000010
00000001
00001000
,  // measure 64
00002002
00000000
00000000
00000000
,  // measure 65
00000000
00000000
00000000
00000000
,  // measure 66
00003003
00000000
00000000
00000000
;

//---------------dance-double - RGTM-DDP----------------
#NOTES:
     dance-double:
     RGTM:
     Medium:
     6:
     0.234155,0.336444,0.054898,0.094110,0,209,202,7,12,0,0,0.234155,0.336444,0.054898,0.094110,0,209,202,7,12,0,0:
// measure 0
00000000
00000000
00000000
00000000
,  // measure 1
00000000
00000000
00000000
00000000
,  // measure 2
00000000
00000000
00000000
00000000
,  // measure 3
00000000
00000000
00000000
00000000
,  // measure 4
00000000
10000000
00000000
01000000
,  // measure 5
00000000
00010000
00000000
00001000
,  // measure 6
00000000
00000100
00000000
00000001
,  // measure 7
00002002
00000000
00000000
00003003
,  // measure 8
00000001
00000010
00000010
00001000
,  // measure 9
00001000
00000000
00010000
00000000
00001000
00010000
00001000
00000000
,  // measure 10
00010000
01000000
01000000
10000000
,  // measure 11
10000000
00000000
00100000
00000000
01000000
00100000
01000000
00000000
,  // measure 12
00010000
00100000
00100000
00001000
,  // measure 13
00001000
00000000
00010000
00000000
00000100
00001000
00000100
00000000
,  // measure 14
00000010
00000001
00000100
00001000
,  // measure 15
00022000
00000000
00000000
00033000
,  // measure 16
00200000
00000000
00000000
00000000
,  // measure 17
00300000
00010000
00000000
00100000
00000000
01000000
00000000
01000000
,  // measure 18
00000000
10000000
00000000
00000000
00000000
00000000
00010000
00000000
,  // measure 19
00000000
00000000
00000000
00000000
,  // measure 20
00000000
10000000
00000000
00100000
,  // measure 21
00000000
00010000
00000000
00001000
,  // measure 22
00000000
00000010
00000000
00000001
,  // measure 23
00002002
00000000
00000000
00003003
,  // measure 24
00000001
00000010
00000100
00001000
,  // measure 25
00000000
00000010
00000000
00001000
00000000
00000100
00000000
00000100
,  // measure 26
00000000
00010000
00000000
00000000
00001000
00000000
00100000
00000000
,  // measure 27
01000000
00000000
10000000
00000000
00100000
01000000
00100000
00000000
,  // measure 28
10000000
00100000
01000000
00010000
,  // measure 29
00000000
00100000
00000000
00010000
00000000
00100000
00000000
00100000
,  // measure 30
00000000
00001000
00000000
00000000
00010000
00000000
00000100
00000000
,  // measure 31
00000020
00000000
00000000
00000030
,  // measure 32
00001001
00000000
00000000
00000000
,  // measure 33
00000000
00000000
00000000
00000000
,  // measure 34
00000100
00000000
00000000
00000000
,  // measure 35
00000000
00000001
00000000
00000001
00000000
00000010
00000000
00000010
,  // measure 36
00000000
00001000
00000000
00001000
00000000
00010000
00000000
00010000
,  // measure 37
00000000
00001000
00000000
00001000
00000000
00010000
00000000
00010000
,  // measure 38
00000000
00100000
00000000
00100000
00000000
10000000
00000000
10000000
,  // measure 39
00000000
01000000
00000000
01000000
00000000
00100000
00000000
00100000
,  // measure 40
00001000
00010000
00000000
00010000
,  // measure 41
00000100
00000010
00000000
00000010
,  // measure 42
00000001
00001000
00000000
00001000
,  // measure 43
00000100
00000100
00000100
00000100
,  // measure 44
00010000
00010000
00001000
00001000
,  // measure 45
00100000
00100000
01000000
01000000
,  // measure 46
10000000
00010000
10000000
00010000
10000000
00010000
10000000
00000000
,  // measure 47
20020000
00000000
00000000
30030000
,  // measure 48
10000000
01000000
00100000
00010000
,  // measure 49
00000000
01000000
00000000
00010000
00000000
00100000
00000000
00100000
,  // measure 50
00000000
00001000
00000000
00000000
00010000
00000000
00000100
00000000
,  // measure 51
00000010
00000000
00000001
00000000
00000100
00000010
00000100
00000000
,  // measure 52
00000001
00000100
00000010
00001000
,  // measure 53
00000000
00000100
00000000
00001000
00000000
00000100
00000000
00000100
,  // measure 54
00000000
00010000
00000000
00000000
00001000
00000000
00100000
00000000
,  // measure 55
01000000
00000000
10000000
00000000
00100000
01000000
00100000
00000000
,  // measure 56
10010000
10000000
01000000
00100000
,  // measure 57
00001000
00001000
00010000
00010000
,  // measure 58
00000100
00000010
00000001
00000100
,  // measure 59
00000010
00000100
00000010
00000000
00001000
00000001
00001000
00000000
,  // measure 60
00000001
00000001
00000010
00000100
,  // measure 61
00010000
00010000
00001000
00001000
,  // measure 62
00100000
01000000
10000000
00100000
,  // measure 63
01000000
00100000
01000000
00100000
01000000
00100000
01000000
00000000
,  // measure 64
20020000
00000000
00000000
00000000
,  // measure 65
00000000
00000000
00000000
00000000
,  // measure 66
30030000
00000000
00000000
00000000
;

//---------------dance-double - RGTM-BDP----------------
#NOTES:
     dance-double:
     RGTM:
     Easy:
     3:
     0.141165,0.200769,0.007843,0.054898,0,126,125,1,7,0,0,0.141165,0.200769,0.007843,0.054898,0,126,125,1,7,0,0:
// measure 0
00000000
00000000
00000000
00000000
,  // measure 1
00000000
00000000
00000000
00000000
,  // measure 2
00000000
00000000
00000000
00000000
,  // measure 3
00000000
00000000
00000000
00000000
,  // measure 4
10000000
00000000
00000000
00000000
,  // measure 5
00010000
00000000
00000000
00000000
,  // measure 6
00001000
00000000
00000000
00000000
,  // measure 7
00000002
00000000
00000000
00000003
,  // measure 8
00001000
00001000
00001000
00000000
,  // measure 9
00000100
00000100
00000100
00000000
,  // measure 10
00010000
00010000
00010000
00000000
,  // measure 11
00001000
00001000
00001000
00000000
,  // measure 12
01000000
00100000
01000000
00000000
,  // measure 13
00100000
01000000
00100000
00000000
,  // measure 14
10000000
00010000
10000000
00000000
,  // measure 15
00020000
00000000
00000000
00030000
,  // measure 16
20000000
00000000
00000000
00000000
,  // measure 17
30000000
00000000
00000000
00000000
,  // measure 18
00000000
00000000
00000000
00000000
,  // measure 19
00000000
00000000
00000000
00000000
,  // measure 20
01000000
00000000
00000000
00000000
,  // measure 21
00010000
00000000
00000000
00000000
,  // measure 22
00001000
00000000
00000000
00000000
,  // measure 23
00000200
00000000
00000000
00000300
,  // measure 24
00000100
00000100
00000100
00000000
,  // measure 25
00000001
00000001
00000001
00000000
,  // measure 26
00000010
00000010
00000010
00000000
,  // measure 27
00001000
00001000
00001000
00000000
,  // measure 28
00010000
00001000
00010000
00000000
,  // measure 29
00001000
01000000
00001000
00000000
,  // measure 30
01000000
00100000
01000000
00000000
,  // measure 31
00020000
00000000
00000000
00000000
,  // measure 32
10030000
00000000
00000000
00000000
,  // measure 33
00000000
00000000
00000000
00000000
,  // measure 34
00010000
00000000
00000000
00000000
,  // measure 35
00000000
00000000
00000000
00000000
,  // measure 36
00001000
00000000
00000000
00000000
,  // measure 37
00000000
00000000
00000000
00000000
,  // measure 38
00000001
00000000
00000000
00000000
,  // measure 39
00000000
00000000
00000000
00000000
,  // measure 40
00000000
00000010
00000000
00000010
,  // measure 41
00000000
00000100
00000000
00000100
,  // measure 42
00000000
00010000
00000000
00010000
,  // measure 43
00000000
00001000
00000000
00001000
,  // measure 44
00001000
00000000
00001000
00000000
,  // measure 45
00100000
00000000
00100000
00000000
,  // measure 46
01000000
01000000
01000000
01000000
,  // measure 47
02000000
00000000
00000000
03000000
,  // measure 48
01000000
01000000
01000000
00000000
,  // measure 49
10000000
10000000
10000000
00000000
,  // measure 50
00100000
00100000
00100000
00000000
,  // measure 51
00010000
00010000
00010000
00000000
,  // measure 52
00001000
00010000
00001000
00000000
,  // measure 53
00010000
00000100
00010000
00000000
,  // measure 54
00000100
00000010
00000100
00000000
,  // measure 55
00001000
00000001
00001000
00000000
,  // measure 56
00000001
00001000
00000001
00000001
,  // measure 57
00000100
00000010
00000100
00000000
,  // measure 58
00000100
00000100
00001000
00001000
,  // measure 59
00010000
00001000
00010000
00000000
,  // measure 60
00010000
00010000
00100000
00100000
,  // measure 61
10000000
00010000
10000000
00000000
,  // measure 62
01000000
01000000
00010000
00010000
,  // measure 63
00002000
00000000
00000000
00003000
,  // measure 64
00011000
00000000
00000000
00000000
;
