#VERSION:0.83;
#TITLE:Freeway Shuffle -More2 HAPPY Re-Mix-;
#ARTIST:Yu_Asahina;
#BANNER:Freeway Shuffle -More2_HAPPY_Re-Mix-.png;
#BACKGROUND:Freeway Shuffle -More2 HAPPY Re-Mix--bg.png;
#JACKET:Freeway Shuffle -More2 HAPPY Re-Mix--jacket.png;
#MUSIC:Freeway Shuffle -More2 HAPPY Re-Mix-.ogg;
#OFFSET:-1.502;
#SAMPLESTART:57;
#SAMPLELENGTH:15;
#BPMS:0=160;

//---------------dance-single - Pandemonium X-ESP----------------
#NOTEDATA:;
#CHARTNAME:Pandemonium X-ESP;
#STEPSTYPE:dance-single;
#DESCRIPTION:Pandemonium X-ESP;
#DIFFICULTY:Hard;
#METER:15;
#RADARVALUES:0.739721,1.036040,0.275245,0.249441,0.688113,602,570,32,29,0,0,0,0,0,0.739721,1.036040,0.275245,0.249441,0.688113,602,570,32,29,0,0,0,0,0;
#CREDIT:Pandemonium X;
#NOTES:
0000
0000
0000
0000
,
0000
0000
0000
0000
,
0000
0000
0000
0000
,
0000
0000
0000
0000
,
1001
0000
0010
0100
0010
0000
0100
0001
,
0010
0000
0000
0100
0000
0100
0010
0000
0001
0000
0000
0000
1000
0000
0001
0000
,
1000
0000
0000
0010
0000
0010
1000
0000
0100
0000
0000
0000
1000
0000
0001
0000
,
1000
0000
0000
0100
0000
0100
0010
0000
0001
0000
0000
0000
0110
0000
0000
0000
,
0001
0000
0100
0001
0000
0100
0000
0001
0000
0010
0000
0001
0100
0000
0001
0000
,
1000
0000
0100
1000
0000
0100
0000
1000
0000
0010
0000
0100
0010
0000
1000
0000
,
0001
0000
1000
0001
0000
0010
0000
0001
0000
1000
0000
0010
1000
0000
0001
0000
,
1000
0000
0001
1000
0000
0100
0000
1000
0000
0001
0000
0100
0001
0000
1000
0000
,
0000
0000
0000
0000
1001
0000
0000
1000
0000
0001
0000
0100
0001
0000
0010
0000
,
0001
0000
1000
0001
0000
0010
0000
0001
0000
1000
0000
0010
0100
0000
0010
0000
,
1000
0000
0010
1000
0000
0100
0000
1000
0000
0010
0000
1000
0001
0000
0010
0000
,
0100
0000
0010
0001
0000
1000
0000
0010
0000
1000
0000
0001
0010
0000
0100
0000
,
0010
0001
0000
0001
1000
0001
0100
0001
0000
0010
0000
0010
0001
0000
0010
0000
,
0100
1000
0000
1000
0100
0010
0100
1000
0000
0001
0000
1000
0010
0000
0100
0000
,
0000
0000
0000
0000
0101
0000
0001
0010
0000
0100
0000
0010
0001
0000
1000
0000
,
0001
0000
0100
0010
0000
1000
0000
0010
0000
0100
0000
0010
1000
0000
0100
0000
,
0110
0110
1001
1001
,
0101
0101
1010
1010
,
2001
3100
0020
0031
,
0200
0310
2000
3001
,
0010
0001
0010
0001
0010
0002
0000
0023
,
0130
1000
0100
1000
0100
2000
0000
3002
,
0103
0010
1000
0001
0100
0010
1000
0001
,
2002
0000
0000
3003
,
1000
0000
0010
0000
0010
0000
0010
0000
0010
0100
0001
0000
0011
0000
0000
0000
,
1100
0000
0000
0000
0000
0000
0000
0001
,
0011
0101
0000
0000
0000
0110
0000
0100
,
1001
0000
0000
0000
0000
0000
0000
1000
,
1100
0000
1010
0000
0000
0000
0110
0000
1001
0000
0001
1000
0001
0000
1000
0000
,
0100
1000
0010
0200
0000
0301
1000
0100
,
1000
1000
0001
0010
1000
0010
0001
1000
,
0100
1000
0100
0000
1000
0000
0100
1000
0100
0000
0010
0000
0001
0000
0100
0000
,
0010
0000
1000
0000
0001
0000
0100
0000
0010
1000
0001
0000
0010
0000
0100
0000
,
1000
0100
1000
0010
0100
0010
1000
0100
1000
0000
0001
0000
0100
0000
0001
0000
,
0010
0100
0010
0100
0010
0000
0200
0000
0000
0000
0310
0000
0100
0000
1000
0000
,
0001
0100
0001
0010
0001
0100
0001
0010
0100
0000
1000
0000
0001
0000
0100
0000
,
0010
1000
0100
0010
0001
0000
2000
0000
0000
0000
3001
0000
0100
0000
0001
0000
,
1000
1000
0001
0200
0000
0310
1000
0001
,
1000
0000
1000
0000
0001
0000
0010
0000
0001
1000
0001
0000
0100
0000
0010
0000
,
1000
0010
1000
0000
0010
0000
0100
0001
0100
0000
0001
0000
0010
0000
0100
0000
,
1000
0000
0100
0000
0001
0000
0100
0000
1000
0010
0100
0000
0001
0000
1000
0000
,
0001
1000
0001
1000
0100
0000
1000
0001
0100
0000
0010
0000
1000
0010
1000
0010
,
1000
0001
0100
0020
0000
0130
0001
0010
,
0100
1000
0100
1000
0100
0000
0010
0000
0001
0100
0001
0100
0001
1000
0001
1000
,
0001
0010
0100
1000
0002
0000
1003
0100
0010
0001
1000
0100
0010
0000
0100
0000
,
1000
0001
0010
0200
0000
0310
0001
1000
,
0001
0000
0100
0001
0010
0000
0200
0000
0000
0000
0310
0000
0001
0000
1000
0000
,
0010
0100
0010
0100
0001
1000
0001
1000
0010
0100
0010
0100
0001
1000
0100
1000
,
0001
0000
0000
1000
0010
0000
0000
0010
0100
0010
1000
0000
0001
0000
0010
0000
,
0021
0130
2100
3010
,
2001
3100
0021
0130
,
0010
0000
1001
0000
0000
0000
0000
0000
0000
0000
0000
0000
0000
0000
0001
0010
,
0100
1000
0100
0001
0100
1000
0100
0010
,
0001
0100
1000
0200
0000
0001
0000
0310
,
1000
0100
0001
0200
0000
1300
0100
0010
,
0000
0000
1001
0000
0000
0000
0000
0000
0001
0100
0010
1000
0001
0100
0010
1000
,
0001
1000
0001
1000
0001
1000
0001
1000
0001
0000
0000
0000
0110
0000
0000
0000
,
0001
0010
0001
0100
0001
0000
1000
0000
0100
0000
0010
0000
0100
0000
0010
0001
,
1000
0010
1000
0200
0000
0310
0100
1000
,
0010
0100
0010
1000
0010
0000
0100
0010
1000
0000
0001
0000
0010
0100
1000
0001
,
0010
0100
0010
0001
2000
0000
3001
0010
0100
0010
0001
0010
0100
0000
0010
0000
,
0100
0100
1000
0002
0000
0103
0010
1000
,
0001
0000
0001
1000
0001
0000
0200
0000
0000
0000
0310
0000
0100
0000
0010
0000
,
1000
0010
0100
0001
1000
0010
0100
0001
1000
0100
0010
0100
1000
0100
0010
0001
,
1000
1000
0001
0001
1000
1000
0001
0001
,
1000
1000
0001
0001
1000
1000
1001
0000
,
0010
0100
0010
0100
0010
0100
0010
0100
0010
0100
0010
0100
0010
0100
0010
0100
,
0010
0100
0010
0100
0010
0100
0010
0100
0010
0100
0010
0100
0010
0100
0010
0100
,
0020
0000
0000
0000
,
1030
0000
0000
0000
;

//---------------dance-single - Pandemonium X-DSP----------------
#NOTEDATA:;
#CHARTNAME:Pandemonium X-DSP;
#STEPSTYPE:dance-single;
#DESCRIPTION:Pandemonium X-DSP;
#DIFFICULTY:Medium;
#METER:10;
#RADARVALUES:0.417783,0.533718,0.275245,0.309651,0,340,308,32,36,0,0,0,0,0,0.417783,0.533718,0.275245,0.309651,0,340,308,32,36,0,0,0,0,0;
#CREDIT:Pandemonium X;
#NOTES:
0000
0000
0000
0000
,
0000
0000
0000
0000
,
0000
0000
0000
0000
,
0000
0000
0000
0000
,
1001
0001
0010
0001
,
1000
1000
1000
0001
,
0010
0010
0010
0100
,
1000
1000
1000
0011
,
0001
0010
0001
0000
0100
0000
0010
0000
,
1000
0010
0100
0000
0001
0000
1000
0000
,
0100
0010
0100
0000
0010
0000
0001
0000
,
1000
0001
0100
0000
0010
0000
1000
0000
,
0002
0000
0013
0000
0100
0010
0001
0000
,
2000
0000
3010
0000
0100
0010
1000
0000
,
0002
0000
0013
0000
0001
1000
0100
0000
,
0020
0000
0130
0000
0010
0001
1000
0000
,
0002
0000
0103
0000
0010
1000
0100
0000
,
0020
0000
0130
0000
1000
0010
0100
0000
,
2000
0001
3001
0000
0100
0001
0010
0000
,
0200
0000
0310
0000
0001
0010
0100
0000
,
0110
0110
1001
1001
,
0110
0110
1001
1001
,
0002
0000
2003
0000
,
3020
0000
0230
0000
,
0301
0010
0001
0010
0001
0010
0001
0000
,
1000
0100
1000
0100
1000
0100
1000
0000
,
1000
0100
0010
0001
1000
0100
0010
0001
,
2000
0000
0000
0000
,
3000
0000
0000
0000
,
1001
0000
0000
0000
0000
0000
0000
0001
,
0100
1000
0000
0000
0000
0110
0000
1000
,
1100
0000
0000
0000
0000
0000
0000
1000
,
0100
0001
0000
0100
0020
0000
0031
0000
,
1000
0100
0010
0000
0001
0000
0011
0000
,
0001
0010
0100
0000
1000
0000
1001
0000
,
0002
0103
0020
1030
,
0200
0301
0200
1300
,
0001
0010
0100
1000
0100
0010
0001
0000
,
1000
1001
0001
1001
,
0001
0100
0001
0010
0100
1000
0100
0010
,
0100
1100
0010
0011
,
0001
1000
0010
1000
0000
0001
1000
0000
,
0001
0010
0001
1000
0000
0001
0100
0000
,
0002
0013
0200
1300
,
0002
0203
0320
2030
,
3100
0010
0001
0000
0010
0100
1000
0000
,
0001
1000
0010
0100
0000
0000
0110
0000
,
0001
1000
0010
0000
1000
0100
0010
0000
,
0100
1000
0010
0100
0001
0010
0100
1000
,
0001
1000
0010
0000
0100
0000
0101
0000
,
0001
0010
0100
0000
0010
0000
1001
0000
,
1000
0001
0100
0000
0001
1000
0010
0000
,
0200
0000
0302
0000
,
0013
0000
0100
0000
,
1000
0000
0010
0000
,
0000
1001
0000
0000
0000
0000
0000
1000
,
1000
0001
0010
1000
0010
0001
0100
0010
,
1000
0100
0010
0001
0000
1000
0000
0000
,
1000
0100
0010
0001
0000
0001
0010
0100
,
1000
0000
0002
0203
,
0320
2030
3001
0110
,
1000
0100
0010
0000
0100
1000
0010
0000
,
0100
0101
1000
0011
,
0100
0010
0001
0000
0100
0010
1000
0000
,
0100
0010
0001
1000
0010
0100
0010
1000
,
0001
0100
0010
1000
0000
0000
1001
0000
,
0001
0010
0100
1000
0000
0000
1001
0000
,
0001
0100
0010
1000
0001
0100
0010
1000
,
2002
0000
0000
0000
,
0000
0000
0000
3003
,
2020
0000
0000
0000
,
0000
0000
0000
3030
,
2200
0000
0000
3300
,
0011
0000
0000
0000
;

//---------------dance-single - Pandemonium X-BSP----------------
#NOTEDATA:;
#CHARTNAME:Pandemonium X-BSP;
#STEPSTYPE:dance-single;
#DESCRIPTION:Pandemonium X-BSP;
#DIFFICULTY:Easy;
#METER:6;
#RADARVALUES:0.260500,0.313951,0.077413,0.189231,0,212,203,9,22,0,0,0,0,0,0.260500,0.313951,0.077413,0.189231,0,212,203,9,22,0,0,0,0,0;
#CREDIT:Pandemonium X;
#NOTES:
0000
0000
0000
0000
,
0000
0000
0000
0000
,
0000
0000
0000
0000
,
0000
0000
0000
0000
,
1001
0000
1000
0000
,
0010
0000
1000
0000
,
0100
0000
1000
0000
,
0010
0000
0100
1001
,
0001
0010
0100
0000
,
0010
0001
0100
0000
,
0010
1000
0100
0000
,
0010
0100
1000
0000
,
0001
1001
1000
0001
,
0010
0001
0100
0010
,
1000
0100
0010
0100
,
1000
0010
0100
0001
,
1000
0001
0100
1000
,
0100
0001
0010
0100
,
0000
0011
0001
0010
,
1000
0010
0001
0100
,
0010
0010
0100
0010
,
1000
1000
0001
1000
,
0001
0000
1000
0000
,
0010
0000
0100
0000
,
0000
0010
0000
0010
0000
0200
0000
0310
,
0000
0100
0000
0100
0000
0200
0000
0310
,
0000
1000
0000
0001
0000
0010
0000
0100
,
2000
0000
0000
0000
,
3000
0000
0000
0000
,
1001
0000
0000
0000
0000
0000
0000
0001
,
1000
0001
0000
0000
0000
1000
0000
0001
,
1000
0000
0000
0000
0000
0000
0000
1000
,
0001
1000
0000
0001
0000
1000
0001
0000
,
1001
0001
0010
0000
,
0001
1000
0100
0000
,
1000
0000
0010
0000
,
0100
0010
1000
0001
,
1000
0100
0010
0001
,
1000
1000
1000
0001
,
1000
0100
0010
0100
,
1000
0010
0100
0010
,
1000
0010
0200
0300
,
0010
1000
0002
0003
,
0010
0001
0100
0001
,
1000
0100
0010
0001
,
1000
0001
0100
0001
,
0010
0200
0300
0000
,
0010
0001
1000
0100
,
0010
0010
0100
0100
,
0010
0001
2000
3000
,
0001
0100
0020
0030
,
1000
0010
0100
0001
,
2000
0000
3002
0000
,
0013
0000
0001
0000
,
0100
0000
0010
0000
,
1001
0000
0000
0000
,
1000
0100
0001
0100
,
1000
0000
0000
0000
,
0010
0000
0000
0000
,
0100
0000
0020
0000
,
2030
0000
3002
0003
,
0010
0001
0100
0001
,
1000
0100
0020
0130
,
0010
0001
0100
0010
,
2000
3001
0200
0310
,
1000
0010
0200
0300
,
0001
0010
0200
0300
,
0010
0001
1000
0010
,
0200
0000
0000
0000
,
0000
0000
0000
0300
,
0020
0000
0000
0000
,
0000
0000
0000
0030
,
2002
0000
0000
3003
,
0110
0000
0000
0000
;

//---------------dance-single - Pandemonium X-bSP----------------
#NOTEDATA:;
#CHARTNAME:Pandemonium X-bSP;
#STEPSTYPE:dance-single;
#DESCRIPTION:Pandemonium X-bSP;
#DIFFICULTY:Beginner;
#METER:3;
#RADARVALUES:0.116733,0.219766,0.025804,0,0,95,92,3,0,0,0,0,0,0,0.116733,0.219766,0.025804,0,0,95,92,3,0,0,0,0,0,0;
#CREDIT:Pandemonium X;
#NOTES:
0000
0000
0000
0000
,
0000
0000
0000
0000
,
0000
0000
0000
0000
,
0000
0000
0000
0000
,
1000
0000
0000
0000
,
0001
0000
0000
0000
,
0010
0000
0000
0000
,
0001
0000
0000
1000
,
0010
0000
0000
0000
,
0100
0000
0000
0000
,
0010
0000
0000
0000
,
1000
0000
0000
0000
,
0001
0000
0000
0000
,
0010
0000
0000
0000
,
0001
0000
0000
0000
,
0100
0000
0000
0000
,
0010
0000
1000
0000
,
0100
0000
0000
0000
,
0010
0000
0001
0000
,
0100
0000
0000
0000
,
0010
0000
0000
0000
,
0100
0000
0000
0000
,
0001
0000
0000
0000
,
0000
0000
0000
0000
,
1000
1000
1000
0000
,
0001
0001
0001
0000
,
0100
0000
0010
0000
,
1001
0000
0000
0000
,
0010
0000
0000
0000
,
0010
0000
0000
0000
,
0100
0000
0000
0000
,
0001
0000
0000
0000
,
1000
0000
0000
0000
,
0010
0000
0000
0000
,
1000
0000
0000
0000
,
0100
0000
0000
0000
,
0000
0000
0000
0000
,
0010
0000
0001
0000
,
1000
0000
0000
0000
,
0001
0000
1000
0000
,
0010
0000
0000
0000
,
1000
0000
0000
0000
,
0001
0000
0000
0000
,
0010
0000
0001
0000
,
0100
0000
0010
0000
,
1000
0001
1000
0000
,
0010
0000
0000
0000
,
0100
0001
0100
0000
,
0010
0000
0000
0000
,
1000
0000
0000
0010
,
0100
0000
0000
0010
,
1000
0000
0001
0000
,
0010
0000
0100
0000
,
1001
0000
0000
0000
,
0010
0000
0000
0000
,
0010
0000
0000
0000
,
0100
0000
0001
0000
,
1000
0000
0000
0000
,
0001
0000
0000
0000
,
0010
0000
0100
0000
,
1000
0000
0001
0000
,
0010
0000
0001
0000
,
0100
0000
0000
0000
,
0010
0000
1000
0000
,
0001
0000
0000
0000
,
1000
0000
0000
0000
,
0001
0000
0000
0000
,
0100
0000
0010
0000
,
1000
0000
0000
0000
,
0000
0000
0000
0000
,
0001
0000
0000
0000
,
0000
0000
0000
0000
,
0010
0000
0000
0000
,
1001
0000
0000
0000
;

//---------------dance-double - Pandemonium X-EDP----------------
#NOTEDATA:;
#CHARTNAME:Pandemonium X-EDP;
#STEPSTYPE:dance-double;
#DESCRIPTION:Pandemonium X-EDP;
#DIFFICULTY:Hard;
#METER:15;
#RADARVALUES:0.705316,1.036040,0.309651,0.266644,0.640805,574,538,36,31,0,0,0,0,0,0.705316,1.036040,0.309651,0.266644,0.640805,574,538,36,31,0,0,0,0,0;
#CREDIT:Pandemonium X;
#NOTES:
// measure 0
00000000
00000000
00000000
00000000
,  // measure 1
00000000
00000000
00000000
00000000
,  // measure 2
00000000
00000000
00000000
00000000
,  // measure 3
00000000
00000000
00000000
00000000
,  // measure 4
10100000
10000000
00010000
00110000
,  // measure 5
00101000
00001000
00010000
00010100
,  // measure 6
00001100
00001000
00000010
00000110
,  // measure 7
00000101
00000001
00000010
00001001
,  // measure 8
00000001
00000000
00001000
00000100
00000000
00001000
00000000
00000100
00000000
00010000
00000000
00001000
01000000
00000000
00100000
00000000
,  // measure 9
10000000
00000000
00010000
00100000
00000000
00010000
00000000
00100000
00000000
00001000
00000000
00010000
00000100
00000000
00001000
00000000
,  // measure 10
00000010
00000000
00000100
00000001
00000000
00000010
00000000
00000001
00000000
00000010
00000000
00000100
00001000
00000000
00000100
00000000
,  // measure 11
00010000
00000000
00001000
00100000
00000000
00001000
00000000
00100000
00000000
00001000
00000000
00100000
00010000
00000000
10000000
00000000
,  // measure 12
11000000
00000000
00000000
10000000
00010000
00000000
00000000
10000000
00000000
00010000
00000000
00100000
00001000
00000000
00010000
00000000
,  // measure 13
00000100
00000000
00001000
00000010
00000000
00000100
00000000
00000001
00000000
00000010
00000000
00000001
00000100
00000000
00000010
00000000
,  // measure 14
00001000
00000000
00000100
00010000
00000000
00001000
00000000
01000000
00000000
00100000
00000000
10000000
01000000
00000000
00100000
00000000
,  // measure 15
00010000
00000000
00100000
00001000
00000000
00010000
00000000
00000100
00000000
00010000
00000000
00000100
00001000
00000000
00000010
00000000
,  // measure 16
00000100
00000010
00000100
00000000
00000010
00000000
00001000
00000001
00000000
00000010
00000000
00000100
00000010
00000000
00000001
00000000
,  // measure 17
00001000
00000010
00001000
00000000
00000010
00000000
00001000
00000100
00000000
00010000
00000000
00001000
00010000
00000000
00001000
00000000
,  // measure 18
00000000
00000000
00000000
00000000
10010000
00000000
00000000
10000000
00000000
01000000
00000000
10000000
00100000
00000000
01000000
00000000
,  // measure 19
00010000
00000000
00100000
00001000
00000000
00010000
00000000
00000100
00000000
00001000
00000000
00000010
00000100
00000000
00000001
00000000
,  // measure 20
00000011
00000110
00001100
00010100
,  // measure 21
00011000
01001000
01010000
01100000
,  // measure 22
21000000
30100000
01020000
00130000
,  // measure 23
00102000
00013000
00020100
00031000
,  // measure 24
00100000
00001000
00010000
00000100
00010000
00001000
00200000
00000000
,  // measure 25
00301000
01000000
00001000
00010000
00000100
00010000
00002000
00000000
,  // measure 26
00013000
00000100
00010000
00000100
00001000
00000100
00001000
00000100
00000010
00000001
00000010
00000001
00000100
00000010
00000100
00000010
,  // measure 27
00002000
00000000
00000000
00000000
,  // measure 28
00003000
00000000
00000001
00000000
00000001
00000000
00000001
00000000
00000001
00000100
00000010
00000000
00001001
00000000
00000000
00000000
,  // measure 29
00001010
00000000
00000000
00000000
00000000
00000000
00000000
00000100
,  // measure 30
00010100
00011000
00000000
00000000
00000000
00102000
00000000
01000000
,  // measure 31
01003000
00000000
00000000
00000000
00000000
00000000
00000000
00100000
,  // measure 32
10010000
00000000
01100000
00000000
00000000
00000000
10010000
00000000
00000000
00000000
10000000
00010000
10000000
00000000
00010000
00000000
,  // measure 33
00100000
00001000
00010000
00000020
00000000
00000130
00001000
00000100
,  // measure 34
00000001
00001000
00000010
00000100
00000001
00000010
00000001
00001000
,  // measure 35
00000002
00000203
00000320
00002030
,  // measure 36
00003200
00020300
00032000
02003000
,  // measure 37
03100000
10000000
00100000
10000000
00010000
01000000
00010000
01000000
00010000
00000000
00100000
00000000
00001000
00000000
00000000
00010000
,  // measure 38
00000100
00001000
00000100
00001000
00000100
00000000
00000020
00000000
00000000
00000000
00000130
00000000
00001000
00000000
00000100
00000000
,  // measure 39
00000001
00000000
00000100
00001000
00000100
00010000
00001000
00010000
00001000
00000000
01000000
00000000
00100000
00000000
10000000
00000000
,  // measure 40
01000000
00100000
00010000
10000000
00010000
00000000
02000000
00000000
00000000
00000000
03100000
00000000
10000000
00000000
00010000
00000000
,  // measure 41
00100000
00001000
00010000
00000200
00000000
00001000
00001300
00000010
,  // measure 42
00000100
00000000
00000001
00000000
00000010
00000000
00001000
00000000
00000010
00000001
00000100
00000000
00000100
00000000
00000010
00000000
,  // measure 43
00001000
00000010
00010000
00000000
00001000
00000000
00001000
00100000
01000000
00000000
10000000
00000000
00100000
00000000
10000000
00000000
,  // measure 44
00010000
00000000
00100000
00000000
00001000
00000000
00010000
00000000
00000100
00001000
00000010
00000000
00000100
00000000
00000001
00000000
,  // measure 45
00000010
00000100
00001000
00000100
00000010
00000000
00000010
00000000
00000001
00000000
00000100
00000000
00000010
00000000
00001000
00000100
,  // measure 46
00010000
00001000
01000000
00200000
00000000
01300000
10000000
01000000
,  // measure 47
00010000
00100000
00001000
00010000
00000100
00000000
00010000
00000000
00000100
00000000
00001000
00000100
00001000
00000100
00000010
00000001
,  // measure 48
00000100
00000010
00001000
00000100
00020000
00000000
00031000
00100000
00010000
10000000
01000000
10000000
01000000
00000000
00100000
00000000
,  // measure 49
00010000
01000000
00001000
00020000
00000000
00030100
00001000
00000010
,  // measure 50
00000100
00000000
00000001
00000010
00000100
00000000
00002000
00000000
00000000
00000000
00003100
00000000
00000010
00000000
00000001
00000000
,  // measure 51
00001000
00000010
00001000
00000010
00010000
00001000
00010000
00001000
01000000
00010000
01000000
00010000
10000000
00100000
10000000
00100000
,  // measure 52
02000000
00000000
03020000
00000000
,  // measure 53
00130000
00000000
00101000
00000000
,  // measure 54
00011000
00000000
00010100
00000000
,  // measure 55
00001000
00000000
00000011
00000000
00000000
00000000
00000000
00000000
00000000
00000000
00000000
00000000
00000000
00000000
00001000
00000100
,  // measure 56
00010000
00001000
00100000
00001000
00010000
00000100
00010000
00001000
,  // measure 57
00100000
00001000
01000000
00001000
00000000
00011000
00000000
00000000
,  // measure 58
00010000
00000010
00001000
00000100
00000000
00000010
00000001
00000100
,  // measure 59
00000010
00000000
00000000
00000000
00000000
00000000
00000000
00000000
00000010
00000100
00000001
00001000
00000010
00000100
00000001
00001000
,  // measure 60
00000010
00010000
00001000
00100000
00010000
00100000
01000000
10000000
00010000
00000000
00000000
00000000
11000000
00000000
00000000
00000000
,  // measure 61
01000000
00100000
00010000
00100000
01000000
00000000
10000000
00000000
01000000
00000000
00010000
00000000
01000000
00000000
10000000
00010000
,  // measure 62
00100000
00001000
00010000
00000020
00000000
00000100
00000130
00000001
,  // measure 63
00000010
00000100
00000010
00000001
00000100
00000000
00000010
00000000
00001000
00000000
00000100
00000000
00010000
00001000
00010000
00001000
,  // measure 64
01000000
00100000
10000000
01000000
00200000
00000000
01300000
10000000
00100000
01000000
00010000
00100000
00001000
00000000
00010000
00000000
,  // measure 65
00000010
00000100
00000001
00000020
00000000
00000100
00000130
00000010
,  // measure 66
00000001
00000000
00000100
00000010
00001000
00000000
00000200
00000000
00000000
00000000
00010300
00000000
00001000
00000000
01000000
00000000
,  // measure 67
00100000
10000000
00100000
10000000
00010000
01000000
00010000
01000000
00010000
00100000
00010000
00100000
00001000
00100000
00001000
00010000
,  // measure 68
00001000
00010000
00001000
00010000
00001000
00010000
00001000
00010000
,  // measure 69
00001000
00010000
00001000
00010000
00001000
00010000
00001000
00010000
,  // measure 70
00001000
00010000
00001000
00010000
00001000
00010000
00001000
00010000
00001000
00010000
00001000
00010000
00001000
00010000
00001000
00010000
,  // measure 71
00001000
00010000
00001000
00010000
00001000
00010000
00001000
00010000
00001000
00010000
00001000
00010000
00001000
00010000
00001000
00010000
,  // measure 72
00000020
00000000
00000000
00000000
,  // measure 73
00000130
00000000
00000000
00000000
;

//---------------dance-double - Pandemonium X-DDP----------------
#NOTEDATA:;
#CHARTNAME:Pandemonium X-DDP;
#STEPSTYPE:dance-double;
#DESCRIPTION:Pandemonium X-DDP;
#DIFFICULTY:Medium;
#METER:11;
#RADARVALUES:0.480450,0.533718,0.163427,0.404266,0.008601,391,372,19,47,0,0,0,0,0,0.480450,0.533718,0.163427,0.404266,0.008601,391,372,19,47,0,0,0,0,0;
#CREDIT:Pandemonium X;
#NOTES:
00000000
00000000
00000000
00000000
,
00000000
00000000
00000000
00000000
,
00000000
00000000
00000000
00000000
,
00000000
00000000
00000000
00000000
,
10000000
00000000
00010000
00000000
01010000
00000000
00010000
00100000
,
00010000
00000000
00100000
00000000
00101000
00000000
00001000
00010000
,
00001000
00000000
00010000
00000000
00010100
00000000
00000100
00001000
,
00000100
00000010
00000011
00001001
,
00000001
00000000
00000100
00000010
00002000
00000000
00003100
00000000
,
00010000
00000000
00001000
01000000
00200000
00000000
10300000
00000000
,
01000000
00000000
00100000
00010000
02000000
00000000
03001000
00000000
,
00010000
00000000
00000100
00001000
00000020
00000000
00000130
00000000
,
00000001
00000100
00000010
00000000
00000100
00000001
00001000
00000000
,
00000100
00010000
00001000
00000000
00010000
00001000
01000000
00000000
,
00100000
10000000
01000000
00000000
00100000
00010000
01000000
00000000
,
00010000
10000000
00010000
00000000
00100000
00001000
00100000
00000000
,
00001000
00010000
00000100
00001000
00000020
00000000
00000130
00000000
,
00000001
00000010
00000100
00001000
00000200
00000000
00010300
00000000
,
00000000
00000000
00011000
00001000
00100000
00001000
00020000
00000000
,
00030100
00001000
00000010
00000100
00000001
00000010
00000200
00000000
,
00000310
00000110
00000100
00000110
,
00001000
00001100
00000100
00001100
,
00000200
00010300
00002000
00103000
,
00020000
00130000
20000000
31000000
,
10000000
00100000
10000000
00100000
10000000
00200000
00000000
00000000
,
01300000
00010000
01000000
00010000
01000000
00020000
00000000
00000000
,
00130000
00001000
00100000
00001000
00010000
00001000
00010000
00000100
,
00002000
00000000
00000000
00000000
,
00003000
00000000
00000001
00000000
00001000
00000000
00000001
00000000
00001000
00000001
00001000
00000000
00000020
00000000
00000000
00000000
,
00000130
00000000
00000000
00000000
00000000
00000000
00000000
00000010
,
00010000
00001000
00000000
00000000
00000000
00012000
00000000
01000000
,
01003000
00000000
00000000
00000000
00000000
00000000
00000000
00010000
,
00100000
00001000
00000000
00021000
00000000
00000100
00030100
00000000
,
00001000
00000010
00000001
00000020
00000000
00000130
00000001
00001000
,
00000001
00000100
00001000
00000100
00000010
00001000
00000001
00001000
,
00000100
00001000
00000100
00010000
,
00002000
00203000
00320000
20030000
,
31000000
00100000
01000000
00100000
01000000
10000000
00100000
00000000
,
01000000
00100000
01000000
00100000
00000000
01000000
00010000
00100000
,
00001000
00010000
00001000
00010000
00000100
00010000
00000100
00010000
,
00000100
00000010
00000001
00001000
00000000
00000010
00000100
00000001
,
00001000
00000010
00000100
00000002
00000000
00001003
00001100
00000000
,
00000100
00010000
00001000
01000000
00100000
00100000
01000000
00100000
,
20000000
30010000
00200000
00310000
,
00210000
00302000
00023000
00030200
,
00001300
00000010
00000200
00000000
00000310
00001000
00000002
00000000
,
00000013
00000100
00001000
00000200
00000000
00001300
00000010
00000000
,
00000100
00000010
00002000
00000000
00003100
00010000
00002000
00000000
,
01003000
00100000
10000000
00100000
01000000
00010000
00100000
10000000
,
00100000
00001000
00010000
00000200
00000000
00010300
00001000
00010000
,
00000010
00000100
00000001
00000020
00000000
00000130
00000010
00000001
,
00001000
00000001
00001000
00000001
00001000
00000001
00001000
00000001
,
00000020
00000000
00000230
00000000
,
00001300
00000000
00010000
00000000
,
00001000
00000000
01000000
00000000
,
00000000
00000000
10100000
00000000
00000000
00000000
00000000
00000000
00000000
00000000
00000000
00000000
00000000
00000000
10000000
01000000
,
00100000
01000000
10000000
00100000
01000000
00010000
00100000
00001000
,
00020000
00000000
00000000
00000100
00000000
00031000
00000000
00000000
,
00002000
00000000
00000000
00100000
00000000
00013000
00000100
00001000
,
00000010
00000000
00000000
00000000
00000100
00000010
00001000
00000001
,
00000100
00000010
00001000
00000001
00000100
00000000
00001001
00000000
,
00000001
00000100
00001000
00000100
00000010
00001000
00000100
00010000
,
00001000
00001000
01000000
00200000
00000000
10300000
01000000
00000000
,
10000000
01000000
00010000
01000000
10000000
00100000
01000000
00010000
,
00100000
00001000
00010000
00000100
00001000
00000010
00000001
00000010
,
00000100
00000001
00000010
00000200
00000000
00000310
00000001
00000010
,
00000001
00001000
00000100
00000020
00000000
00000130
00001000
00000010
,
00010000
00000100
00001000
00000100
00010000
00001000
00100000
00010000
,
01020000
01000000
00100000
01000000
,
00100000
01000000
00100000
01030000
,
00102000
00010000
00100000
00010000
,
00100000
00010000
00100000
00013000
,
00021000
00000000
00000000
00000000
,
00030010
00000000
00000000
00000000
;

//---------------dance-double - Pandemonium X-BDP----------------
#NOTEDATA:;
#CHARTNAME:Pandemonium X-BDP;
#STEPSTYPE:dance-double;
#DESCRIPTION:Pandemonium X-BDP;
#DIFFICULTY:Easy;
#METER:7;
#RADARVALUES:0.292448,0.345347,0.094616,0.309651,0,238,227,11,36,0,0,0,0,0,0.292448,0.345347,0.094616,0.309651,0,238,227,11,36,0,0,0,0,0;
#CREDIT:Pandemonium X;
#NOTES:
00000000
00000000
00000000
00000000
,
00000000
00000000
00000000
00000000
,
00000000
00000000
00000000
00000000
,
00000000
00000000
00000000
00000000
,
10000000
00000000
00010000
00000000
,
00100000
00001000
00010000
00000000
,
00000100
00000000
00001000
00000000
,
00000010
00010000
00001000
00011000
,
00001000
01000000
00200000
00000000
,
01300000
00010000
00200000
00000000
,
00301000
00010000
00000200
00000000
,
00001300
00000010
00000200
00000000
,
00000301
00000011
00000001
00000100
,
00000010
00001000
00000100
00010000
,
00001000
01000000
00100000
10000000
,
01000000
00100000
00010000
01000000
,
00010000
00100000
00001000
00010000
,
00000100
00001000
00000010
00000100
,
00000000
00000011
00000010
00000001
,
00000100
00000010
00001000
00000100
,
00010000
00010000
00001000
00001000
,
01000000
01000000
00100000
00100000
,
20000000
00000000
30020000
00000000
,
00230000
00000000
00302000
00000000
,
00003000
00010000
00000000
00010000
00000000
00020000
00000000
00000000
,
00030000
00001000
00000000
00001000
00000000
00002000
00000000
00000000
,
00003000
00010000
00000000
00000100
00000000
00001000
00000000
00000010
,
00000200
00000000
00000000
00000000
,
00000300
00000000
00000000
00001001
,
00000010
00000000
00000000
00000000
00000000
00000000
00000000
00000100
,
00000001
00000100
00000000
00000000
00000000
00000010
00000000
00000100
,
00000010
00000000
00000000
00000000
00000000
00000000
00000000
00001000
,
00000010
00001000
00000000
00000100
00000000
00010000
00001000
00000000
,
01000000
00200000
10300000
01000000
,
00100000
00002000
00013000
00000100
,
00001100
00001000
00001000
00001000
,
00000200
00010300
00002000
01003000
,
00100000
10000000
01000000
00100000
,
01000000
00000000
10000000
00010000
00000000
00100000
01000000
00000000
,
00100000
00001000
00010000
00000100
,
00001000
00000010
00001000
00000010
00000000
00000100
00000001
00000000
,
00000010
00000000
00000000
00000110
00000000
00000000
00000100
00000000
,
00010000
00001000
00011000
00110000
,
20000000
31000000
00020000
01030000
,
00200000
20300000
32000000
03200000
,
00320000
01030000
00010000
00100000
,
00001000
00000000
00010000
00000200
00000000
00000000
00001300
00000000
,
00000010
00001000
00000001
00000010
,
00000200
00001300
00000020
00000130
,
00000001
00000000
00000100
00000020
00000000
00000000
00000130
00000000
,
00000001
00000000
00001000
00000200
00000000
00000000
00010300
00000000
,
00001000
01000000
00100000
10000000
,
02000000
00000000
03200000
00000000
,
00310000
00000000
01000000
00000000
,
00100000
00000000
10000000
00000000
,
00000000
10010000
00000000
00000000
00000000
00000000
00000000
00000000
,
10000000
01000000
00010000
01000000
,
00100000
00000000
00000000
00001000
00000000
00001000
00000000
00000000
,
01000000
00000000
00000000
00001000
00000000
00000000
00010000
00000000
,
00000100
00000000
00001000
00000100
,
00000010
00000001
00000100
00001001
,
00000002
00000103
00000010
00001000
,
00000100
00000000
00010000
00001000
00000000
00010000
00000100
00000000
,
00001000
00000010
00000100
00000001
,
00000020
00000130
00000200
00001300
,
00000100
00000000
00010000
00001000
00000000
01000000
00100000
00000000
,
10000000
00000000
01000000
00100000
00000000
01000000
10000000
00000000
,
00010000
00100000
00001000
00010000
,
00002000
00000000
00000000
00000000
,
00000000
00000000
00000000
00003000
,
00020000
00000000
00000000
00000000
,
00000000
00000000
00000000
00030000
,
00022000
00000000
00000000
00000000
,
00033000
00000000
00000000
00000000
;
