#TITLE:Frame of Mind;
#ARTIST:Tristam & Braken;
#CREDIT:Onyx Four;
#BANNER:Frame of Mind.png;
#BACKGROUND:Frame of Mind-bg.png;
#MUSIC:Frame of Mind.ogg;
#SAMPLESTART:57.6;
#SAMPLELENGTH:15;
#SELECTABLE:YES;
#BPMS:0=87.5,82=175,140=87.5;
#STOPS:49.5=1.371;

//---------------dance-single - NewbStepper-ESP----------------
#NOTES:
     dance-single:
     NewbStepper:
     Hard:
     12:
     0.476147,0.715117,0.273948,0.136974,0.310474,365,335,30,15,0,0,0.476147,0.715117,0.273948,0.136974,0.310474,365,335,30,15,0,0:
0000
0000
0000
0000
,
0000
0000
0000
0000
,
0000
0000
0000
0000
,
0000
0000
0000
0000
,
0000
0000
0000
0000
,
1001
0000
0001
0000
0100
1000
0100
0001
,
1001
0000
1000
0000
0100
0001
0100
1000
,
1001
0000
0000
0000
0010
0000
0001
0000
0100
0000
0010
0000
1000
0001
1000
0000
,
0100
0000
0000
0000
0001
0000
0100
1000
0001
0000
1000
0000
0001
0000
0010
0000
,
0001
0001
0100
0100
1000
0100
0001
0010
,
1001
1000
0100
0100
0001
0100
1000
0010
,
0110
0000
0100
0000
0001
0000
0010
0001
0000
1000
0010
0100
0000
0000
0100
0001
,
0000
0000
0000
0000
0000
0000
0000
0000
0010
0000
0000
0000
0000
0000
0000
0000
0100
0000
0000
0000
0000
0000
0000
0000
0220
0330
0000
0000
0000
0000
0000
0000
2000
0000
0000
0000
0000
0000
0000
0000
0100
0000
0000
0000
0000
0000
0000
0000
3200
0000
0000
0000
0000
0000
0000
0000
0001
0000
0000
0000
0000
0000
0000
0000
,
0302
0000
0010
0000
0023
0000
1000
0000
1030
0100
0010
0000
0001
0100
0010
0000
,
1000
0100
0010
0001
0010
0100
1000
0000
0002
0000
0100
0000
0203
0000
1000
0000
,
2300
0000
0010
0000
3020
0000
0001
0000
0031
0100
0001
0000
1000
0100
1000
0000
,
0001
0100
0010
0000
1001
0000
0000
0000
0010
0001
0100
0000
0010
1000
0100
0000
,
0010
0000
0001
0000
1000
0000
0010
0000
1000
0000
0001
0000
0010
0000
0000
0000
0001
0000
0100
0010
0100
0000
0001
0000
1000
0000
0100
0000
0100
0000
0000
0000
,
1000
0000
0100
0010
0100
0000
1000
0000
0001
0000
0100
0000
0100
0000
0000
0000
0001
0000
1000
0000
0001
0000
1000
0000
0001
0000
1000
0000
0001
0000
1000
0000
,
0010
0000
0100
0000
0010
0000
0100
0000
0010
0000
0100
0000
0010
0000
0100
0000
0001
0000
1000
0100
1000
0000
0001
0000
1000
0000
0100
0000
0010
0000
0001
0000
,
0011
1010
1100
0101
1000
0010
0100
0000
,
1000
0100
0001
0010
0001
0100
0010
1000
,
0100
0001
0100
1000
0001
0000
1001
0000
,
0010
0001
0100
0010
0010
1000
0001
0010
,
1000
0010
0001
0100
0010
0000
0110
0000
,
1000
0100
0001
0100
1000
0000
0001
0100
,
1000
0100
0001
0000
1000
0010
1010
0000
,
0001
0010
0011
0000
1001
0100
0000
0010
,
0000
0000
1000
0010
1000
0000
0001
0000
0010
0000
0100
0000
0010
0000
0000
0000
,
0001
0100
1000
0000
1000
0100
0001
0000
,
0010
0001
1000
0010
0100
0000
1001
0000
,
1000
0100
0001
0000
0001
0100
1000
0000
,
0010
1000
0001
0010
0100
0000
1001
0000
,
1100
0101
0011
1010
,
1000
0100
0010
0001
0010
0000
1001
0000
,
0220
0000
0000
0000
0330
0000
1000
1100
,
0001
0100
1000
0000
0001
0100
1000
0000
0100
0000
0001
0000
0100
0000
0101
0000
,
1000
0100
0001
0000
1000
0100
0001
0000
0100
0000
1000
0000
2200
0000
0000
0000
,
3300
0000
0010
0000
0010
0000
0001
0100
1000
0100
0001
0010
0100
0000
1100
0000
,
0001
0010
0001
0000
1000
0010
1000
0100
0010
0001
0100
0010
1000
0000
1010
0000
,
0001
0010
1000
0000
0001
0010
1000
0000
0010
0000
0001
0000
0010
0000
0011
0000
,
1000
0010
0001
0000
1000
0010
0001
0000
0010
0000
1000
0000
0010
0100
0010
0000
,
1000
0001
1000
0000
0001
0010
0100
1000
0001
0100
1000
0100
0001
0010
1000
0010
,
0001
0000
0100
0000
0001
0010
0000
0100
0000
0010
0001
0000
0100
0000
0000
0000
,
0020
0000
0000
0030
;

//---------------dance-single - NewbStepper-DSP----------------
#NOTES:
     dance-single:
     NewbStepper:
     Medium:
     8:
     0.272643,0.347343,0.045658,0.146105,0.004566,209,204,5,16,0,0,0.272643,0.347343,0.045658,0.146105,0.004566,209,204,5,16,0,0:
0000
0000
0000
0000
,
0000
0000
0000
0000
,
0000
0000
0000
0000
,
0000
0000
0000
0000
,
0000
0000
0000
0000
,
0010
0000
0001
0000
1000
0100
0010
0001
,
0000
0000
1000
0000
0001
0100
0010
1000
,
0000
0000
0001
0001
1000
1000
0100
0010
,
0000
0000
0001
1000
0010
0100
0001
0010
,
0100
0000
1000
0000
0001
0010
0100
1000
,
0000
0000
0001
0000
1000
0010
0100
0001
,
0000
0000
1000
0100
0001
0100
1000
0010
,
0001
0010
1000
0000
0002
0000
0023
0000
,
0230
2300
3002
0000
,
0103
0010
2000
3200
,
0320
0032
0203
0000
,
0010
0000
0310
0000
1000
0100
1000
0000
,
0001
0100
0001
0000
0010
0010
0010
0000
,
0100
0100
0100
0000
1000
1000
0100
0100
,
0010
0010
0001
0001
1000
0100
0001
0100
,
1000
0010
0001
0010
1000
0000
1100
0000
,
0001
0100
0001
0000
1000
0010
0000
0100
,
0000
0010
0000
1000
0001
0000
0000
0000
,
1000
0100
1000
0100
1000
0000
0001
0100
,
0000
0010
0000
0100
0000
0000
0000
0000
,
0010
1000
0010
1000
0010
0000
0100
0001
,
0000
0000
0010
0100
0000
0100
0010
0000
,
0001
0000
1000
0000
0100
0010
0000
0010
,
0000
0010
0000
0010
0000
0000
0101
0000
,
1000
0100
1000
0000
0001
0010
0000
0100
,
0000
0010
0000
0001
1000
0000
0000
0000
,
0001
0100
0001
0100
0000
0010
1000
0001
,
0000
0010
0001
1000
0000
0000
1001
0000
,
0010
0010
0100
0100
,
0001
1000
0000
0010
0000
0000
0000
0000
,
2000
0000
3000
0001
,
1000
0100
0001
0100
1000
0010
0100
0000
,
0001
0100
1000
0100
0001
0010
0200
0000
,
0300
1000
0100
0010
0001
0101
0000
0000
,
0010
1000
0001
0100
0010
1000
1100
0000
,
0001
0010
1000
0010
0001
0100
0010
0000
,
1000
0010
0001
0010
1000
0100
0020
0000
,
0030
0001
0200
0000
1300
0020
0000
0030
,
0001
0000
0100
0000
0010
0000
0000
1000
0000
0000
0001
0000
0100
0000
0000
0000
,
0020
0000
0000
0030
;

//---------------dance-single - NewbStepper-BSP----------------
#NOTES:
     dance-single:
     NewbStepper:
     Easy:
     4:
     0.163064,0.179778,0.018263,0.091316,0,125,123,2,10,0,0,0.163064,0.179778,0.018263,0.091316,0,125,123,2,10,0,0:
0000
0000
0000
0000
,
0000
0000
0000
0000
,
0000
0000
0000
0000
,
0000
0000
0000
0000
,
0000
0000
0000
0000
,
0001
1000
1000
0010
,
0000
0001
0001
0010
,
0000
1000
1000
0100
,
0010
0001
0001
0100
,
0010
1000
1000
0010
,
0000
0001
0001
0010
,
0000
1000
0100
0010
,
0001
0100
0020
0030
,
2000
3000
0002
0000
,
0003
0000
0020
0030
,
0002
0003
2000
0000
,
3000
0000
0001
0100
,
1000
0010
0002
0000
,
0103
0010
1000
0100
,
0001
0010
2000
0000
,
0002
3003
0010
0000
,
0001
0100
0001
0100
,
0001
1000
0010
0000
,
1000
0100
1000
0100
,
1000
0001
0010
0000
,
0001
0001
0100
0010
,
1000
1000
0100
0000
,
0010
0001
0010
0000
,
0100
1000
0100
0000
,
1000
0010
1000
0010
,
1000
0001
0100
0000
,
0001
0010
0001
0010
,
0001
1000
0100
0000
,
1000
1000
0100
0010
,
0001
0001
0100
0000
,
0020
0000
0000
0030
,
1000
1000
0100
0001
,
0001
0100
1000
1001
,
0000
0001
0100
0010
,
1000
0100
0010
0000
,
0001
0001
0100
1000
,
1000
0100
0001
1001
,
0000
1000
0100
0010
,
0000
0001
0100
0010
;

//---------------dance-single - NewbStepper-bSP----------------
#NOTES:
     dance-single:
     NewbStepper:
     Beginner:
     2:
     0.118711,0.159803,0.018263,0.009132,0,91,89,2,1,0,0,0.118711,0.159803,0.018263,0.009132,0,91,89,2,1,0,0:
0000
0000
0000
0000
,
0000
0000
0000
0000
,
0000
0000
0000
0000
,
0000
0000
0000
0000
,
0000
0000
0000
0000
,
0001
0000
0000
0000
,
0001
0000
0000
0000
,
1000
0000
0000
0000
,
1000
0000
0000
0000
,
0010
0000
0000
0000
,
0010
0000
0000
0000
,
0100
0000
0000
0000
,
0100
0000
0000
0001
,
0001
1000
1000
0000
,
0100
0000
1000
1000
,
1000
0001
0001
0000
,
0010
0000
0001
0001
,
0001
0001
0010
0000
,
0100
0000
1000
1000
,
1000
1000
0100
0000
,
0010
0000
0001
0000
,
1000
0000
1000
0000
,
0100
0100
0100
0000
,
0001
0000
0001
0000
,
0100
0100
0100
0000
,
0010
0000
0010
0000
,
0001
0001
0001
0000
,
1000
0000
0001
0000
,
0010
0010
0010
0000
,
0001
0000
0001
0000
,
0010
0010
0010
0000
,
1000
0000
1000
0000
,
0010
0010
0010
0000
,
0001
0000
0100
0000
,
1000
0000
0010
0000
,
0002
0000
0000
0003
,
0000
1000
1000
1000
,
0000
0001
0001
0001
,
0000
0100
0100
0100
,
0000
0010
0000
1001
,
0000
0001
0001
0001
,
0000
1000
1000
1000
,
0000
0100
0100
0100
,
0000
0010
0000
1001
;

//---------------dance-double - NewbStepper-EDP----------------
#NOTES:
     dance-double:
     NewbStepper:
     Hard:
     12:
     0.460493,0.674253,0.255684,0.136974,0.278513,353,325,28,15,0,0,0.460493,0.674253,0.255684,0.136974,0.278513,353,325,28,15,0,0:
// measure 0
00000000
00000000
00000000
00000000
,  // measure 1
00000000
00000000
00000000
00000000
,  // measure 2
00000000
00000000
00000000
00000000
,  // measure 3
00000000
00000000
00000000
00000000
,  // measure 4
00000000
00000000
00000000
00000000
,  // measure 5
00011000
00000000
00010000
00000000
00001000
00000100
00000001
00000100
,  // measure 6
00001000
00000000
00011000
00000000
00010000
01000000
10000000
01000000
,  // measure 7
00010000
00000000
00000000
00000000
00001000
00000000
00010000
00000000
00000010
00000000
00001000
00000000
00000001
00000010
00000001
00000000
,  // measure 8
00000100
00000000
00000000
00000000
00001000
00000000
00010000
01000000
10000000
00000000
00010000
00000000
01000000
00000000
00100000
00000000
,  // measure 9
10000000
10000000
01000000
01000000
00010000
00001000
00000010
00000100
,  // measure 10
00001001
00000001
00000100
00000100
00001000
00010000
00100000
01000000
,  // measure 11
01100000
00000000
00100000
00000000
10000000
00000000
00010000
00100000
00000000
00001000
00010000
00000010
00000000
00000000
00000010
00001000
,  // measure 12
00000000
00000000
00000000
00000000
00000000
00000000
00000000
00000000
00000100
00000000
00000000
00000000
00000000
00000000
00000000
00000000
00000010
00000000
00000000
00000000
00000000
00000000
00000000
00000000
00000220
00000330
00000000
00000000
00000000
00000000
00000000
00000000
00000002
00000000
00000000
00000000
00000000
00000000
00000000
00000000
00000100
00000000
00000000
00000000
00000000
00000000
00000000
00000000
00000203
00000000
00000000
00000000
00000000
00000000
00000000
00000000
00001000
00000000
00000000
00000000
00000000
00000000
00000000
00000000
,  // measure 13
00002300
00000000
00010000
00000000
00023000
00000000
01000000
00000000
01030000
10000000
00100000
00000000
01000000
00010000
00100000
00000000
,  // measure 14
00001000
00010000
00001000
00000000
00010000
01000000
10000000
00000000
20000000
00000000
01000000
00000000
32000000
00000000
00010000
00000000
,  // measure 15
03020000
00001000
00032000
00000100
00003100
00000001
00000010
00001000
,  // measure 16
00000010
00000001
00001000
00000010
00010000
00001000
01000000
00000000
00100000
10000000
01000000
00000000
00100000
00010000
01000000
00000000
,  // measure 17
00100000
00010000
00001000
00010000
00001000
00000100
00000010
00000000
00001000
00000100
00000010
00000001
00000010
00000100
00001000
00000000
,  // measure 18
00010000
00100000
01000000
10000000
01000000
00100000
00010000
00000000
01000000
00100000
01000000
00100000
01000000
00100000
01000000
00100000
,  // measure 19
00010000
00001000
00010000
00001000
00010000
00001000
00010000
00001000
00000100
00000010
00001000
00000100
00000010
00000001
00000100
00001000
,  // measure 20
00011000
01010000
11000000
10100000
00010000
01000000
00100000
00000000
,  // measure 21
10000000
01000000
00010000
00001000
00100000
00010000
01000000
00100000
,  // measure 22
00010000
00001000
00000010
00000001
00001000
00000000
00001001
00000000
,  // measure 23
00000010
00000001
00000100
00000010
00000010
00001000
00000001
00000010
,  // measure 24
00001000
00010000
01000000
10000000
00100000
00000000
10010000
00000000
,  // measure 25
00010000
01000000
10000000
01000000
00010000
00000000
00100000
00001000
,  // measure 26
00000000
00010000
00000100
00001000
00000000
00000001
00000010
00000000
,  // measure 27
00001010
00000000
00011000
00000000
00100000
01000000
00000000
00010000
,  // measure 28
00000000
10000000
01000000
00010000
00001000
00000000
00000110
00000000
,  // measure 29
00000001
00000100
00001000
00000000
00010000
01000000
10000000
00000000
,  // measure 30
00100000
10000000
00010000
00100000
01000000
00000000
10010000
00000000
,  // measure 31
10000000
01000000
00010000
00000000
00001000
00000100
00000001
00000000
,  // measure 32
00000010
00000001
00001000
00000010
00000100
00000000
00001001
00000000
,  // measure 33
00000101
00001100
00011000
01010000
,  // measure 34
10000000
00100000
01000000
00010000
00100000
00000000
00000000
00000000
,  // measure 35
00022000
00000000
00000000
00000000
00033000
00000000
00001000
00011000
,  // measure 36
00010000
01000000
10000000
00000000
00010000
01000000
10000000
00000000
01000000
00000000
00001000
00000000
00010000
00000000
00011000
00000000
,  // measure 37
00001000
00000100
00000001
00000000
00001000
00000100
00000001
00000000
00000100
00000000
00010000
00000000
00022000
00000000
00000000
00000000
,  // measure 38
00033000
00000000
00100000
00000000
00100000
00000000
10000000
01000000
00010000
01000000
10000000
00100000
01000000
00000000
01010000
00000000
,  // measure 39
00001000
00000000
00010000
00000000
00001000
00000100
00000001
00000010
00000100
00001000
00000001
00000100
00001000
00000000
00011000
00000000
,  // measure 40
00010000
00100000
10000000
00000000
00010000
00100000
10000000
00000000
00100000
00000000
00001000
00000000
00010000
00000000
00011000
00000000
,  // measure 41
00001000
00000010
00000001
00000000
00001000
00000010
00000001
00000000
00000010
00000000
00010000
00000000
00001000
00000000
00011000
00000000
,  // measure 42
00100000
01000000
00100000
00000000
00010000
10000000
01000000
00100000
01000000
10000000
01000000
00010000
00001000
00010000
00000010
00010000
,  // measure 43
00001000
00000000
00000100
00000000
00000001
00000010
00000000
00000100
00000000
00000010
00000001
00000000
00000100
00000000
00000000
00000000
,  // measure 44
00000020
00000000
00000000
00000030
;

//---------------dance-double - NewbStepper-DDP----------------
#NOTES:
     dance-double:
     NewbStepper:
     Medium:
     9:
     0.268730,0.347343,0.036526,0.146105,0.004566,206,202,4,16,0,0,0.268730,0.347343,0.036526,0.146105,0.004566,206,202,4,16,0,0:
00000000
00000000
00000000
00000000
,
00000000
00000000
00000000
00000000
,
00000000
00000000
00000000
00000000
,
00000000
00000000
00000000
00000000
,
00000000
00000000
00000000
00000000
,
00100000
00000000
00010000
00000000
10000000
01000000
00100000
00010000
,
00000000
00000000
00001000
00000000
00000001
00000100
00000010
00001000
,
00000000
00000000
00010000
00010000
10000000
10000000
01000000
00010000
,
00000000
00000000
00001000
00000100
00000010
00001000
00000001
00000100
,
00000010
00000000
00001000
00000000
00000001
00000010
00000100
00001000
,
00000000
00000000
00010000
00000000
10000000
00100000
01000000
00010000
,
00000000
00000000
10000000
01000000
00100000
00010000
00001000
00000100
,
00000010
00000001
00001000
00000000
00000002
00000000
00000023
00000000
,
00000230
00002300
00023000
00000000
,
01030000
00100000
20000000
32000000
,
03200000
00320000
00032000
00000000
,
00000010
00000000
00003010
00000000
00001000
00000100
00001000
00000000
,
00000001
00000100
00000001
00000000
00000010
00000100
00000010
00000000
,
00001000
00010000
00001000
00000000
00010000
00010000
01000000
01000000
,
10000000
10000000
00100000
00100000
10000000
01000000
00010000
00001000
,
00010000
00001000
00000100
00000001
00001000
00000000
00001100
00000000
,
00000001
00000100
00000001
00000000
00001000
00000010
00000000
00010000
,
00000000
00001000
00000000
00100000
00010000
00000000
00000000
00000000
,
10000000
01000000
10000000
01000000
10000000
00000000
00010000
01000000
,
00000000
00001000
00000000
00010000
00000000
00000000
00000000
00000000
,
00000010
00001000
00000010
00001000
00000010
00000000
00000100
00000001
,
00000000
00000000
00000010
00000100
00000000
00000100
00000010
00000000
,
00001000
00000000
00010000
00000000
01000000
00100000
00000000
00100000
,
00000000
00100000
00000000
00100000
00000000
00000000
01010000
00000000
,
10000000
01000000
10000000
00000000
00010000
00100000
00000000
00001000
,
00000000
00010000
00000000
00000010
00001000
00000000
00000000
00000000
,
00000001
00000100
00000000
00001000
00000000
00000100
00000000
00000001
,
00000000
00000010
00001000
00010000
00000000
00000000
00011000
00000000
,
00100000
00100000
01000000
01000000
,
00010000
10000000
00000000
00100000
00000000
00000000
00000000
00000000
,
00020000
00000000
00000000
00031000
,
00010000
01000000
10000000
00100000
10000000
01000000
00010000
00000000
,
00001000
00000100
00000001
00000010
00000001
00000100
00002000
00000000
,
00003000
00010000
00001000
00100000
00010000
01010000
00000000
00000000
,
00100000
00010000
10000000
00100000
00010000
00001000
00010000
00000000
,
00001000
00000010
00000001
00000100
00000001
00000010
00001000
00000000
,
00010000
00100000
10000000
01000000
10000000
00100000
00020000
00000000
,
00030000
00001000
02000000
00000000
03010000
00200000
00000000
00300000
,
00001000
00000000
00010000
00000000
01000000
00000000
00000000
10000000
00000000
00000000
00100000
00000000
00010000
00000000
00000000
00000000
,
00002000
00000000
00000000
00003000
;

//---------------dance-double - NewbStepper-BDP----------------
#NOTES:
     dance-double:
     NewbStepper:
     Easy:
     3:
     0.127842,0.159803,0.018263,0.063921,0,98,96,2,7,0,0,0.127842,0.159803,0.018263,0.063921,0,98,96,2,7,0,0:
00000000
00000000
00000000
00000000
,
00000000
00000000
00000000
00000000
,
00000000
00000000
00000000
00000000
,
00000000
00000000
00000000
00000000
,
00000000
00000000
00000000
00000000
,
00000001
00000000
00000100
00000000
,
00000010
00000000
00001000
00000000
,
00000100
00010000
00001000
00100000
,
00010000
00000000
10000000
00000000
,
10010000
00000000
01000000
00000000
,
00100000
00000000
00010000
00000000
,
01000000
00001000
00010000
00000010
,
00001000
00000001
00000002
00000003
,
00000200
00000300
00002000
00000000
,
00003000
00000000
00020000
00030000
,
02000000
03000000
20000000
00000000
,
30000000
00000000
00010000
00000000
,
01000000
00000000
00001000
00000000
,
00010000
00000000
00000100
00000000
,
00001000
00000000
00000001
00000001
,
00000001
00000001
00001000
00000000
,
00000001
00000010
00000001
00000000
,
00001000
00000000
00001000
00000000
,
00000100
00010000
00000100
00000000
,
00010000
00000000
00010000
00000000
,
00001000
00100000
00001000
00000000
,
01000000
00000000
01000000
00000000
,
00010000
00000000
10000000
00000000
,
00010000
00000000
10010000
00000000
,
10000000
00100000
10000000
00000000
,
00010000
00000000
00010000
00000000
,
01000000
00001000
01000000
00000000
,
00001000
00000000
00001000
00000000
,
00010000
00000010
00010000
00000000
,
00000100
00000000
00000100
00000000
,
00002000
00000000
00000000
00003000
,
00000001
00001000
00000100
00000000
,
00001000
00000001
00000100
00000000
,
00000000
00001000
00010000
00001000
,
00000000
00100000
00100000
01000000
,
10000000
00010000
01000000
00000000
,
00010000
10000000
01000000
00000000
,
00000000
00010000
00001000
00010000
,
00000000
00000100
00000010
00000100
;
