#TITLE:Foolproof;
#ARTIST:dj VERTICAI;
#BANNER:Foolproof.png;
#BACKGROUND:Foolproof-bg.png;
#MUSIC:Foolproof.ogg;
#OFFSET:-0.001;
#SAMPLESTART:89.22;
#SAMPLELENGTH:15;
#BPMS:0=156;

//---------------dance-single - Pandemonium X-bSP----------------
#NOTES:
     dance-single:
     Pandemonium X-bSP:
     Beginner:
     5:
     :
0000
0000
0000
0000
,
0000
0000
0000
0000
,
0000
0000
0000
0000
,
0000
0000
0000
0000
,
0000
0000
0000
0000
,
0010
0000
0000
0100
,
0000
0000
0001
0000
,
1000
0000
0000
0001
,
0000
0000
1000
0001
,
0110
0000
0000
0000
,
0000
0000
0000
0000
,
1001
0000
0000
0000
,
0000
0000
0000
0000
,
0001
0000
0000
0001
0000
0000
1000
0000
,
0000
1000
0000
0000
0001
0000
0000
0000
,
1000
0000
0001
0000
,
0110
0000
0000
0000
,
0001
0000
0000
0000
,
1000
0000
0000
0000
,
0010
0000
0000
0000
,
0100
0000
0010
0000
,
1000
0000
0000
0000
,
0100
0000
0000
0000
,
0010
0000
0000
0000
,
0001
0000
0000
0000
,
1000
0001
0000
0010
,
0000
0000
0001
0000
,
0100
0100
0100
0010
,
0100
0000
0010
0000
,
1000
1000
1000
0001
,
1000
0000
0001
0000
,
0100
0100
0100
0000
,
0010
0010
0000
0100
,
1001
0000
0001
0000
,
1000
0000
0010
0000
,
0110
0000
0100
0000
,
0010
0000
1000
0000
,
1001
0000
0001
0000
,
0010
0000
0100
0000
,
1000
0000
0100
0000
,
1000
1000
0001
0001
,
0110
0000
0000
0000
,
0010
0000
0000
0000
,
0100
0000
0000
0000
,
0001
0000
0000
0000
,
1000
0000
0000
0000
,
1000
0000
1000
0000
,
0001
0000
0000
0000
,
0100
0000
0000
0000
,
0110
0000
0000
0000
,
0000
0000
0000
0000
,
0001
0000
0000
0000
,
0000
0000
0000
0000
,
1000
0000
0001
0000
,
1000
0000
0001
0000
,
1000
0001
1000
0001
,
0100
0100
0100
0100
,
0110
0000
0000
0000
,
0000
0000
0010
0000
,
1000
0000
0000
0000
,
0001
0000
0000
0000
,
0010
0000
0001
0000
,
0100
0100
0100
0000
,
0010
0000
1000
0000
,
0100
0000
1000
0000
,
0001
0000
1000
0000
,
0010
0010
0010
0000
,
0100
0100
0100
0000
,
0010
0010
0010
0000
,
1000
0000
0001
0000
,
1000
1000
1000
0000
,
0001
0000
0000
0000
,
0100
0000
0000
0000
,
0010
0010
0010
0000
,
1000
0000
0001
0000
,
0110
0000
0100
0000
,
1000
0000
0010
0000
,
0100
0000
0001
0000
,
1000
0001
0100
0010
,
1001
0000
0000
0000
;

//---------------dance-single - Pandemonium X-BSP----------------
#NOTES:
     dance-single:
     Pandemonium X-BSP:
     Easy:
     9:
     :
0000
0000
0000
0000
,
0000
0000
0000
0000
,
0000
0000
0000
0000
,
0000
0000
0000
0000
,
0000
0000
0000
0000
,
2000
0000
3000
0002
,
0000
0000
0003
0010
0020
0000
0030
0000
,
0200
0000
0300
0020
,
0000
0000
0030
0001
0002
0000
1003
0000
,
1001
1000
0001
0010
,
0100
0000
1000
0000
0001
0001
0001
0000
,
1001
1000
0001
0100
,
0010
0000
1000
0000
0100
0100
0100
0000
,
1100
0000
0000
0011
0000
0000
1100
0000
,
0000
0011
0000
0000
1100
0000
0000
0000
,
0100
0000
1000
0000
0010
0100
0001
1000
,
0200
0000
0000
0300
,
1001
1000
0001
0010
,
1001
1000
0001
0100
,
0101
0001
0010
0100
,
1100
0100
1000
0001
,
0101
0001
0010
0001
,
1001
1000
0010
0100
,
0101
0001
0010
0001
,
1001
0001
1000
0010
,
0110
0000
0010
1000
0010
0000
0100
0000
,
0001
0100
0001
0000
0010
0000
0100
0000
,
1000
0100
0010
0001
1000
0000
0001
0010
,
0100
1000
0001
0000
1000
0001
0100
0001
,
1000
0000
0001
0010
0001
0000
1000
0000
,
0010
1000
0010
0000
0100
0000
0010
0000
,
1000
0100
0010
0001
1000
0000
0001
0010
,
0100
1000
0001
0000
1000
0010
0100
0001
,
1001
0000
1000
0001
0020
0000
0000
0000
,
0230
0000
2300
0000
,
3100
0000
0100
1000
0020
0000
0000
0000
,
0230
0000
0302
0000
,
0013
0000
0010
0001
0200
0000
0000
0000
,
0320
0000
2030
0000
,
3002
2003
3020
0230
,
0301
0000
0000
0000
0100
0000
0000
0000
0010
0000
0000
0010
0000
0000
0010
0000
,
1001
0000
0000
1000
0200
0000
0000
1300
,
0020
0130
0001
0010
,
0100
0000
0200
0000
0000
0300
0010
0000
,
0001
1000
0010
1000
,
1200
0000
0000
0000
,
0300
0200
1300
0100
,
0010
0002
0000
0003
,
0020
0000
0000
0000
0000
0000
0000
0000
0000
0000
0100
0000
0000
0130
0000
0000
,
1001
0000
0000
0000
,
0000
0000
0000
0000
,
1001
0000
0001
0000
,
1000
0000
0010
0000
,
1010
0000
0101
0000
,
0011
0000
1100
0000
,
1001
0110
1001
0110
,
1001
1001
0110
0110
,
2002
0000
0000
3003
,
0001
0000
0001
0000
1000
0100
0010
0001
,
1000
0000
0000
1000
0000
0000
1000
0000
0010
0000
0000
0000
0100
0000
0000
0000
,
0001
0000
0000
0001
0000
0000
0001
0000
0010
0000
0000
0000
0100
0000
0000
0000
,
1000
0100
1000
0000
0001
0100
0001
0000
,
0100
0000
0010
0000
1000
0000
0001
0010
,
0100
0000
0000
0100
0000
0000
0100
0000
1000
0000
0000
0000
0100
0000
0000
0000
,
0010
0000
0000
0010
0000
0000
0010
0000
0001
0000
0000
0000
0100
0000
0000
0000
,
0010
0100
0001
1000
,
0101
0000
1100
0000
1000
0001
0020
0000
,
0130
1100
1000
1010
,
0010
0110
0100
0101
,
0001
1000
0010
1000
,
0001
0010
0100
1000
,
1100
0100
0110
0010
,
0011
0001
0101
0100
,
0110
1001
0110
1001
,
0001
0000
0001
0000
1000
0100
0010
0001
,
1000
0000
1000
0001
0020
0000
0000
0000
,
0230
0000
2300
0000
,
3002
0203
0320
2030
,
3001
0011
0100
1100
,
1001
0000
0000
0000
;

//---------------dance-single - Pandemonium X-DSP----------------
#NOTES:
     dance-single:
     Pandemonium X-DSP:
     Medium:
     13:
     :
0000
0000
0000
0000
,
0000
0000
0000
0000
,
0000
0000
0000
0000
,
0000
0000
0000
0000
,
0000
0000
0000
0000
,
0001
0000
0000
0001
0000
0000
0010
0000
0000
0000
0000
0000
0100
0000
0000
0100
,
0000
0000
1000
0000
0000
0000
0001
0000
0001
0000
0000
0001
0000
0000
1000
0000
,
0010
0000
0000
0100
0000
0000
0100
0000
0000
0000
0000
0000
0001
0000
0000
1000
,
0000
1000
0000
0100
0010
0001
0010
0100
,
2100
0010
0100
0010
,
0100
0000
0010
0000
3100
1100
0000
0001
,
1002
0100
0010
0100
,
0010
0000
0000
0000
0100
0000
0000
0000
0013
0000
0011
0000
0000
1100
0000
0000
,
1001
0000
1000
1100
0000
0001
0101
0000
,
0001
0011
0000
1000
1010
0000
1001
0000
,
1000
0000
0000
0100
0010
0000
0001
0000
0100
0000
1000
0000
0100
0000
0001
0000
,
2000
3020
0230
0302
,
0013
0000
0000
0100
1000
0000
0000
1000
0001
0000
1000
0000
0010
0000
0000
0000
,
0100
0000
0000
0001
0010
0000
0000
0100
0010
0000
0001
0000
1000
0000
0000
0000
,
0100
0000
0000
1000
0100
0000
0000
0100
0010
0000
0001
0000
0100
0000
0000
0000
,
0010
0000
0000
0100
0010
0000
0000
0100
0001
0000
0010
0000
0100
0000
1000
0000
,
0001
0000
0000
1000
0010
0000
0000
0100
0001
0000
1000
0000
0100
0000
0000
0000
,
0010
0000
0000
0001
0010
0000
0000
0100
1000
0000
0100
0000
0010
0000
0000
0000
,
0100
0000
0000
1000
0010
0000
0000
0100
0001
0000
0010
0000
0001
0000
0000
0000
,
0010
0000
0000
0100
0010
0000
0000
0010
0001
0000
0010
0000
0100
0000
1000
0000
,
0001
0100
0001
0010
0100
0000
0010
0001
,
0001
1000
0010
0000
0100
0010
1000
0001
,
0010
1000
0010
0001
1000
0000
0001
0010
,
1000
0010
0001
0000
0100
0010
1000
0001
,
1000
0100
1000
0010
0100
0000
0010
1000
,
0001
0001
1000
0000
0100
1000
0010
1000
,
0100
0001
0100
1000
0100
0000
1000
0100
,
0001
0100
1000
0000
0010
0100
0001
1000
,
1001
0000
0000
0000
0001
0000
0100
0000
0010
0000
1000
0010
0000
0010
0100
0000
,
0001
0000
1000
0100
0000
0100
0010
0000
0001
0000
0010
0100
0000
0100
1000
0000
,
1001
0000
0000
0000
1000
0000
0000
0000
0001
0000
0100
0001
0000
0001
0010
0000
,
0100
0000
1000
0100
0000
0100
0010
0000
0001
0000
1000
0001
0000
0001
0100
0000
,
0010
0000
0000
0000
0100
0000
0000
0000
0001
0000
0010
0001
0000
0010
0100
0000
,
0010
0000
0000
0001
0000
0000
1000
0000
0000
0010
0000
0000
0100
0000
0001
0000
,
1000
0100
1000
0001
0100
0001
0010
0100
,
1000
0100
0001
0100
,
1100
0000
0000
1000
0020
0000
0000
0130
,
0001
0000
0000
0001
0000
0000
0010
0000
0100
0000
0000
0100
0000
0000
1000
0000
,
0010
0000
0000
0000
0200
0000
0000
0000
0000
0000
0310
0000
0000
1000
0000
0000
,
0001
0000
0000
0010
0000
0000
0001
0000
0100
0000
0000
0010
0000
0000
1000
0000
,
0002
0000
0000
0000
,
0003
0000
0000
0000
2000
0000
0000
0000
3100
0000
0000
1000
0000
0000
0010
0000
,
0100
0000
0000
0002
0000
0000
0000
0000
0000
0000
0000
0000
0000
0000
0013
0000
,
0100
0000
0000
0000
1000
0000
0000
0000
0002
0000
0000
0000
0000
0000
0000
0000
0000
0000
0000
0000
0000
0000
0000
0000
0000
0000
0000
0000
0000
0000
1000
0000
0000
0000
0000
0000
0000
0000
0000
1003
0000
0000
0000
0000
0000
0000
0000
0000
,
0220
0000
0000
0000
,
0000
0000
0000
0000
0000
0000
0000
0330
,
1001
0000
1000
0000
,
0001
0000
1000
0000
,
0001
0000
0000
0001
0000
0000
0001
0000
1000
0000
0000
1000
0000
0000
1000
0000
,
0010
0000
0000
0010
0000
0000
0010
0000
0100
0000
0000
0100
0000
0000
0100
0000
,
0010
1000
0010
0100
0001
0010
0100
1000
,
0001
0000
0001
0000
1000
0000
1000
0000
0010
0100
0000
0100
0010
0000
0100
0000
,
2002
0000
0000
0003
,
3001
0000
0000
0100
0001
0000
0000
1000
0010
0000
0100
0000
0001
0000
1000
0000
,
0100
0000
0000
0100
0000
0000
0100
0000
0010
0000
0001
0000
0100
0000
0000
0000
,
0010
0000
0000
0010
0000
0000
0010
0000
0100
0000
0001
0000
1000
0000
0000
0000
,
0001
1000
0010
0000
1000
0001
0010
0000
,
0100
0010
0001
0100
0010
0000
1000
0010
,
0100
0000
0000
0100
0000
0000
0100
0000
0010
0000
1000
0000
0001
0000
0010
0000
,
0100
0000
0000
0100
0000
0000
0100
0000
0010
0000
0001
0000
1000
0000
0010
0000
,
1000
0001
0001
0010
0200
0000
2300
0000
,
3010
0100
0010
0100
0002
0000
1003
0100
,
0010
0001
0001
0100
0010
0010
0100
0001
,
1000
0100
0100
0010
0001
0001
0010
1000
,
0010
0001
1000
0010
0001
0010
1000
0001
,
1000
0100
0010
0001
1000
1000
1000
0000
,
0001
0100
0001
0020
0000
0130
1000
0001
,
1000
0010
0001
0010
1000
0001
1000
0000
,
0001
0010
0001
0010
0002
0000
0203
0000
,
0310
0000
0000
0000
0010
0000
0000
0010
0100
0000
0100
0000
0100
0000
0000
0000
,
1001
0000
0000
0000
0001
0000
1000
0000
0100
0000
0010
0001
0000
0010
0100
0000
,
1000
0000
0100
0010
0000
0100
1000
0000
0100
0000
1000
0010
0000
0100
0001
0000
,
1000
0000
0000
1000
0100
0000
0000
0100
0010
0000
0000
0010
0001
0000
0000
0001
,
0010
0001
0100
0010
1000
0001
0010
0100
,
1000
0000
0000
1000
0000
0000
1000
0000
0000
0000
0000
0000
0000
0000
0000
0000
;

//---------------dance-single - Pandemonium X-ESP----------------
#NOTES:
     dance-single:
     Pandemonium X-ESP:
     Hard:
     16:
     :
0000
0000
0000
0000
,
0000
0000
0000
0000
,
0000
0000
0000
0000
,
0000
0000
0000
0000
,
0000
0000
0000
0000
,
0001
0000
0000
0100
0000
0000
0010
0000
0010
0000
0000
0000
0100
0000
0000
0001
,
0000
0000
0010
0000
0010
0000
0100
0000
1000
0000
0000
1000
0000
0000
0001
0000
,
1000
0000
0000
0100
0000
0000
0010
0000
0010
0000
0000
0000
0001
0000
0000
0000
,
0200
0000
0000
0000
0320
0000
0000
0000
1030
0010
1000
0001
0010
0100
0010
0100
,
1000
0000
0100
0010
0001
0000
0010
0000
0001
0000
0100
0000
0001
0000
0010
0000
,
0001
0000
1000
0100
0010
0000
0100
0000
1000
0000
1001
0000
0000
0000
0110
0000
,
1001
0000
0001
0010
0100
0000
1000
0000
0010
0000
0100
0000
0010
1000
0010
1000
,
0010
0000
1000
0100
0010
0000
0001
0000
1000
0001
1000
0001
2000
0000
0000
0000
,
3010
0000
0100
0001
0010
0000
0110
0000
0100
1000
0010
0000
0110
0000
0100
0001
,
0010
0000
0110
0000
1001
0000
0001
0000
1000
0001
0010
0001
1000
0000
0001
0000
,
1000
0000
0000
1000
0100
0000
0010
0000
0001
0010
0001
0010
0100
1000
0100
1000
,
0001
0000
1000
0000
0110
0000
0001
1000
0000
1000
0001
0000
0110
0000
0000
0000
,
1001
0000
0000
1000
0100
0000
0000
0100
0010
0000
0000
0010
0001
0000
0100
0000
,
0010
0000
0000
0100
0001
0000
0000
0001
0010
0000
0000
0010
0100
0000
1000
0010
,
0100
0000
0000
0010
1000
0000
0000
1000
0001
0000
0000
0001
0010
0000
0100
0000
,
1000
0000
0000
1000
0010
0000
0000
0100
0001
0000
0010
0000
0100
0000
0100
1000
,
0010
0000
0000
0100
0010
0000
0000
0010
1000
0000
0001
0000
0010
0000
0100
1000
,
0010
0000
0000
0100
0001
0000
0000
0001
0010
0000
0001
0000
1000
0000
0100
0010
,
0001
0000
0000
0001
0100
0000
0000
0100
0010
0000
1000
0000
0100
0000
0010
0100
,
1000
0000
0000
0100
0010
0000
0000
0010
0001
0000
0100
0000
0010
0000
1000
0000
,
1001
0000
0001
0100
0010
0000
1000
0000
0200
0000
0000
0000
0310
0000
0100
1000
,
0010
0100
0010
0000
0200
0000
0000
0000
0301
0000
1000
0001
0010
0000
0100
0000
,
0010
0000
0010
0100
1000
0000
0010
0000
0200
0000
0000
0000
0301
0000
0001
1000
,
0100
0010
0001
1000
0002
0000
0000
0000
1003
0000
0001
0010
0100
1000
0001
0000
,
1001
0000
1000
0010
0100
0000
0001
0000
0021
0000
0000
0000
0130
0000
1000
0100
,
0010
0001
1000
0001
0020
0000
0000
0000
0130
0000
1000
0010
0100
0000
0001
0000
,
0010
0000
0010
0001
1000
0000
0010
0000
0210
0000
0000
0000
0301
0000
1000
0001
,
0010
0100
0010
0001
0020
0000
0000
0000
0130
0000
1000
0000
0010
0100
0002
0000
,
0013
0000
0000
0000
0001
0000
1000
0000
1001
0000
0001
0010
0000
0010
1000
0000
,
1001
0000
1000
0010
0000
0010
0001
0000
1001
0000
0001
0010
0000
0010
1000
0000
,
2002
0000
3003
0000
0001
1000
0000
1000
0001
0000
0001
0100
0000
0100
1000
0000
,
1001
0000
1000
0100
0000
0100
0001
0000
1001
0000
0001
0100
0000
0100
1000
0000
,
2002
0000
3003
0000
0001
1000
0000
1000
0001
0000
1000
0100
0000
0100
0001
0000
,
1000
0010
0000
0010
0001
0000
1000
0100
0000
0010
0001
0000
0100
0010
0000
0100
,
0001
0010
0001
0010
0001
0000
1000
0000
0010
0100
0010
0100
0010
0000
1000
0000
,
0200
0301
0200
1300
0020
0031
0020
1030
,
0101
0000
0000
0000
0000
0000
0001
1000
0200
0000
0000
0000
0000
0000
0310
0000
,
0002
0000
0000
0103
0000
0000
0010
0000
0200
0000
0000
0301
0000
0000
1000
0100
,
0020
0000
0000
0000
0230
0000
0000
0000
0000
0000
0000
1300
0000
0000
0100
0000
,
0010
0001
0100
0000
0020
0000
2030
0000
3002
0000
0000
2003
0000
0000
3200
0000
,
0320
0000
0000
0000
,
0000
0000
0000
0000
0031
0020
0000
0000
0031
0000
0100
0000
0001
0000
1000
0000
,
0100
0010
0200
0000
0000
0000
0000
0000
0000
0000
0000
0000
0000
0000
0000
0310
,
0100
0000
0000
0000
1000
0000
0000
0000
0020
0000
0000
0000
0000
0000
0000
0000
0000
0000
0000
0000
0000
0000
0000
0000
0000
0000
0000
0000
0000
0000
0100
0000
0000
0000
0000
0000
0000
0000
0000
0100
0000
0000
0000
0000
0000
0000
0000
0000
,
0200
0000
0000
0000
,
0000
0000
0000
0330
,
1001
0000
0001
0000
1000
0000
1000
0000
0010
0000
0100
0010
0000
0100
0010
0000
,
1000
0000
0001
1000
0000
0001
1000
0000
0100
0000
0010
0100
0000
0010
0100
0000
,
1100
0000
0001
0010
0000
0100
1000
0000
0101
0000
0001
0100
0000
0010
1000
0000
,
1001
0000
1000
0100
0000
0010
0001
0000
1001
0000
0001
0010
0000
0100
1000
0000
,
1001
0000
1000
0001
0010
0000
0001
1000
0010
0000
1000
0001
0010
0000
0001
1000
,
0010
0000
1010
0000
0110
0000
0101
0000
1000
0100
0000
0100
0010
0001
0100
0010
,
2000
0000
0000
0000
,
3001
0000
0001
1000
0010
0000
0010
1000
0001
0100
0001
0000
0010
0100
1000
0000
,
2100
0000
0000
0010
0000
0000
3001
1000
0100
0000
0010
0000
0100
1000
0010
0100
,
0002
0000
0000
0010
0000
0000
1003
0010
0100
0000
0010
0000
0100
0001
1000
0100
,
0010
0000
0100
0000
0100
0000
0010
0001
1000
0000
1000
0000
0001
0100
0001
1000
,
0100
0000
0010
0100
0010
0000
0100
0000
2000
0000
0000
0000
3100
0010
0001
1000
,
0002
0000
0000
0100
0000
0000
1003
0100
1000
0000
0010
0000
0100
0000
0001
0000
,
2000
0000
0000
0010
0000
0000
3001
0100
0001
0000
0010
0000
0100
0010
0001
1000
,
0010
0000
0100
0010
0100
0000
0010
0000
2000
0000
0000
0000
3002
0000
0000
0000
,
0013
0000
0010
0000
0110
0000
0001
0100
0000
0010
1000
0000
1001
0000
0000
0000
,
1001
0000
0001
0100
0010
0000
0110
0000
0010
1000
0100
0000
0110
0000
0100
0000
,
1001
0000
1000
0100
0010
0000
0110
0000
0100
0010
0001
0000
0010
0000
0100
0000
,
1000
0100
0001
0100
1000
0010
0100
0001
0020
0000
0000
0130
0010
0000
0001
0000
,
1000
0010
0001
0010
1000
0010
0100
0001
0010
0000
0100
0010
0001
0000
1000
0000
,
0001
0000
1000
0001
0100
0000
0120
0000
0000
0000
1030
0001
0010
0000
0100
0000
,
1000
0000
0100
0010
0001
0000
1000
0000
0001
0000
0010
0000
0001
0000
0001
0000
,
1000
0100
1000
0000
0001
0100
0001
0000
1000
0000
0010
0000
0100
0000
0001
0000
,
0010
0000
0010
0000
0110
0000
0100
1000
0000
1000
0100
0000
0100
0010
0001
1000
,
0010
0000
0000
0000
1001
0000
1001
0000
1001
0000
0001
0010
0000
0010
1000
0000
,
1001
0000
1000
0100
0000
0100
0001
0000
1001
0000
0001
0100
0000
0100
1000
0000
,
0001
0100
0001
0000
0101
0000
0011
0000
1000
0100
1000
0000
1100
0000
1010
0000
,
0001
0200
0000
0310
1000
0200
0010
0000
0310
0001
0010
0100
1000
0001
0100
0001
,
2000
3000
0000
0002
0003
0000
0200
0000
0300
0000
0000
0000
0000
0000
0000
0000
;

//---------------dance-double - forcednature-BDP----------------
#NOTES:
     dance-double:
     forcednature-BDP:
     Easy:
     10:
     :
00000000
00000000
00000000
00000000
,
00000000
00000000
00000000
00000000
,
00000000
00000000
00000000
00000000
,
00000000
00000000
00000000
00000000
,
00000000
00000000
00000000
00000000
,
00001000
00000000
00000000
01000000
00000000
00000000
00001000
00000000
00000000
00000000
00000000
00000000
00010000
00000000
00000000
00000010
,
00000000
00010000
00000000
00000000
00001000
00000000
00010000
00000000
,
00001000
00000000
00000000
00100000
00000000
00000000
00001000
00000000
00000000
00000000
00000000
00000000
00010000
00000000
00000000
00000100
,
00000000
00010000
00000000
00000000
00001000
00000000
01000000
00010000
,
02000000
00000000
00000000
00000000
,
00000000
00000000
00000000
00000000
00000000
03001000
00000000
00010000
,
00000200
00000000
00000000
00000000
,
00000000
00000000
00000000
00000000
00000000
00000000
00000000
00000000
00000000
00000000
00010300
00000000
00000000
00001000
00000000
00000000
,
00011000
00000000
00000000
01001000
00000000
00000000
00011000
00000000
,
00000000
00010100
00000000
00000000
00101000
00000000
00010010
00000000
,
00010000
00001000
00010000
00001000
01000000
00010000
00100000
00010000
,
02000000
10000000
00100000
03010000
,
01001000
00000000
00001000
00000000
00010000
00000100
00001000
00000000
,
00000010
00000000
00010000
00000000
00001000
00000010
00000100
00000000
,
00001000
00000000
00000001
00000000
00000100
00001000
00010000
00000000
,
00100000
00000000
01000000
00000000
00010000
10000000
00010000
10000000
,
01000000
00000000
00100000
00000000
00001000
00010000
00000010
00000000
,
00001000
00000000
00000100
00000000
00010000
00001000
00000100
00000000
,
00000001
00000000
00001000
00000000
00000100
00000010
00001000
00000000
,
00010000
00000000
00100000
00000000
01000000
00010000
10000000
10000000
,
00000000
00000000
11000000
00000000
01000000
00000000
00010000
00001000
,
00010000
00000000
00000010
00000000
00010000
00000000
00001000
00010000
,
00001000
00000000
00010000
00000000
00000100
00000000
00010000
00001000
,
00010000
00000000
00100000
00000000
00010000
00001000
00010000
00000000
,
00001100
00000000
00000100
00000000
00000010
00000001
00000010
00000000
,
00000001
00000000
00000001
00000000
00001000
00000010
00001000
00000000
,
00000100
00010000
00001000
00000000
01000000
00001000
00010000
00000000
,
00002000
00100000
00010000
01003000
,
00011000
00000000
00000000
00000000
00000000
00000000
00000000
00000000
00100000
00000000
00000000
00001000
00000000
00000000
00010000
00000000
,
00000100
00000000
00000000
00010000
00000000
00000000
00001000
00000000
00100000
00000000
00000000
00001000
00000000
00000000
00010000
00000000
,
00011000
00000000
00000000
00000000
00000000
00000000
00000000
00000000
00000010
00000000
00000000
00010000
00000000
00000000
00001000
00000000
,
01000000
00000000
00000000
00001000
00000000
00000000
00010000
00000000
00000010
00000000
00000000
00010000
00000000
00000000
00001000
00000000
,
00011000
00000000
00000000
00000000
00000000
00000000
00000000
00000000
00100000
00000000
00000000
00001000
00000000
00000000
00010000
00000000
,
00000100
00000000
00000000
00010000
00000000
00000000
00001000
00000000
00000000
01000000
00000000
00000000
00010000
00000000
10000000
00000000
,
00010000
00000000
00100000
00000000
01000000
00000000
00010000
00001000
,
00010000
00000000
00000000
00000010
00000000
00000000
00000010
00000000
00000000
00000000
00001000
00000000
00000001
00000000
00001000
00000000
,
00000200
00000000
00000320
00000000
,
00000032
00000000
00000203
00002300
,
00023000
00230000
00000000
02300000
,
03020000
20030000
30020000
00230000
,
02300000
00000000
00000000
00000000
,
00000000
03000000
00020000
00000000
00032000
00000000
00023000
00000000
,
00030200
00000000
00000000
00000000
,
00002300
00000000
00000000
00000000
00003002
00000000
00000000
00000000
00000000
00000000
00000103
00000000
00000000
00000100
00000000
00000000
,
00000220
00000000
00000000
00000000
,
00000000
00000000
00000000
00000000
,
00000000
00000000
00000000
00000000
,
00000000
00000000
00000000
00000330
,
00000001
00000000
00000000
00001000
00000000
00000000
00000001
00000000
00000010
00000000
00000000
00000100
00000000
00000000
00001000
00000000
,
00000010
00000000
00000000
00010000
00000000
00000000
00001000
00000000
00100000
00000000
00000000
00010000
00000000
00000000
00100000
00000000
,
01000000
11000000
10010000
10100000
,
00100000
01000000
00010000
01000000
00001000
00010000
00000100
00000000
,
00000020
00000000
00000000
00000000
,
00000130
00000000
00000100
00000000
00001000
00000001
00000100
00000010
,
00001000
00000000
00001100
00000000
00000100
00010000
00001000
00000000
,
01000000
00000000
01010000
00000000
00100000
10000000
00010000
00000000
,
10000000
01000000
00100000
00000000
00101000
00000000
00001000
00010000
,
00000010
00000000
00001000
00000001
00000010
00000000
00000100
00000000
,
00001000
00000000
00000001
00000100
00000010
00001000
00000100
00000000
,
00010000
00000000
00001000
01000000
00010000
00100000
00001000
00000000
,
00010000
00000000
00100000
01000000
00020000
00000000
20030000
00000000
,
31000000
00000000
00010000
00000000
00001000
00010000
00000200
00000000
,
00000300
00000000
00001000
00000001
00000100
00000010
00001000
00000000
,
00000100
00000000
00010000
00001000
01000000
00010000
00100000
00000000
,
00001000
00010000
00001000
00010000
00100000
00000000
10000000
00000000
,
01000000
00100000
00010000
01000000
00001000
00010000
00000100
00000000
,
00001100
00000000
00001000
00000000
00000001
00000100
00000001
00000010
,
00000100
00000000
00000100
00000000
00010000
00001000
01000000
00001000
,
00010000
00000000
00010000
00000000
00100000
01000000
00100000
10000000
,
00020000
00000000
00100000
00000000
01030000
00001000
00010000
00000000
,
00011000
00000000
00000000
00000000
00010000
00000000
00001000
00000000
00010000
00000000
00000000
00000010
00000000
00000000
00010000
00000000
,
00001000
00000000
00000000
00100000
00000000
00000000
00001000
00000000
00000000
00010000
00000000
00000000
00000100
00000000
00001000
00000000
,
00000010
00000100
00000010
00000000
00001000
00000001
00001000
00000000
,
00000000
00000200
00000300
00020000
00030000
00002000
00003000
02000000
,
03100000
00000000
00000000
00000000
;

//---------------dance-double - forcednature-DDP----------------
#NOTES:
     dance-double:
     forcednature-DDP:
     Medium:
     14:
     :
00000000
00000000
00000000
00000000
,
00000000
00000000
00000000
00000000
,
00000000
00000000
00000000
00000000
,
00000000
00000000
00000000
00000000
,
00000000
00000000
00000000
00000000
,
00010000
00000000
00000000
00010100
00000000
00000000
00202000
00000000
00000000
00000000
00303000
00000000
00001000
00000000
00000000
01001000
,
00000000
00000000
00020020
00000000
00000000
00000000
00030030
00000000
00010000
00000000
00000000
00001000
00000000
00000000
01000000
00000000
,
00010000
00000000
00000000
00101000
00000000
00000000
00020200
00000000
00000000
00000000
00030300
00000000
00001000
00000000
00000000
00010010
,
00000000
00000000
01002000
00000000
00000000
00000000
00103000
00000000
00010000
00000000
10000000
00100000
10000000
00000000
00010000
01000000
,
00020000
00000000
00130000
00001000
00010000
00000010
00010000
00001000
,
00000100
00000000
00000010
00010000
00001000
00000010
00000000
00000010
,
00000200
00000000
00001300
00000001
00000100
00001000
00010000
00010000
,
00100000
00000000
01000000
00000000
10000000
00000000
01000000
00000000
00010000
00000000
00100000
00000000
00000000
00100000
00000000
00000000
,
01100000
00000000
00000000
00011000
00000000
00000000
00000110
00000000
,
00000000
00011000
00000000
00000000
01001000
00000000
00010100
00000000
,
00000010
00000000
00010000
00000000
00001000
00000000
00100000
00000000
00010000
01000000
00010000
00000000
10000000
00100000
10000000
00000000
,
01000000
00000000
01000000
00000000
00010000
00000000
00001000
00010000
00000000
00000010
00001000
00000000
00000001
00000000
00000010
00000100
,
00000010
00000000
00000000
00000010
00000001
00000000
00000000
00000001
00000100
00000000
00001000
00000000
00010000
00000000
00100000
00000000
,
01000000
00010000
00100000
01000000
10000000
00010000
01000000
00000000
,
00100000
00000000
00000000
00100000
00010000
00000000
00000000
00010000
00001000
00000000
00000010
00000000
00000100
00000000
00001000
00000000
,
00000001
00000100
00000010
00010000
00001000
00000010
00000100
00000000
,
00001000
00000000
00000000
00001000
00000001
00000000
00000000
00000001
00000100
00000000
00001000
00000000
00010000
00000000
00000100
00000000
,
00001000
00000010
00010000
00001000
00100000
00010000
01000000
00000000
,
00001000
00000000
00000000
00001000
00010000
00000000
00000000
00010000
01000000
00000000
00000000
01000000
10000000
00000000
00000000
10000000
,
00100000
00100000
01000000
00010000
00100000
01000000
00010000
00001000
,
00000000
00000000
00000110
00000000
00002000
00000000
00003010
00000100
,
00001000
00010000
02000000
00000000
03100000
00001000
00010000
00100000
,
01000000
00010000
10000000
00010000
00200000
00000000
01300000
00010000
,
00001000
00010000
00000020
00000000
00001030
00000100
00010000
00000010
,
00000100
00001000
00000100
00000001
00000020
00000000
00000130
00010000
,
00001000
00100000
00020000
00000000
01030000
00001000
00010000
01000000
,
10000000
00100000
00010000
00100000
02000000
00000000
03001000
00010000
,
00000010
00001000
00000002
00000000
00000013
00001000
00010000
01000000
,
01100000
00000000
00000000
00000000
00100000
00000000
00001000
00000000
00010000
00000000
00000100
00001000
00000000
00000100
00010000
00000000
,
00001000
00000000
01000000
00010000
00000000
01000000
00001000
00000000
00010000
00000000
00000100
00001000
00000000
00000100
00010000
00000000
,
00001000
00000000
00000000
00000000
00100000
00000000
00010000
00000000
01000000
00000000
00001000
00010000
00000000
00000010
00001000
00000000
,
00000100
00000000
00010000
00001000
00000000
00100000
00010000
00000000
01000000
00000000
00001000
00010000
00000000
00000010
00001000
00000010
,
00001000
00000000
00000000
00000000
00000100
00000000
00010000
00000000
00001000
00000000
00100000
00010000
00000000
01000000
00001000
00000000
,
00010000
00000100
00000000
00001000
00000010
00000000
00010000
00001000
00000000
00100000
00010000
00000000
10000000
00100000
10000000
00100000
,
01000000
00000000
00000000
01000000
00001000
00000000
00000000
00001000
00010000
00000000
00000000
00010000
00000100
00001000
00000100
00001000
,
00000100
00000000
00000000
00000010
00000000
00000000
00001000
00000000
00000000
00000000
00010000
00000000
00100000
00000000
01000000
00000000
,
00020000
00000000
00000000
00000000
20030000
00000000
00000000
32000000
,
03020000
00000000
00000000
00000000
00000000
00000000
00000000
00000000
00032000
00000000
00000000
00003020
00000000
00000000
00000230
00000000
,
00002300
00000000
00000000
00000000
00003002
00000000
00000000
00000000
00000000
00000000
00000000
00000203
00000000
00000000
00002300
00000000
,
00023000
00000000
00000000
00000000
00230000
00000000
02300000
00000000
03200000
00000000
00000000
20300000
00000000
00000000
30020000
00000000
,
00230000
00000000
00000000
00000000
,
00000000
00000000
00300000
00000000
02000000
00000000
00000000
00000000
03020000
00000000
00001000
00000000
00000000
00000100
00000000
00000000
,
00030020
00000000
00000000
00000000
00000000
00000000
00000000
00000130
,
00000001
00000000
00000000
00000000
00000000
00000000
00000000
00000000
00001000
00000000
00000000
00000000
00000000
00000000
00000000
00000000
00000002
00000000
00000000
00000000
00000000
00000000
00000000
00000000
00000000
00000000
00000000
00000000
00000000
00000000
00000000
00000000
00000000
00000000
00000000
00000000
00000000
00000000
00000000
00000000
00000000
00000000
00000000
00000000
00000000
00000000
00000000
00000000
00000003
00000000
00000000
00000000
00000000
00000000
00000000
00000000
00000000
00000000
00000000
00000000
00000020
00000000
00000000
00000000
00000000
00000000
00000000
00000000
00000000
00000030
00000000
00000000
00000000
00000000
00000000
00000000
00000000
00000000
00000200
00000000
00000000
00000000
00000000
00000000
00000000
00000000
00000000
00000000
00000000
00000000
00000000
00000000
00000000
00000000
00000000
00000000
,
00020300
00000000
00000000
00000000
,
00000000
00000000
00000000
00000000
,
00000000
00000000
00000000
00000000
,
00000000
00000000
00000000
00030000
,
00010000
00000000
00000000
01001000
00000000
00000000
01000000
00000000
00010000
00000000
00100000
00001000
00000000
00010000
00000010
00000000
,
00001000
00000000
00000000
00010100
00000000
00000000
00000100
00000000
00001000
00000000
00000010
00010000
00000000
00001000
00100000
00010000
,
00100000
00000000
01000000
00000000
00100000
00000000
00001000
00010000
00001000
00000000
00010000
00000010
00010000
00000000
00000100
00001000
,
00000100
00000000
00000001
00000000
00000100
00000000
00001000
00000000
00000001
00001000
00000001
00001000
00000100
00000000
00000100
00010000
,
00002000
00000000
00000000
00000000
,
01003000
00000000
01000000
00000000
00002000
00023000
00230000
02300000
,
03010000
00000000
00000000
00010000
10000000
00000000
00100000
00000000
00010000
00000000
00001000
00000000
00010000
00000100
00010000
00000000
,
00001000
00000000
00000000
00001000
00000010
00000000
00000100
00000000
00001000
00000000
00000001
00000000
00000100
00000010
00000100
00000000
,
00001000
00000000
00010000
00000000
00010000
00000000
00100000
01000000
00100000
00000000
10000000
00000000
01000000
00000000
00010000
00000000
,
00001000
00000000
00000010
00000100
00000010
00000000
00000001
00000000
00002000
00000000
00000000
00000000
00003001
00000100
00000010
00001000
,
00000001
00000000
00000000
00000001
00000010
00000000
00001000
00000000
00010000
00000000
00100000
00000000
10000000
00000000
00010000
00000000
,
10000000
00000000
00000000
10000000
00100000
00000000
00010000
00000000
00001000
00000000
00000010
00000000
00000100
00001000
00000100
00000000
,
00000010
00000001
00000001
00000100
00002000
00000000
00023000
00000000
,
01030000
00000000
01000000
00000000
00100000
00000000
00010000
10000000
01000000
00100000
00010000
00000000
02000000
00000000
00000000
00000000
,
03000000
00000000
00000000
00000000
00011000
00000000
00000100
00000000
00001000
00000010
00001000
00000000
00000100
00000000
00010000
00000000
,
00001000
00000000
00100000
00010000
00100000
00000000
00001000
00000000
01000000
00010000
01000000
00000000
00100000
00000000
10000000
00000000
,
00010000
00100000
00010000
00000000
01000000
00010000
01000000
00000000
00200000
00000000
00000000
00000000
00310000
00000000
00001000
00000000
,
00010000
00000010
00010000
00000000
00001000
00100000
00001000
00000000
00010000
00000000
00000100
00001000
00000100
00000000
00000010
00000000
,
00000011
00000000
00000001
00000000
00000100
00000000
00001000
00000000
00010000
00000000
00100000
00000000
01000000
00010000
01000000
00010000
,
10000000
00000000
01000000
00000000
00010000
00000000
00001000
00010000
00001000
00000000
00000010
00000000
00000100
00001000
00000100
00001000
,
00000100
00000000
00000100
00000010
00000001
00000000
00000100
00000010
00001000
00000000
00000100
00000000
00010000
00001000
00010000
00001000
,
01000000
00000000
01000000
00000000
00010000
00000000
10000000
01000000
00100000
00010000
01000000
00000000
00002000
00000000
00000000
00000000
,
00013000
00000000
00000000
00000000
00100000
00000000
01000000
00000000
00010000
00000000
01000000
00001000
00000000
00010000
00000010
00000000
,
00001000
00000100
00000000
00010000
00001000
00000000
01000000
00010000
00000000
00100000
00001000
00000000
00010000
00000010
00010000
00000000
,
00001000
00000000
00000000
00001000
00000010
00000000
00000000
00000010
00000001
00000000
00000000
00000001
00000100
00000000
00000000
00000100
,
00001000
00010000
00100000
00010000
00001000
00010000
01000000
00000000
,
01100000
00000000
00000000
00000000
;

//---------------dance-double - forcednature-EDP----------------
#NOTES:
     dance-double:
     forcednature-EDP:
     Hard:
     17:
     :
00000000
00000000
00000000
00000000
,
00000000
00000000
00000000
00000000
,
00000000
00000000
00000000
00000000
,
00000000
00000000
00000000
00000000
,
00000000
00000000
00000000
00000000
,
00001000
00000000
00000000
00010000
00000000
00000000
00200000
00000000
00000000
00000000
00000000
00000000
10300000
00000000
00000000
01000000
,
00000000
00000000
00200000
00000000
00000000
00000000
00000000
00000000
01300000
00000000
00000000
00010000
00000000
00000000
00001000
00000000
,
00000100
00000000
00000000
00000010
00000000
00000000
00002000
00000000
00000000
00000000
00000000
00000000
00003100
00000000
00000000
00000010
,
00000000
00000000
00000002
00000000
00000000
00000000
00000103
00000000
00000001
00000000
00000010
00000100
00001000
00000100
00010000
00001000
,
00200000
00000000
00000000
01000000
00000000
01000000
00000000
00010000
,
00000000
00010000
00000000
00301000
00000000
00101000
00000000
00011000
,
00010020
00000000
00000000
00000100
00000000
00000100
00000000
00001000
,
00000000
00000000
00001000
00000000
00000000
00000000
00010000
00000030
00000000
00000000
00010010
00000000
00000000
00011000
00000000
00000000
,
00101000
00000000
00000000
00100000
01000000
00000000
11000000
00000000
00000000
10000000
00010000
00000000
01010000
00000000
00010000
01000000
,
00001000
00000000
00011000
00000000
00010000
00000100
00001000
00000000
00001010
00000000
00000010
00001000
00000001
00001000
00000100
00000010
,
00000001
00000000
00000001
00000000
00000100
00000000
00000100
00000000
00001000
00010000
00001000
01000000
00010000
01000000
00100000
10000000
,
00010000
00000000
00100000
00000000
01000000
00000000
10000000
01000000
00000000
00010000
00001000
00010000
00000100
00000000
00001000
00000100
,
00010000
00000000
00001000
00000000
00000100
00000000
00000001
00001000
00000010
00000000
00000100
00000001
00001000
00000000
00000100
00000000
,
00000010
00000000
00001000
00010000
00001000
01000000
00010000
00000000
00100000
00000000
01000000
10000000
00010000
00000000
01000000
00000000
,
10000000
00000000
00010000
00000000
00100000
00000000
01000000
00000000
00010000
00000000
00100000
00001000
00010000
00000000
00000010
00010000
,
00001000
00000000
00000000
00001000
00000010
00000000
00000000
00000010
00000100
00000000
00001000
00000000
00000001
00000100
00000010
00001000
,
00000001
00000000
00000010
00000000
00001000
00000000
00010000
00001000
01000000
00000000
00010000
00100000
01000000
00000000
10000000
01000000
,
00010000
00000000
00001000
00000000
00000010
00000100
00000000
00001000
00000000
00000001
00000000
00000100
00001000
00000000
00010000
00001000
,
01000000
00000000
00010000
00000000
00100000
01000000
10000000
00000000
00100000
00000000
00010000
00000000
00001000
00100000
00010000
00000000
,
01000000
00000000
00001000
00000000
00010000
00000100
00001000
00000100
00000010
00000000
00000001
00001000
00000000
00000020
00000000
00000000
,
00000030
00000000
00000100
00001000
00010000
00000000
00100000
00000000
02000000
00000000
00000000
00000000
03010000
00000000
10000000
01000000
,
00100000
00010000
00100000
00001000
00020000
00000000
00000000
00000000
00030010
00000000
00001000
00000100
00000010
00000000
00000001
00000000
,
00000010
00000000
00001000
00010000
00001000
01000000
00010000
00000000
00200000
00000000
00000000
00000000
01300000
00000000
10000000
00100000
,
10000000
00010000
01000000
00001000
00020000
00000000
00000000
00000000
00030100
00001000
00000100
00000010
00000001
00001000
00000010
00000000
,
00000100
00000000
00001000
00010000
00001000
00000000
00100000
00000000
00001000
00000000
00010000
00000000
01000000
00000000
00010000
00001000
,
00010000
00000010
00001000
00000001
00000100
00000000
00000010
00000000
00001000
00000000
00001000
00000100
00000010
00000000
00000001
00001000
,
00000010
00000000
00000100
00000001
00001000
00000000
00000100
00001000
00000100
00000000
00010000
00000000
00001000
00000000
01000000
00010000
,
01000000
00000000
01000000
00100000
10000000
00000000
10000000
01000000
00010000
00001000
00010000
00000010
00002000
00000000
00000000
00000000
,
00003100
00000000
00010000
00001000
00000100
00000000
00000001
00000000
00000011
00000000
00000010
00001000
00000000
00001000
00010000
00000000
,
00110000
00000000
00100000
00010000
00000000
00010000
00001000
00000000
00001100
00000000
00000100
00001000
00000000
00001000
00010000
00000000
,
00011000
00000000
00001000
01000000
00010000
10000000
00010000
00100000
01000000
00000000
00010000
00001000
00000000
00001000
00000010
00000000
,
00000110
00000000
00000100
00001000
00000000
00001000
00000001
00000000
00000101
00000000
00000100
00001000
00000000
00001000
00010000
00100000
,
01000000
00000000
00010000
00100000
00010000
10000000
00010000
01000000
00100000
00000000
01000000
10000000
00000000
01000000
00010000
00000000
,
10000000
01000000
00000000
00100000
00010000
00000000
00001000
00000100
00000000
00000010
00000001
00000000
00001000
00000010
00000100
00000001
,
00001000
00000000
00000100
00010000
00001000
00000000
01000000
00001000
00010000
00000000
01000000
10000000
00010000
00100000
00010000
00100000
,
02000000
00000000
00000000
03020000
00000000
00000000
00030200
00000000
00000000
00000000
00001300
00000000
00001000
00000000
00000010
00000100
,
00000002
00000000
00000000
00000000
00000000
00000000
00000013
00000100
00002000
00000000
00000000
00000000
00000000
00000000
00003020
00000000
,
00020030
00000000
00000000
00000000
00000000
00000000
00230000
00000000
02300000
00000000
00000000
10000000
00000000
00000000
03010000
01000000
,
00200000
00000000
00000000
00000000
00320000
00000000
00000000
00000000
00000000
00000000
00000000
00032000
00000000
00000000
00003020
00000000
,
00000230
00000000
00000000
00000000
00002300
00000000
00003002
00000000
00000203
00000000
00000000
00020300
00000000
00000000
02030000
00000000
,
03200000
00000000
00000000
00010000
00000000
00000000
01000000
00000000
10000000
00000000
00000000
00000000
00000000
00000000
00000000
00000000
,
00000000
00000000
00000000
00000000
00300000
00000000
00000000
00000000
00020000
00000000
00000000
00000000
00000000
00000000
00000000
00000000
00000100
00000000
00000000
00000000
00032000
00000000
00000000
00003000
00000000
00000000
00000200
00000000
00000000
00000000
00000000
00000000
,
00000302
00000000
00000000
00000010
00000000
00000000
00001000
00000000
00000100
00000000
00000000
00000000
00000003
00000000
00000010
00000100
,
00001000
00000000
00000000
00000000
00000000
00000000
00000000
00000000
00000010
00000000
00000000
00000000
00000000
00000000
00000000
00000000
00020000
00000000
00000000
00000000
00000000
00000000
00000000
00000000
00000000
00000000
00000000
00000000
00000000
00000000
00000000
00000000
00000000
00000000
00000000
00000000
00000000
00000000
00000000
00000000
00000000
00000000
00000000
00000000
00000000
00000000
00000000
00000000
00000100
00000000
00000000
00000000
00000000
00000000
00000000
00000000
00000000
00000000
00000000
00000000
00032000
00000000
00000000
00000000
00000000
00000000
00000000
00000000
00000000
00003000
00000000
00000000
00000000
00000000
00000000
00000000
00000000
00000000
02000000
00000000
00000000
00000000
00000000
00000000
00000000
00000000
00000000
00000000
00000000
00000000
00000000
00000000
00000000
00000000
00000000
00000000
,
00020000
00000000
00000000
00000000
,
00000000
00000000
00000000
00000000
,
00000000
00000000
00000000
00000000
,
00000000
00000000
00000000
03030000
,
10100000
00000000
00000000
01001000
00000000
00000000
00110000
00000000
00001000
00000000
00010000
00000010
00000000
00001000
00000010
00000000
,
00000101
00000000
00000000
00010010
00000000
00000000
00001100
00000000
00010000
00000000
00001000
00100000
00000000
00010000
00100000
00010000
,
10000000
00000000
00100000
00000000
00010000
00000000
00001000
00100000
00010000
00000000
00001000
00000100
00010000
00000000
00001000
00000100
,
00000001
00000000
00000010
00000000
00000100
00000000
00001000
00000000
00010000
00100000
01000000
10000000
00100000
01000000
00010000
00100000
,
02000000
00000000
00000000
00000000
,
03100000
00000000
00100000
00000000
01000000
00010000
00001000
00000100
,
00000110
00000000
00000010
00001000
00000001
00000000
00000100
00000010
00001000
00000000
00010000
00000000
01000000
00001000
00010000
00001000
,
00100000
00000000
01000000
10000000
00010000
00000000
01000000
00000000
00100000
00000000
00010000
00000000
00000100
00001000
00000010
00001000
,
00000100
00000000
00000001
00000000
00000100
00000000
00001000
00000001
00000100
00000000
00001000
00000000
00010000
00100000
01000000
00100000
,
10000000
00000000
01000000
00010000
00001000
00000000
00010000
00000000
00000010
00000000
00001000
00000000
00000100
00010000
00001000
00010000
,
00000010
00000000
00000100
00001000
00010000
00000000
00100000
00010000
00001000
00000000
00010000
00000000
01000000
00000000
00010000
00000000
,
00000100
00000000
00001000
00000001
00000010
00000000
00000001
00000100
00001000
00000000
00010000
00000000
00100000
01000000
00010000
00000000
,
10000000
00000000
01000000
00010000
00001000
00000000
00010000
01000000
20000000
00000000
00000000
00000000
30020000
00000000
00000000
00000000
,
00031000
00000000
00001000
00000000
00000010
00000000
00000100
00000001
00001000
00000001
00000010
00000000
00000200
00000000
00000000
00000000
,
00000300
00000000
00000000
00000000
01100000
00000000
10000000
00000000
00010000
00100000
01000000
00000000
00010000
00000000
00001000
00000000
,
00000100
00000000
00000010
00010000
00001000
00000000
00000010
00000000
00000100
00010000
00001000
00000000
00000100
00000000
00000001
00000000
,
00000100
00001000
00010000
00001000
01000000
00001000
00010000
00001000
00000010
00000000
00000100
00001000
00000001
00000000
00000100
00000000
,
00001000
00010000
00001000
00100000
00010000
01000000
10000000
01000000
00100000
00000000
10000000
01000000
00010000
00000000
00001000
00000000
,
00011000
00000000
00010000
00000100
00001000
00000000
00000010
00000000
00000001
00000000
00000010
00000000
00001000
00000100
00000010
00000100
,
00010000
00000000
00001000
01000000
00010000
00000000
00100000
01000000
00100000
00000000
00010000
00000000
10000000
00100000
10000000
00100000
,
01000000
00001000
00100000
00010000
01000000
00001000
00100000
00010000
01000000
00000000
00001000
00010000
00000100
00001000
00000100
00000010
,
00000001
00001000
00000001
00000100
00000001
00000010
00000100
00001000
00000001
00000100
00000010
00001000
00000100
00010000
00001000
01000000
,
00010000
00000000
00100000
01000000
10000000
00000000
00100000
00000000
01010000
00000000
01000000
00001000
00000000
00001000
00100000
00000000
,
01000000
00010000
00000000
00001000
00010000
00000000
00001000
00000010
00000000
00000001
00000010
00000000
00000100
00001000
00000100
00010000
,
00001000
00000000
00000100
00000000
00010000
00000000
01000000
00000000
00100000
10000000
00010000
10000000
01000000
00000000
00010000
00000000
,
00000100
00001000
00000000
00000010
00010000
00001000
01000000
00010000
00100000
00001000
00000000
00010000
00000100
00001000
00000010
00010000
,
00001000
00000000
00000000
00000000
;
