#VERSION:0.83;
#TITLE:Feel It Still;
#ARTIST:Portugal. The Man;
#TAGS:DMCA;
#CREDIT:Atlantic Records (Warner Music Group);
#BANNER:Feel It Still.png;
#BACKGROUND:Feel It Still-bg.png;
#JACKET:Feel It Still-jacket.png;
#MUSIC:Feel It Still.ogg;
#OFFSET:-0.049;
#SAMPLESTART:24.349;
#SAMPLELENGTH:15;
#BPMS:0=158.027,208=159,209=158,212=160,213=159,214=158;

//---------------dance-single - RIME-bSP----------------
#NOTEDATA:;
#CHARTNAME:RIME-bSP;
#STEPSTYPE:dance-single;
#DESCRIPTION:RIME-bSP;
#DIFFICULTY:Beginner;
#METER:1;
#RADARVALUES:0.073502,0.096472,0.011434,0.102903,0,45,44,1,9,0,0,0,0,0,0.073502,0.096472,0.011434,0.102903,0,45,44,1,9,0,0,0,0,0;
#CREDIT:RIME;
#NOTES:
0000
0000
0000
0000
,
0000
0000
0000
0000
,
0000
0000
0000
0000
,
0000
0000
0000
0000
,
0000
0000
0000
0000
,
0000
0000
0000
0000
,
0000
0000
0000
0000
,
0000
0000
0000
0000
,
1000
0000
0000
0000
,
1000
0000
0000
0000
,
0001
0000
0000
0000
,
0001
0000
0000
0000
,
0100
0000
0000
0000
,
0010
0000
0000
0000
,
1000
0000
0000
0000
,
0001
0000
0000
0000
,
0020
0000
0000
0000
,
0030
0000
0000
0000
,
0002
0000
0000
0000
,
0003
0000
0000
0000
,
2000
0000
0000
0000
,
3000
0000
0000
0000
,
0200
0000
0000
0000
,
0300
0000
0000
0000
,
0020
0000
0000
0000
,
0130
0000
0000
0000
,
0200
0000
0000
0000
,
0310
0000
0000
0000
,
2000
0000
0000
0000
,
3001
0000
0000
0000
,
0002
0000
0000
0000
,
1003
0000
0000
0000
,
0001
0000
0000
0000
,
0100
0000
0000
0000
,
0001
0000
0000
0000
,
0100
0000
0000
0000
,
0010
0000
0000
0000
,
1000
0000
0000
0000
,
0010
0000
0000
0000
,
1000
0000
0000
0000
,
0002
0000
0000
0000
,
0003
0000
0000
0000
,
1000
0000
0000
0000
,
0010
0000
0000
0000
,
0100
0000
0000
0000
,
0001
0000
0000
0000
,
0100
0000
0000
0000
,
0001
0000
0000
0000
,
0010
0000
0000
0000
,
0100
0000
0000
0000
,
0010
0000
0000
0000
,
0100
0000
0000
0000
,
1000
0000
0000
0000
,
0001
0000
0000
0000
,
1000
0000
0000
0000
,
0001
0000
0000
0000
,
0000
1001
0000
0000
;

//---------------dance-single - RIME-BSP----------------
#NOTEDATA:;
#CHARTNAME:RIME-BSP;
#STEPSTYPE:dance-single;
#DESCRIPTION:RIME-BSP;
#DIFFICULTY:Easy;
#METER:5;
#RADARVALUES:0.261341,0.321572,0.160071,0.011434,0,160,146,14,1,0,0,0,0,0,0.261341,0.321572,0.160071,0.011434,0,160,146,14,1,0,0,0,0,0;
#CREDIT:RIME;
#NOTES:
0000
0000
0000
0000
,
0000
0000
0000
0000
,
0000
0000
0000
0000
,
0000
0000
0000
0000
,
0000
0000
0000
0000
,
0000
0000
0000
0000
,
0000
0000
0000
0000
,
0000
1000
0010
0100
,
0001
0000
0001
0000
,
1000
0000
1000
0000
,
0000
0001
0010
0001
,
1000
0010
0100
0001
,
1000
0000
1000
0001
,
0001
0010
0100
1000
,
0001
0000
0001
1000
,
0010
0100
0001
1000
,
0100
0000
0100
0000
,
0010
0100
0010
0000
,
0001
0000
0001
0000
,
1000
0001
1000
0000
,
0010
1000
0010
0000
,
0100
0001
0100
0000
,
0101
0000
1001
0000
,
1100
0000
1001
0000
,
0001
0000
0010
0000
,
0100
0010
0100
0000
,
0010
0000
0001
0000
,
1000
0001
1000
0000
,
0010
1000
0010
0000
,
0100
0010
0100
0000
,
0110
0000
1010
0000
,
1001
0000
0011
0000
,
0001
0010
0100
0000
,
1000
0100
0010
0000
,
0001
0010
0100
0000
,
1000
0010
0100
0000
,
0010
0100
0001
0000
,
0010
0100
1000
0000
,
0010
0100
0010
1000
,
0001
0010
0100
1000
,
0000
0002
1003
0000
,
0001
0010
0100
0110
,
0010
0000
0010
0001
,
1000
1000
0010
0100
,
0010
0000
0010
1000
,
0001
0000
0010
0001
,
1001
0000
0011
0000
,
0110
0000
1100
0000
,
1000
0000
0100
1000
,
0010
0000
0100
0001
,
0010
0000
0100
0100
,
0010
0100
1000
0010
,
0100
0000
0001
0100
,
0001
0000
1000
0100
,
1000
0001
0100
0001
,
0010
0100
0010
0100
,
1000
1001
0000
0000
;

//---------------dance-single - RIME-DSP----------------
#NOTEDATA:;
#CHARTNAME:RIME-DSP;
#STEPSTYPE:dance-single;
#DESCRIPTION:RIME-DSP;
#DIFFICULTY:Medium;
#METER:8;
#RADARVALUES:0.334843,0.353729,0.045735,0.148638,0,205,201,4,13,0,0,0,0,0,0.334843,0.353729,0.045735,0.148638,0,205,201,4,13,0,0,0,0,0;
#CREDIT:RIME;
#NOTES:
0000
0000
0000
0000
,
0000
0000
0000
0000
,
0000
0000
0000
0000
,
0000
0000
0000
0000
,
0000
0000
0000
0000
,
0000
0000
0000
0000
,
0000
0000
0000
0000
,
0000
1000
0001
0000
0010
0000
0100
0010
,
0001
0000
0000
0001
0000
0000
0001
0000
,
1000
0000
0000
1000
0000
0000
1000
0000
,
0010
0000
0100
0000
0010
1000
0010
0000
,
1000
0000
0001
0000
0010
0000
0100
0020
,
0000
0000
0000
0031
0000
0000
0010
0000
,
0100
0000
1000
0000
0001
0000
0100
0020
,
0000
0000
0000
1030
0000
0000
0010
0000
,
1000
0000
0010
1000
0001
0000
0010
0000
,
0000
0200
0310
0100
,
1000
0000
0001
1000
0001
0000
0100
0000
,
0000
0010
0100
0100
,
0001
0000
0010
0100
0010
0000
0001
0000
,
0000
0000
0010
0100
1000
0000
0000
1000
,
0000
0000
0010
0100
0001
0000
0000
0002
,
0000
0000
0000
1003
0000
0000
0001
0000
,
0100
0000
0000
0010
0100
0010
0000
0100
,
0010
1000
0001
0010
,
0010
0000
0001
1000
0001
0000
0100
0000
,
0000
0010
1000
0100
,
0010
0000
0100
0010
0100
0000
1000
0000
,
0000
0000
0001
0000
0100
0000
0010
1000
,
0000
0000
0010
0000
1000
0000
0001
0200
,
0000
0000
0000
0310
0000
0000
0000
0000
,
0100
0000
0001
0000
1000
0000
0100
0010
,
0100
0200
1000
0010
,
1300
2000
0010
3001
,
1000
0000
1000
0000
0100
0010
0100
0000
,
1000
0000
1000
0000
0010
0000
0100
0001
,
0100
0000
0000
0100
0000
0000
0100
0000
,
0010
0000
1000
0000
0001
0010
0000
0001
,
0100
0000
0000
0100
0000
0000
0010
1000
,
0010
0000
1000
0000
0001
0000
0010
0100
,
2000
0001
0001
0010
,
0010
0100
3100
1100
,
0100
0010
0001
1000
,
0010
0000
0100
0010
0100
0000
0001
0000
,
1001
0000
1000
0000
0100
0010
0000
0100
,
0000
0000
1000
0000
0010
0100
0000
0010
,
2000
3002
0023
0230
,
2300
0100
0001
3010
,
1010
0010
0100
0001
,
0010
0000
0100
0010
0100
0000
1000
0000
,
0000
0010
1000
1000
,
0001
0000
0100
0001
0100
0000
0010
0000
,
1000
0000
0001
0000
0010
0001
0000
0100
,
0000
0000
0010
0000
0100
0001
0000
0010
,
0000
0000
0100
0000
0010
0100
0000
1000
,
0000
0000
0010
0000
0100
0010
0000
1000
,
0000
1001
0000
0000
;

//---------------dance-single - RIME-ESP----------------
#NOTEDATA:;
#CHARTNAME:RIME-ESP;
#STEPSTYPE:dance-single;
#DESCRIPTION:RIME-ESP;
#DIFFICULTY:Hard;
#METER:12;
#RADARVALUES:0.556983,0.610987,0.137204,0.262974,0.074319,341,329,12,23,0,0,0,0,0,0.556983,0.610987,0.137204,0.262974,0.074319,341,329,12,23,0,0,0,0,0;
#CREDIT:RIME;
#NOTES:
0000
0000
0000
0000
,
0000
0000
0000
0000
,
0000
0000
0000
0000
,
0000
0000
0000
0000
,
0000
0000
0000
0000
,
0000
0000
0000
0000
,
0020
2030
3020
2030
3002
2003
3002
2003
,
3000
0001
0010
0100
1000
0001
0100
1000
,
0100
0000
0010
0100
0000
0010
0100
0001
,
0010
0000
0100
0010
0000
0001
0010
0100
,
1000
0000
0010
1000
0010
1000
0001
0000
,
0010
0010
0100
0000
0010
0001
1000
0010
,
0100
0000
0010
1000
0000
0010
1000
0001
,
0010
0010
0100
0100
1000
0001
1000
0001
,
0100
0000
0001
0100
0000
0001
0010
0100
,
0010
1000
0010
0001
1000
0000
0010
0000
,
1010
0000
0020
1000
0130
0000
0010
0100
,
0001
0010
0100
0010
0001
0000
1001
1000
,
0001
0000
1000
1000
0010
0001
0010
0100
,
0001
0001
0010
0100
1000
0000
1001
0000
,
0001
0000
0100
0001
0010
0200
0000
1300
,
0000
0000
0100
1000
0010
0200
0000
0301
,
0100
0000
0000
0100
0000
0000
0100
0000
,
0010
0000
0000
0000
1000
0000
0001
0000
0000
0010
0000
0000
0100
0000
0000
0010
0000
0000
0000
0000
0000
0100
0000
0000
,
1000
0000
0020
1000
0130
0000
0010
0001
,
0010
0100
0001
0010
0100
0000
1100
1000
,
0100
0000
0010
0010
0100
0100
1000
0001
,
0100
0100
0010
0100
0001
0000
0011
0000
,
0110
0000
0100
1000
0001
0200
1000
0301
,
0000
0000
0100
0001
1000
0200
0001
1300
,
0100
0000
0010
0100
0010
0000
0001
0000
,
1000
0010
0100
0001
1000
0000
0001
1000
,
0020
0000
0000
0000
0130
0000
0010
0000
0100
0010
0000
0000
0010
1000
0000
0000
,
1000
0001
0000
0000
0001
0010
0000
0000
0010
0100
0000
0000
0100
1000
0000
0000
,
0001
0001
0100
1000
0100
0100
0001
0010
,
0100
0100
0010
0001
0100
0000
0010
0010
,
1000
0000
0001
0010
0000
0001
0100
0001
,
1000
0000
0010
0010
1000
0001
0000
0010
,
0100
0000
0010
0001
0000
0000
1000
0010
,
0100
0000
0010
0000
0001
0000
0010
0000
1000
0000
0000
0000
0001
1000
0001
1000
,
0001
0000
2000
0010
3001
0000
1000
0100
,
0001
1000
0010
0001
1000
0000
1001
0001
,
0100
0000
0010
0110
0100
0100
0001
1000
,
0100
0100
0001
0100
1000
0000
1001
0001
,
0100
0000
0010
0010
0100
0002
0010
1003
,
0000
0000
0001
0001
1000
0200
0010
1300
,
0100
0000
0010
0000
0001
0000
0100
0000
0010
0000
1000
0000
0001
1000
0001
0000
,
0010
0000
0000
0000
0100
0000
0010
0000
0000
0001
0000
0000
1000
0000
0000
0010
0000
0000
0000
0000
0000
0100
0000
0000
,
0020
0000
0130
0010
1000
1000
0000
0000
,
0010
1000
1000
0002
0000
0000
0013
0001
,
0200
0000
0310
0100
0100
0001
0000
0000
,
0100
0000
0000
0001
0000
0000
0000
0000
0000
0001
0000
0000
2000
0000
0000
0000
3100
0000
1000
0000
0000
0010
0000
0000
,
0200
0000
0310
0100
0001
0001
0000
0000
,
0100
0000
0101
0000
0101
0001
0100
0010
,
1000
0000
0001
0000
0010
0000
0001
0000
0100
0000
0010
0000
1000
0010
1000
0000
,
0001
0010
0100
1000
0001
0100
0010
1000
,
0100
0110
0000
0000
;

//---------------dance-double - NewbStepper-EDP----------------
#NOTEDATA:;
#CHARTNAME:NewbStepper-EDP;
#STEPSTYPE:dance-double;
#DESCRIPTION:NewbStepper-EDP;
#DIFFICULTY:Hard;
#METER:11;
#RADARVALUES:0.516148,0.514515,0.274408,0.114337,0,316,292,24,10,0,0,0,0,0,0.516148,0.514515,0.274408,0.114337,0,316,292,24,10,0,0,0,0,0;
#CREDIT:NewbStepper;
#NOTES:
// measure 0
00000000
00000000
00000000
00000000
,  // measure 1
00000000
00000000
00000000
00000000
,  // measure 2
00000000
00000000
00000000
00000000
,  // measure 3
00000000
00000000
00000000
00000000
,  // measure 4
00000000
00000000
00000000
00000000
,  // measure 5
00000000
00000000
00000000
00000000
,  // measure 6
00000020
00000000
00000000
00000030
,  // measure 7
00001000
00000000
00000001
00000100
00001000
00010000
00100000
10000000
,  // measure 8
00010000
00000000
01000000
00100000
00000000
01000000
00010000
00001000
,  // measure 9
00000010
00000000
00000100
00000001
00000010
00000000
00001001
00000000
,  // measure 10
00001000
00000000
00000100
00000010
00000001
00000100
00001000
00000000
,  // measure 11
00010000
01000000
10000000
00000000
00100000
10000000
00010000
00100000
,  // measure 12
00010000
00000000
10000000
01000000
00010000
00000000
00001000
00000010
,  // measure 13
00000001
00000100
00001000
00010000
00001000
00000010
00000001
00000100
,  // measure 14
00000010
00000000
00001000
00000001
00000000
00000100
00001000
00010000
,  // measure 15
01000000
10000000
00010000
00000000
10010000
00000000
01100000
00000000
,  // measure 16
20000000
00000000
30020000
00000000
00032000
00000000
00003001
00000010
,  // measure 17
00001000
00000010
00000001
00000100
00001000
00000000
00010000
01000000
,  // measure 18
10000000
00000000
01000000
00100000
10000000
00100000
00010000
01000000
,  // measure 19
00010000
00001000
00000010
00001000
00000001
00000000
00001001
00000000
,  // measure 20
00000110
00000000
00000001
00000100
00001000
00010000
00100000
10000000
,  // measure 21
00000000
00000000
00010000
01000000
00100000
00010000
00000000
00001000
,  // measure 22
00011000
00000000
00000000
00001010
00000000
00000000
00000001
00000000
,  // measure 23
00000011
00000000
00000010
00000001
00000100
00000010
00000000
00000100
,  // measure 24
00000002
00000000
00002003
00000000
00023000
00000000
10030000
00100000
,  // measure 25
00010000
00100000
10000000
01000000
00010000
00000000
00001000
00000100
,  // measure 26
00000001
00000000
00000100
00000010
00000001
00000010
00001000
00000100
,  // measure 27
00001000
00010000
00100000
00010000
10000000
00000000
10010000
00000000
,  // measure 28
01100000
00000000
10000000
01000000
00010000
00001000
00000010
00000001
,  // measure 29
00000000
00000000
00001000
00000100
00000010
00001000
00000000
00010000
,  // measure 30
00011000
00000000
00001000
00010000
01000000
00010000
00001000
00000000
,  // measure 31
00000100
00000000
00000010
00000100
00000000
00000000
00000001
00000010
,  // measure 32
00001000
00000000
00010000
01000000
10000000
00000000
01100000
00000000
,  // measure 33
10010000
00000000
10000000
00100000
00010000
00000000
00001000
00000000
,  // measure 34
00010000
00100000
00010000
00001000
00100000
00001000
00010000
00000000
,  // measure 35
00001000
00000100
00001000
00010000
00000100
00001000
00000010
00000100
,  // measure 36
00000001
00000000
00000100
00001000
00010000
00000000
00011000
00000000
,  // measure 37
00001000
00000010
00001000
00010000
00000010
00010000
00001000
01000000
,  // measure 38
00100000
00000000
10000000
01000000
00010000
00000000
00001000
00000010
,  // measure 39
00000001
00000100
00001000
00000100
00000001
00000000
00001000
00000000
,  // measure 40
00001001
00000000
00000000
00000000
,  // measure 41
00000000
00000000
00000000
00000110
,  // measure 42
00000001
00000000
00000100
00000010
00000001
00000010
00001000
00000100
,  // measure 43
00001000
00010000
00100000
00010000
10000000
00000000
10010000
00000000
,  // measure 44
01100000
00000000
10000000
01000000
00010000
00001000
00000010
00000001
,  // measure 45
00000000
00000000
00001000
00000100
00000010
00001000
00000000
00010000
,  // measure 46
00011000
00000000
00000000
00110000
00000000
00000000
10000000
00000000
,  // measure 47
10100000
00000000
00100000
10000000
01000000
00100000
00000000
01000000
,  // measure 48
20000000
00000000
30020000
00000000
00032000
00000000
00003001
00000010
,  // measure 49
00001000
00000010
00000001
00000100
00001000
00000000
00010000
00100000
,  // measure 50
10000000
00000000
01000000
00100000
10000000
00100000
00010000
01000000
,  // measure 51
00010000
00001000
00000010
00001000
00000001
00000000
00001001
00000000
,  // measure 52
00000110
00000000
00000001
00000100
00001000
00010000
00100000
10000000
,  // measure 53
00010000
00000000
10000000
01000000
00010000
00001000
00000010
00000001
,  // measure 54
00001000
00000000
00000001
00000100
00001000
00010000
01000000
10000000
,  // measure 55
00100000
00000000
10000000
01000000
00010000
00001000
00000100
00000001
,  // measure 56
00000010
00000110
00000000
00000000
;

//---------------dance-double - NewbStepper-DDP----------------
#NOTEDATA:;
#CHARTNAME:NewbStepper-DDP;
#STEPSTYPE:dance-double;
#DESCRIPTION:NewbStepper-DDP;
#DIFFICULTY:Medium;
#METER:9;
#RADARVALUES:0.413245,0.450201,0.194372,0.068602,0,253,236,17,6,0,0,0,0,0,0.413245,0.450201,0.194372,0.068602,0,253,236,17,6,0,0,0,0,0;
#CREDIT:NewbStepper;
#NOTES:
// measure 0
00000000
00000000
00000000
00000000
,  // measure 1
00000000
00000000
00000000
00000000
,  // measure 2
00000000
00000000
00000000
00000000
,  // measure 3
00000000
00000000
00000000
00000000
,  // measure 4
00000000
00000000
00000000
00000000
,  // measure 5
00000000
00000000
00000000
00000000
,  // measure 6
10000000
00010000
10000000
00000000
,  // measure 7
01000000
00010000
01000000
00000000
00010000
00000000
00001000
00000000
,  // measure 8
00000010
00000000
00000000
00000000
00000001
00000100
00000001
00000000
,  // measure 9
00001000
00000000
00000010
00000000
00000100
00001000
00010000
00000000
,  // measure 10
00100000
00000000
10000000
00010000
10000000
01000000
10000000
00000000
,  // measure 11
01000000
00010000
00001000
00000000
00000010
00000000
00000100
00000000
,  // measure 12
00001001
00000000
00000000
00000010
00000000
00000000
00000001
00000100
,  // measure 13
00000001
00000100
00000010
00000000
00001000
00000000
00010000
00000000
,  // measure 14
01000000
00000000
00010000
00000000
00000000
10000000
01000000
10000000
,  // measure 15
00010000
00100000
10000000
01000000
,  // measure 16
00010000
00000000
20000000
00000000
32000000
00000000
03100000
00001000
,  // measure 17
00010000
00000100
00000010
00000000
00000001
00000000
00000101
00000000
,  // measure 18
00000000
00000000
00001000
00000100
00000010
00000001
00000000
00001000
,  // measure 19
00000100
00001000
00000100
00010000
00001000
00000000
00011000
00000000
,  // measure 20
00000000
00000000
00100000
10000000
00100000
10000000
00000000
01000000
,  // measure 21
00000000
00000000
00010000
00001000
00010000
00001000
00000000
00000010
,  // measure 22
00000001
00000000
00000000
00001001
00000000
00000000
00000000
00000000
,  // measure 23
00001100
00000000
00000100
00010000
00000100
00001000
00000000
00000100
,  // measure 24
00001000
00000000
00000002
00000000
00000203
00000000
00000310
00010000
,  // measure 25
00001000
01000000
00100000
00000000
10000000
00000000
11000000
00000000
,  // measure 26
00000000
00000000
00010000
01000000
00100000
10000000
00000000
00010000
,  // measure 27
01000000
00010000
01000000
00001000
00010000
00000000
00011000
00000000
,  // measure 28
00000000
00000000
00000010
00000001
00000010
00000001
00000000
00000100
,  // measure 29
00000000
00000000
00001000
00010000
00001000
00010000
00000000
00100000
,  // measure 30
10000000
00000000
00010000
00000000
,  // measure 31
10000000
01000000
00010000
00001000
,  // measure 32
00000100
00000000
00000001
00000010
00000000
00000000
00000011
00000000
,  // measure 33
00001000
00000000
00000010
00001000
00000000
00000000
00001010
00000000
,  // measure 34
00010000
00001000
00010000
00001000
00100000
00000000
00010000
00000000
,  // measure 35
10000000
01000000
10000000
01000000
00010000
00000000
00001000
00010000
,  // measure 36
00001000
00000010
00000001
00000100
,  // measure 37
00000001
00000000
00000010
00001000
00010000
00001000
00000000
00000000
,  // measure 38
00010000
00000000
00001000
00000000
00000100
00000000
00000001
00001000
,  // measure 39
00000100
00001000
00000001
00000000
00000010
00000000
00001000
00000000
,  // measure 40
00011000
00000000
00000000
00000000
,  // measure 41
00000000
00000000
00000000
00110000
,  // measure 42
00000000
00000000
00010000
01000000
00100000
10000000
00000000
00010000
,  // measure 43
01000000
00010000
01000000
00001000
00010000
00000000
00011000
00000000
,  // measure 44
00000000
00000000
00000010
00000001
00000010
00000001
00000000
00000100
,  // measure 45
00000000
00000000
00001000
00010000
00001000
00010000
00000000
00100000
,  // measure 46
10000000
00000000
00000000
10010000
00000000
00000000
00000000
00000000
,  // measure 47
01010000
00000000
01000000
00001000
01000000
00010000
00000000
01000000
,  // measure 48
00010000
00000000
20000000
00000000
32000000
00000000
03100000
00001000
,  // measure 49
00010000
00000100
00000010
00000000
00000001
00000000
00000101
00000000
,  // measure 50
00000000
00000000
00001000
00000100
00000010
00000001
00000000
00001000
,  // measure 51
00000100
00001000
00000100
00010000
00001000
00000000
00011000
00000000
,  // measure 52
00000000
00000000
00100000
10000000
00100000
10000000
00000000
01000000
,  // measure 53
00000000
00000000
00010000
00001000
00010000
00001000
00000000
00000010
,  // measure 54
00000000
00000000
00000001
00000100
00000001
00000100
00000000
00001000
,  // measure 55
00000000
00000000
00010000
00100000
00010000
00100000
00000000
10000000
,  // measure 56
00010000
10010000
00000000
00000000
;

//---------------dance-double - NewbStepper-BDP----------------
#NOTEDATA:;
#CHARTNAME:NewbStepper-BDP;
#STEPSTYPE:dance-double;
#DESCRIPTION:NewbStepper-BDP;
#DIFFICULTY:Easy;
#METER:5;
#RADARVALUES:0.254807,0.321572,0.320143,0,0,156,128,28,0,0,0,0,0,0,0.254807,0.321572,0.320143,0,0,156,128,28,0,0,0,0,0,0;
#CREDIT:NewbStepper;
#NOTES:
// measure 0
00000000
00000000
00000000
00000000
,  // measure 1
00000000
00000000
00000000
00000000
,  // measure 2
00000000
00000000
00000000
00000000
,  // measure 3
00000000
00000000
00000000
00000000
,  // measure 4
00000000
00000000
00000000
00000000
,  // measure 5
00000000
00000000
00000000
00000000
,  // measure 6
00000000
00000000
00000000
00000000
,  // measure 7
00000000
10000000
01000000
00100000
,  // measure 8
00010000
00000000
10000000
00000000
,  // measure 9
01000000
00010000
00001000
00000000
,  // measure 10
00000000
00000010
00000001
00000010
,  // measure 11
00000001
00001000
00000010
00000100
,  // measure 12
00000000
00000110
00000000
00001001
,  // measure 13
00000000
00000001
00000100
00001000
,  // measure 14
00010000
00000000
01000000
00000000
,  // measure 15
10000000
01000000
00100000
00010000
,  // measure 16
00001000
00000000
00000001
00000000
,  // measure 17
00000100
00000010
00000100
00001000
,  // measure 18
00000000
00010000
00100000
00000000
,  // measure 19
10000000
00010000
10000000
00000000
,  // measure 20
11000000
00000000
01010000
00000000
,  // measure 21
00011000
00000000
00001010
00000000
,  // measure 22
00000011
00000000
00001001
00000000
,  // measure 23
00000001
00000100
00000010
00001000
,  // measure 24
00010000
00000000
10000000
00000000
,  // measure 25
01000000
00100000
01000000
00010000
,  // measure 26
00000000
00001000
00000010
00000000
,  // measure 27
00000001
00001000
00000001
00000000
,  // measure 28
00000101
00000000
00001100
00000000
,  // measure 29
00011000
00000000
00110000
00000000
,  // measure 30
10100000
00000000
00000000
00000000
,  // measure 31
00010000
00100000
01000000
00010000
,  // measure 32
00001000
00000000
00000100
00000000
,  // measure 33
00000001
00000000
00001000
00000000
,  // measure 34
00000010
00000100
00001000
00010000
,  // measure 35
00100000
10000000
00010000
10000000
,  // measure 36
01000000
00000000
00010000
00000000
,  // measure 37
10000000
01000000
00010000
00001000
,  // measure 38
00000000
00000100
00000000
00000001
,  // measure 39
00000100
00000010
00001000
00010000
,  // measure 40
00000000
00000000
00000000
00000000
,  // measure 41
00000000
00000000
00000000
10010000
,  // measure 42
00000000
00001000
00000010
00000000
,  // measure 43
00000001
00001000
00000001
00000000
,  // measure 44
00000101
00000000
00001100
00000000
,  // measure 45
00011000
00000000
00110000
00000000
,  // measure 46
10100000
00000000
10010000
00000000
,  // measure 47
10000000
01000000
00100000
00010000
,  // measure 48
00001000
00000000
00000001
00000000
,  // measure 49
00000100
00000010
00000100
00001000
,  // measure 50
00000000
00010000
00100000
00000000
,  // measure 51
10000000
00010000
10000000
00000000
,  // measure 52
11000000
00000000
01010000
00000000
,  // measure 53
00011000
00000000
00001010
00000000
,  // measure 54
00000011
00000000
00000101
00000000
,  // measure 55
00001100
00000000
00011000
00000000
,  // measure 56
00100000
10000000
00000000
00000000
;
