#TITLE:FREEDOM DIVE↓ (tpz Overcute Remix);
#ARTIST:xi remixed by t+pazolite;
#TITLETRANSLIT:FREEDOM DIVE (tpz Overcute Remix);
#CREDIT:C.H.S;
#BANNER:FREEDOM DIVE (tpz Overcute Remix).png;
#BACKGROUND:FREEDOM DIVE (tpz Overcute Remix)-bg.png;
#MUSIC:FREEDOM DIVE (tpz Overcute Remix).ogg;
#SAMPLESTART:59.341;
#SAMPLELENGTH:15;
#DISPLAYBPM:59:235;
#BPMS:0=234.56,60=938.24,65=469.12,66=234.56,67.5=156.373,68=234.56,100=58.64,116=117.28,120=234.56,279=117.28,317=469.12,323=234.56;
#STOPS:127=0.128,142.5=0.128,317=0.256;

//---------------dance-single - Kekkle-bSP----------------
#NOTES:
     dance-single:
     Kekkle:
     Beginner:
     6:
     :
0000
0000
0000
0000
,
0000
0000
0000
0000
,
0000
0000
0000
0000
,
0000
0000
0000
0000
,
0001
0000
0000
0000
,
1000
0000
0000
0000
,
0010
0000
0000
0000
,
0100
0000
0001
0000
,
0100
0000
0010
0000
,
0100
0000
0001
0000
,
0010
0000
0100
0000
,
1000
0000
0100
0000
,
0010
0000
0001
0000
,
0100
0000
0010
0000
,
1000
0000
0001
0000
,
1000
0000
0000
0000
,
0000
0000
0000
0000
,
0010
0000
0100
0000
,
0010
0000
0100
0000
,
0001
0000
1000
0000
,
0001
0000
1000
0000
,
0001
0000
0010
0000
,
0100
0000
1000
0000
,
0010
0000
0100
0000
,
0010
0000
0100
0000
,
0010
1000
0010
0100
,
0001
0010
0100
1000
,
0010
0100
0001
0010
,
0100
0010
0001
1000
,
0002
0003
2000
3000
,
0010
0000
0100
0000
,
0010
0000
0000
0000
0100
0000
0000
0001
,
0000
0000
0000
0010
0000
0000
0000
0001
,
0000
0000
0000
0100
0000
0000
0000
0010
,
0000
0000
0000
1000
0000
0000
0000
0100
,
0000
0000
0000
0010
0000
0000
0001
0000
,
0000
1000
0000
0001
,
0000
1000
0000
0010
,
0000
0100
0000
0001
,
0000
1000
0000
0100
,
0000
0010
0000
0001
,
0000
1000
0000
0010
,
0000
1000
0000
0001
,
0000
0100
0000
0001
,
0000
0100
0000
0010
,
0000
1000
0000
0001
,
0000
1000
0000
0001
,
0000
1000
0000
0010
,
0000
0100
0000
0010
,
0000
0100
0000
0001
,
0000
0100
0000
0001
,
0000
0100
0000
0010
,
0000
1000
0000
0200
,
0000
0300
0000
0010
,
0000
0001
0000
0010
,
0000
0100
0000
1000
,
0000
0001
0000
1000
,
0000
0001
0000
0200
,
0000
0300
0000
0020
,
0000
0030
0000
0200
,
0000
0300
0000
0001
,
0000
0010
0000
0100
,
0000
0100
0000
0100
,
0000
0100
0000
0010
,
0000
0010
0000
0010
,
0000
0010
0000
0001
,
0000
0001
0000
0001
,
0000
0001
0000
1000
,
0000
1000
0000
1000
,
0000
1000
0000
0010
,
0000
0100
0000
0001
,
0000
0010
0000
0100
,
0000
1000
0000
0010
,
0000
0100
0000
0001
,
0000
0011
0000
0010
,
0000
0110
0000
0100
,
0000
1100
0000
1000
,
0000
0001
0000
1000
,
0000
0010
0000
0100
,
0000
0001
0000
0000
,
0000
0000
0000
1000
,
0000
0001
0000
1000
,
0000
0001
0000
0100
,
0000
0010
0000
0100
,
0000
0010
0000
1000
,
0000
0100
0000
0010
,
0000
0100
0000
2000
,
0000
3000
0000
0002
,
0000
0003
0000
0100
,
0000
0010
0000
0100
,
0000
0001
0000
1000
,
0000
0001
0000
0100
,
0000
0001
0000
2000
,
0000
3000
0000
0020
,
0000
0030
0000
0200
,
0000
0300
0000
0002
,
0000
0003
0000
1000
,
0000
1000
0000
0001
,
0000
0001
0000
0100
,
0000
0100
0000
0010
,
0000
0010
0000
0100
;

//---------------dance-single - Kekkle-BSP----------------
#NOTES:
     dance-single:
     Kekkle:
     Easy:
     10:
     :
0000
0000
0000
0000
,
0000
0000
0000
0000
,
0000
0000
0000
0000
,
0000
0000
0000
0000
,
0001
0100
0001
0000
,
1000
0100
1000
0000
,
0010
0100
0010
0100
,
0001
1000
0001
1000
,
0010
0010
0100
0100
,
0001
0010
0100
1000
,
0001
0001
0100
0100
,
0010
1000
0020
0030
,
0100
0100
0010
0010
,
1000
0100
0010
0001
,
1000
1000
0001
0001
,
2000
0000
0000
0000
,
0000
0000
0000
0000
,
3010
0010
0100
0100
,
0001
0001
1000
1000
,
0100
0100
0010
0010
,
0001
0001
1000
1000
,
0010
0100
0010
0100
,
0001
1000
0001
1000
,
0001
0001
1000
1000
,
0010
0100
0010
0110
,
0100
0100
0100
0000
0001
0001
0001
0010
,
0100
0100
0100
0000
1000
1000
2000
3000
,
0010
0010
0100
0100
0001
0001
0010
0010
,
0200
0300
2000
3000
0020
0030
0100
0100
,
0101
0101
0110
0110
,
0100
0001
0100
0001
,
0100
0000
0001
0000
0100
0000
0001
1000
,
0000
0010
0000
1000
0000
0010
0000
1000
,
0000
0010
0000
1000
0000
0010
0000
0100
,
0000
0010
0000
0100
0000
0010
0000
1000
,
0000
0100
0000
1000
0000
0100
0010
0000
,
0010
0001
0001
1000
,
1000
0100
0100
0010
,
0001
0010
0010
0100
,
0010
0100
0100
1000
,
0010
1000
1000
0001
,
0010
0001
0001
1000
,
0100
1000
0100
0010
,
0001
0010
0001
0100
,
0010
0100
0010
0100
,
0010
0110
0000
2000
,
3000
0020
0030
0200
,
0300
0002
0003
0020
,
0030
0200
0300
2000
,
3000
0010
0100
0020
,
0030
0100
0001
0010
,
0100
1000
0100
0010
,
0001
0100
0010
0100
,
0000
0110
0000
0010
,
1000
0010
0100
0001
,
0010
0001
1000
0100
,
0010
0100
0010
0001
,
1000
0001
1000
0002
,
0000
0003
0000
2000
,
0000
3000
0000
0020
,
0000
0030
0000
0100
,
0001
1000
0010
0100
,
0001
0100
0001
1000
,
0010
1000
0010
1000
,
0001
1000
0001
0010
,
0100
0010
0110
0100
,
0010
0001
0010
0100
,
1000
0100
0010
0001
,
0100
1000
0100
0001
,
1000
1001
0000
0002
,
0003
2000
3000
0002
,
0003
0020
0030
0002
,
0003
0020
0030
2000
,
3000
0020
0030
0001
,
0001
0001
0001
1000
,
1000
1000
1000
0010
,
0010
0010
0010
0100
,
0100
0101
0000
0101
,
0000
1010
0000
1000
,
0001
0200
0000
0000
,
0000
0300
0000
0020
,
0030
2000
3000
0200
,
0300
0020
0030
0002
,
0003
0200
0300
2000
,
3000
0100
0001
0020
,
0030
0100
1000
0100
,
0010
0000
0001
0000
0100
0010
0200
0000
,
0300
0000
0002
0000
0003
0000
0010
0100
,
0010
0100
0010
0000
0110
0000
0100
0000
,
1000
0010
0100
0001
,
0010
0100
1000
0001
,
0100
0001
0100
0010
,
1000
0010
0100
0002
,
0000
0003
0000
2000
,
0000
0000
3000
0000
0000
0001
0200
0000
,
0300
0020
0030
1000
,
0100
0010
0001
1000
,
1000
0010
0010
0100
,
0100
0001
0001
0010
,
0010
0010
0010
0100
,
0100
0100
0100
0020
,
0000
0000
0000
0000
,
0000
0000
0000
0030
;

//---------------dance-single - Kekkle-DSP----------------
#NOTES:
     dance-single:
     Kekkle:
     Medium:
     15:
     :
0000
0000
0000
0000
,
0000
0000
0000
0000
,
0000
0000
0000
0000
,
0000
0000
0000
0000
,
0001
0000
0100
0000
0001
0010
0001
0000
,
1000
0000
0010
0000
1000
0100
1000
0000
,
0001
0100
0001
0100
0010
1000
0010
1000
,
0100
0010
0100
0010
0002
0000
2003
0000
,
3001
0100
0001
0100
0001
0100
0001
0100
,
0010
1000
0010
1000
0010
1000
0010
1000
,
0001
0010
0001
0010
0001
0010
0001
0010
,
0100
1000
0100
0010
0001
0000
1001
0000
,
1000
0010
1000
0010
1000
0010
1000
0010
,
0100
0001
0100
0001
0100
0001
0100
0001
,
1000
0100
0010
0001
0010
0100
1000
0001
,
2000
0000
0000
0000
,
0000
0000
0000
0000
,
3001
0000
1001
0000
1000
0010
0100
0000
,
0101
0000
0001
0010
0100
0010
0001
0000
,
1000
0000
1010
0000
0010
0100
0001
0000
,
1000
0100
0001
0100
1000
0000
1001
0000
,
0001
0010
0001
0010
0100
1000
0100
1000
,
0010
0100
0010
0100
0001
1000
0001
1000
,
0001
1000
0010
0100
,
0110
0101
0110
1010
,
0110
0000
0000
0000
0010
0000
0000
0000
1000
0000
0000
0000
0100
0000
0000
0000
0010
0000
0000
0000
0001
0000
0000
0000
0010
0000
0000
0000
0100
1000
0100
1000
,
0100
0000
0010
0001
0100
0001
0010
0001
1000
0001
0010
0100
2000
0000
3000
0000
,
0010
0000
0000
0100
0000
0000
0010
0000
0000
1000
0000
0000
0100
0010
0100
0010
0000
0000
0001
0000
0000
0100
0000
0000
0010
0000
0000
1000
0000
0000
0010
0000
0000
1000
0000
0000
0001
0000
0000
0100
0000
0000
0001
0000
0000
0100
0000
0000
,
0002
0000
0000
0000
0000
0000
0000
0000
0003
0000
0000
0000
0000
0000
1000
0000
0200
0000
0000
0000
0000
0000
0000
0000
0310
0000
0000
0001
0000
0000
0010
0000
0002
0000
0000
0000
0000
0000
0000
0000
2003
0000
0000
0000
0001
0000
0100
0000
3001
0000
0000
0000
0010
0000
0000
0000
0100
0000
0000
0000
1000
0000
0000
0000
,
0001
0001
1000
1000
0010
0010
0100
0100
,
0101
0011
0101
0011
,
1001
0000
1010
0000
1001
0000
1100
1100
,
0000
1010
0000
1100
0000
1010
0000
0110
,
0000
0101
0000
0110
0000
0101
0000
0011
,
0000
1001
0000
0101
0000
0011
0000
1100
,
0000
1001
0000
1010
0000
1100
1100
0000
,
1001
0101
0011
0101
,
1001
0000
1010
0000
1100
0000
1000
0001
,
0100
0000
0001
1000
0100
0000
1000
0010
,
0100
0000
0001
0010
0100
0000
1000
0100
,
1000
0000
0001
0100
0001
0000
1000
0010
,
1000
0000
0001
0010
0001
0000
1000
0100
,
1000
0100
1000
0100
0010
0001
0100
0010
,
0100
0000
0010
0000
0001
0000
0010
0000
0100
0000
0001
0000
1000
0000
0010
1000
,
0010
0000
0000
0000
0100
0000
0001
0100
0001
0000
0000
0000
0010
0000
0100
0000
,
0010
0000
0100
0000
1000
0001
1000
0001
1000
0000
0000
0000
0002
0000
0000
0000
,
0100
0203
0010
0320
,
1000
2030
0100
3200
,
0001
0302
0100
0203
,
1000
0000
1300
0010
0100
0001
0020
0000
,
0100
0130
0100
0110
,
0010
0001
0100
0101
,
0110
0000
0000
0000
1010
0000
0000
0000
0110
0000
0000
0000
0100
0010
0100
0010
,
0100
0110
1001
2000
,
3200
0000
0000
0320
0000
0000
0032
0000
0000
1003
0010
0100
,
0020
0230
0302
1003
,
0010
0100
0001
0101
,
1010
0110
0101
2010
,
0000
0000
0000
0000
0000
0001
3002
0000
,
0000
0000
0000
0000
0100
0000
0000
0100
0000
0000
0100
0000
0203
0000
0000
0000
,
0000
0010
0310
0000
1000
0100
0110
0000
,
1100
0000
1010
0000
0110
0000
0001
0100
,
0001
0100
0001
0100
0001
0100
0010
0100
,
0010
0100
0010
0100
0010
0100
0001
0010
,
0001
0010
0001
0010
0001
0010
0001
0010
,
0100
1000
1100
0000
1001
0000
1000
0010
,
0100
0001
0100
0010
1000
0100
0010
0001
,
1000
0000
0100
0000
0001
0000
0100
0000
1000
0000
0001
0000
0100
0000
0010
1000
,
0010
0000
0000
0000
0100
0000
0001
0010
0001
0000
0000
0000
1000
0000
0100
0000
,
0010
0000
0001
0000
0100
0010
0100
0010
0100
0000
0000
0000
0002
0000
0000
0000
,
0000
2003
3200
0320
,
0000
0032
0203
0320
,
0000
2030
3002
0203
,
0000
0000
2300
0000
3200
0000
0301
1000
,
0001
0010
0100
1000
1100
0000
0100
0010
,
0001
0010
1000
0010
0011
0000
0001
0100
,
0010
1000
0010
0100
0101
0000
0001
1000
,
0100
0010
0011
0000
1100
0000
0011
0000
,
1100
0000
1000
0010
0100
0001
0010
0100
,
1000
0000
0001
0000
1000
0000
0001
1000
0002
0000
0000
0000
0000
0000
0000
0000
0000
0000
0000
0000
0000
0000
0000
0000
0000
0000
0000
0000
0000
0000
0000
0000
,
0000
1003
0000
2000
,
0010
3020
0100
0230
,
0001
0302
0010
0023
,
1000
2030
0010
3020
,
0001
0000
0031
0100
1000
0100
0020
0000
,
1000
1030
0001
0110
,
0100
0000
0000
0000
1000
0000
0010
0000
0100
0000
0001
0010
0002
0000
0000
0000
,
0000
0000
0000
0000
2003
0000
0000
0000
0000
0000
0000
0000
3010
0100
0010
0100
,
0010
0110
0101
0200
,
0302
0000
0000
0023
0000
0000
0230
0000
0000
1300
0001
0100
,
0020
0230
0302
1003
,
0100
0010
0001
0011
,
1100
1010
0101
0012
,
0000
0000
0000
0000
0000
1000
2003
0000
,
0000
0000
0000
0000
0010
0000
0000
0010
0000
0000
0010
0000
3020
0000
0000
0000
,
0000
0100
0130
0000
0001
0100
0101
0000
,
1010
1100
1010
0010
,
0010
0100
0100
0001
,
0001
0000
1000
0000
1000
0000
0100
0001
,
0100
1000
0010
0001
0010
1000
0001
0100
,
0010
0000
1000
0000
0100
0000
0010
0000
0001
1000
0001
1000
0002
0000
0000
0000
,
0000
0000
0000
0000
,
0000
0000
0000
0003
;

//---------------dance-single - Kekkle-ESP----------------
#NOTES:
     dance-single:
     Kekkle:
     Hard:
     18:
     :
0000
0000
0000
0000
,
0000
0000
0000
0000
,
0000
0000
0000
0000
,
0000
0000
0000
0000
,
0001
0000
0010
0000
0001
0000
0100
0001
0100
0000
0001
0000
0010
0000
0000
0000
,
0100
0000
1000
0000
0100
0000
1000
0010
1000
0000
0100
0000
1000
0000
0000
0000
,
0001
0000
1000
0010
1000
0000
0001
0000
1000
0000
0001
0100
0001
0000
1000
0000
,
0010
0100
0010
0100
0010
0000
0110
0000
,
0100
0010
1000
0100
0001
0100
0010
0001
,
0100
0000
0010
0000
1000
0000
0100
0010
0100
0000
1000
0000
0001
0000
0100
0000
,
0010
0000
1000
0000
0010
0000
0001
0000
0010
0000
0100
0000
0010
0000
1000
0100
,
1000
0001
0100
0010
0110
0000
1010
0000
,
1000
0010
0100
0001
0010
1000
0010
0001
,
0100
0000
0010
0000
1000
0000
0001
0100
0001
0000
0010
0000
0100
0000
1000
0000
,
0010
0000
0100
0000
0001
0000
1000
0100
1000
0000
0010
0000
0100
0000
0001
0000
,
2000
0000
0000
0000
,
0000
0000
0000
0000
,
3010
0000
0100
0000
0001
0000
0010
0100
0010
0000
0100
0000
1000
0000
0010
0000
,
0001
0000
0010
0000
1000
0000
0100
1000
0100
0000
0010
0000
0001
0000
0100
0000
,
1000
0000
0100
0000
0010
0000
1000
0001
1000
0000
0100
0000
0010
0000
0100
0000
,
1000
0000
0001
0000
0100
0000
0001
1000
0001
0000
0010
0000
0100
0000
1000
0000
,
0010
0000
0100
0001
0100
0000
0010
0000
1000
0000
0010
1000
0010
0000
0100
0000
,
0001
0000
0010
0100
0010
0000
0001
0000
1000
0000
0100
0010
0100
0000
1000
0000
,
1100
1010
0101
0011
,
0101
1010
1100
0110
,
1001
0000
0000
0000
0010
0000
0000
0000
0100
0000
0000
0000
0001
0000
0000
0000
0010
0000
0000
0000
1000
0000
0000
0000
0010
0000
0000
0000
0001
0100
0010
1000
,
0001
0000
0010
0010
0110
0100
0100
0100
1100
1000
1000
1000
2020
0000
3030
0000
,
0100
0000
0000
0001
0000
0000
0010
0000
0000
0100
0000
0000
1000
0010
0100
0001
0000
0000
0010
0000
0000
0100
0000
0000
1100
0000
0000
1000
0000
0000
0010
0000
0000
0100
0000
0000
0101
0000
0000
0001
0000
0000
0010
0000
0000
0100
0000
0000
,
2000
0000
0000
0000
0000
0000
0000
0000
0000
0000
0000
0000
3000
0000
0001
0000
0200
0000
0000
0000
0000
0000
0000
0000
0310
0000
0000
1000
0000
0000
0001
0000
0200
0000
0000
0000
0000
0000
0010
0000
0310
0000
0000
0000
1000
0000
0001
0000
1001
0000
0000
0000
0101
0000
0000
0000
1001
0000
0000
0000
1010
0000
0000
0000
,
1100
1010
1001
0101
0011
0101
1010
1100
,
2000
3010
0200
0301
0020
0130
2000
3010
,
0002
1003
0200
0301
2000
3010
0200
0302
,
0013
0200
0310
0002
1003
0020
0031
0020
,
1030
0200
0310
2000
3010
0200
0310
0002
,
0103
2000
3100
0002
0103
2000
3100
0002
,
0013
2000
3010
0002
0013
2000
3020
0031
,
0200
0310
2000
3100
0020
0031
0011
0000
,
0110
0000
1100
0000
1001
0000
2000
3010
,
0002
0013
2000
3100
0002
0103
2000
3001
,
0200
0310
2000
3100
0020
0031
0200
0310
,
2000
3001
0200
1300
0002
0013
2000
3100
,
0002
0000
1003
0000
0020
0000
0031
0000
2000
0000
3100
0000
0001
0000
0100
1000
,
0100
0000
0010
0000
0001
0000
0100
0010
0100
0000
1000
0000
0100
0000
0001
0100
,
0001
0000
1000
0000
0100
0000
1000
0010
1000
0000
0001
0000
1000
0100
0010
0000
,
0001
0010
0100
0000
1000
0010
0100
0000
0001
0100
0010
0000
1000
0100
1000
0100
,
1000
0100
1000
0100
1000
0001
1000
0001
1000
0001
1000
0001
2000
0000
0010
0000
,
0010
0000
3002
0010
0010
0000
2003
0010
,
0010
0000
3002
0010
0010
0000
2003
0100
,
0100
0000
3002
0100
0100
0000
2003
0100
,
0100
0000
3020
0230
0302
0023
0230
1000
,
1000
0000
0000
0000
1300
0000
0001
0010
0001
0000
0100
0000
0010
0000
1000
0100
,
1000
0000
0010
0000
1000
0000
0001
0100
0001
0000
0010
0000
0011
0000
0000
0000
,
0101
0000
0000
0000
1010
0000
0000
0000
1100
0000
0000
0000
1000
0001
0100
0001
,
1000
0000
1010
0000
0101
0000
0002
1000
,
2003
0000
0000
0010
0000
0000
3020
0000
0000
0100
0000
0000
0230
0000
0000
0001
0000
0000
0301
0000
1000
0000
0010
0000
,
0001
1000
0100
0001
0100
0010
2000
0010
,
3020
0100
0230
0001
0302
0013
0110
0000
,
1100
1010
0110
0102
,
0000
0000
1000
0000
0000
0010
0023
0000
,
0000
0000
0000
0000
0001
0000
0000
0100
0000
0000
1000
0000
0230
0000
0000
0000
,
0000
1000
1000
0000
0010
0010
0320
0000
,
0032
0000
0203
0000
0320
0000
1030
0100
,
1000
0100
1000
0010
1000
0010
0100
0010
,
0100
0010
0100
0001
0100
0001
0010
0001
,
0010
0001
1000
0100
1000
0100
1000
0001
,
1000
0000
0001
0000
0100
0000
0010
0000
0100
0000
0010
0000
1000
0100
1000
0000
,
0001
0000
0100
0000
0010
1000
0010
0000
0100
0000
0001
0000
0010
0100
0010
0000
,
0001
0000
1000
0000
0010
0100
0010
0000
1000
0000
0100
0000
0010
0001
0010
0000
,
0100
0010
0100
0000
1000
0100
1000
0000
0010
1000
0010
0000
0100
0001
0100
0001
,
0100
0001
0100
0001
1000
0001
1000
0001
1000
0001
1000
0001
2000
0000
0000
0000
,
0000
3002
0023
0230
,
0000
2300
3020
0230
,
0000
0302
2003
3200
,
0000
0000
0320
0000
0032
0000
1003
0010
,
0200
0300
0001
0010
0000
0100
0010
0000
0002
0003
1000
0000
0010
0000
0100
0000
,
2000
3000
0100
0010
0000
1000
0100
0000
0020
0030
0001
0000
0100
0000
0010
0000
,
2000
3000
0100
0010
0000
0001
0010
0000
0200
0300
1000
0000
0010
0100
0010
0100
,
0001
1000
0001
1000
1001
0000
0000
0000
1100
0000
0000
0000
1010
0000
0000
0000
,
0101
0000
0000
0000
0011
0000
0011
0000
1010
0000
1010
0000
1000
0010
0100
0001
,
1000
0100
1000
0100
0010
0001
0010
0001
0020
0000
0030
0000
0000
0000
0000
0000
0000
0000
0000
0000
0000
0000
0000
0000
0001
0000
0000
0000
1000
0000
0000
0000
,
0001
1000
0001
0000
0000
0000
2000
0010
,
0010
0000
3002
0100
0100
0000
2003
0010
,
0010
0000
3002
0100
0100
0000
2003
0100
,
0100
0000
3002
0010
0010
0000
2003
0100
,
0100
0000
3001
0100
1000
0100
0002
0010
,
0010
0000
0000
0000
0103
0000
0010
1000
0010
0000
0100
0000
0001
0000
0010
0100
,
0010
0000
0100
0000
1000
0000
0001
0000
0100
0010
1000
0010
0200
0000
0000
0000
,
0000
0000
0000
0000
0302
0000
0000
0000
0000
0000
0000
0000
1003
0100
0010
0100
,
1000
0000
1010
0000
0101
0000
0200
0010
,
0320
0000
0000
1000
0000
0000
2030
0000
0000
0001
0000
0000
3002
0000
0000
0010
0000
0000
0013
0000
1000
0000
0010
0000
,
0001
1000
0010
0001
0010
1000
0200
0010
,
0320
0001
0032
1000
2003
3010
0110
0000
,
0101
0011
0110
2100
,
0000
0000
0010
0000
0000
0001
3002
0000
,
0000
0000
0000
0000
1000
0000
0000
0100
0000
0000
0010
0000
2003
0000
0000
0000
,
0000
0100
0100
0000
0010
3010
0110
0000
,
0101
0110
1010
1100
,
1010
0101
0011
0101
,
1010
0000
1100
0000
1010
0000
1000
0100
,
0001
0000
1000
0000
0010
0000
0001
0000
0010
0000
1000
0000
0010
0001
0010
0001
,
1000
0001
1000
0001
1000
0010
1000
0010
1000
0100
1000
0100
2000
0000
0000
0000
,
0000
0000
0000
0000
,
0000
0000
0000
3000
;

//---------------dance-single - Kekkle-CSP----------------
#NOTES:
     dance-single:
     Kekkle:
     Challenge:
     19:
     :
0000
0000
0000
0000
,
0000
0000
0000
0000
,
0000
0000
0000
0000
,
0000
0000
0000
0000
,
0001
0000
0100
0000
0010
0000
0100
0010
1000
0000
1000
0000
0002
0000
0000
0000
,
1003
0000
0100
0000
0010
0000
0100
0010
0001
0000
0001
0000
2000
0000
0000
0000
,
3001
0000
0100
0010
1000
0000
0010
0100
0001
0000
1000
0000
0100
0010
0001
0000
,
1000
0000
0010
0000
0100
0001
1000
0001
0020
0000
0000
0000
0130
0000
0000
0000
,
1000
0000
0001
0010
0100
0000
0010
0001
1000
0000
0001
0100
0010
0000
0100
0000
,
0001
0000
1000
0001
0010
0000
0100
0010
0001
0000
1000
0010
0200
0000
0000
0000
,
0301
0000
1000
0010
0100
0000
0010
0100
0001
0000
1000
0001
0010
0000
0001
0000
,
1000
0100
0001
0100
0110
0000
1002
0000
,
0103
0000
0010
1000
0001
0000
1000
0100
0010
0000
0001
0100
0010
0000
1000
0000
,
0001
0000
0010
0100
1000
0000
0100
0010
0001
0000
0100
0010
2000
0000
0000
0000
,
3001
0000
0010
0001
1000
0000
0010
0100
0001
0000
0010
0100
1000
0000
0001
0000
,
0200
0000
0000
0000
,
0000
0000
0000
0000
,
0310
0000
1000
0001
0010
0000
0100
0010
0001
0000
1000
0000
0020
0000
0100
0000
,
1030
0000
0001
0010
0100
0000
0010
0001
1000
0000
0010
0000
0200
0000
0000
0000
,
0301
0000
1000
0010
0100
0000
0010
1000
0001
0000
1000
0000
0200
0000
0010
0000
,
1300
0001
0100
0010
0110
0000
2001
0000
,
3100
0000
0010
0001
1000
0000
0010
1000
0001
0000
1000
0100
0010
0000
0001
0010
,
0100
0000
1000
0010
0100
0000
0001
0100
0010
0000
1000
0001
0020
0000
0000
0000
,
0130
1000
0100
1000
0001
1000
0001
1000
0010
0100
0010
0100
0001
0100
0001
0100
,
0010
1000
0001
0010
0001
1000
0010
0100
0001
1000
0001
0010
0100
1000
0001
1000
,
0020
0000
0000
0000
2030
0000
0000
0000
3002
0000
0000
0000
0023
0000
0000
0000
2030
0000
0000
0000
3020
0000
0000
0000
0230
0000
0000
0000
1300
0001
0100
0010
,
0002
0000
0013
0100
1000
0100
0010
1000
1000
0001
0010
0100
2000
0000
0000
0000
,
3001
0000
0000
0100
0000
0000
0010
0000
0000
0001
0000
0000
0010
0100
0010
1000
0000
0000
0010
0000
0000
0100
0000
0000
0001
0000
0000
0100
0000
0000
0010
0000
0000
0001
0000
0000
0010
0000
0000
1000
0000
0000
0001
0000
0000
0010
0000
0000
,
0200
0000
0000
0000
0000
0000
0000
0000
0000
0000
0000
0000
0000
0000
1000
0000
2300
0000
0000
0000
0000
0000
0000
0000
0001
0000
0000
0001
0000
0000
0001
0000
3002
0000
0000
0000
0000
0000
0100
0000
0103
0000
0000
0000
0010
0000
1000
0000
0001
0000
0000
0000
0001
0000
0000
0000
1000
0000
0000
0000
1000
0000
0000
0000
,
1100
0000
0000
0000
0001
0000
0000
0000
0101
0000
0000
0000
1000
0000
0000
0000
1001
0000
0000
0000
0110
0000
0000
0000
0001
0010
0100
1000
0002
0000
0000
0000
,
1003
0000
0010
0100
0001
0000
0100
0000
1000
0000
0100
0010
1000
0000
0001
0000
,
1000
0100
0010
0100
0001
0100
0020
0031
,
1000
0010
0100
0000
0001
0000
1000
0000
0100
0010
0001
0000
0010
0000
1000
0000
,
0010
0100
1000
0002
0000
1003
0000
0001
,
0100
0010
1000
0000
0001
0000
0010
0000
0100
0010
0001
0000
1000
0000
0010
0000
,
0100
0010
1000
0000
0001
0000
0010
0000
0100
0000
0002
0000
0103
0010
0001
0000
,
0010
0001
1000
0000
0001
0100
0010
0000
1000
0001
0010
0000
2000
0000
0000
0000
,
3020
0000
0032
0000
1003
0000
0001
0100
,
0010
0100
1000
0100
0001
1000
0001
0010
,
0100
0001
1000
0010
0100
1000
0001
0010
,
0100
0010
1000
0010
0001
1000
0001
0100
,
0010
0000
0001
0000
1000
0000
0100
0000
0010
0000
1000
0000
0001
0000
0100
0001
,
1000
0000
0100
1000
0001
0000
0010
0100
1000
0000
0100
0010
0001
0000
0100
0010
,
1000
0000
0010
0100
0001
0000
1000
0100
0010
0000
0001
0000
1000
0010
0100
0010
,
1000
0010
0100
0001
1000
0001
0010
0001
1000
0001
0010
0100
1000
0100
0010
0001
,
1000
0001
0100
0010
1000
0001
1000
0100
0020
0000
0000
0000
0032
0000
1000
0000
,
0103
0001
0020
0100
0031
0010
0200
1000
,
0310
0100
2000
0001
3010
1000
0020
0001
,
0130
0010
2000
0001
3100
1000
0200
0001
,
0310
0100
1000
0001
0100
0010
0002
0010
,
1003
0001
0010
1000
0001
0010
1000
0010
,
0100
1000
0001
0100
0010
1000
0001
0010
,
0100
0000
0010
0000
1000
0000
0010
0000
0001
0000
1000
0000
0001
0100
1000
0100
,
0001
0000
0000
0000
0110
0000
0000
0000
1001
0000
0000
0000
0001
0000
0010
0100
,
1000
0000
0000
0000
0000
0000
0001
0000
0000
0000
0000
0000
0100
0000
0000
0000
0000
0000
0010
0000
0000
0100
0000
0000
0001
0000
0000
0000
0000
0000
1000
0000
0000
0000
0000
0000
0010
0000
0000
0000
0001
0000
0000
0000
0010
0000
0000
0000
,
0100
0000
0001
0000
1001
0000
0000
0000
0110
0000
0000
0000
1000
0000
0100
0010
,
0001
0000
1000
0000
0010
0000
0100
0010
1000
0000
0010
0000
0001
0000
0010
0000
,
0100
0001
1000
0100
0010
0001
2000
0000
,
0010
0000
0001
0000
3100
0010
0002
0000
,
1000
0000
0000
0000
0103
0000
0000
0100
0000
0000
0100
0000
1000
0000
0100
0000
,
0001
0000
1000
0000
0100
0000
0010
0000
0001
1000
0010
0100
0002
0000
0000
0000
,
2003
0000
3200
0000
0320
0000
0031
1000
,
0010
0100
0001
0100
1000
0100
0001
1000
,
0100
1000
0001
0010
1000
0010
0001
1000
,
0010
0001
1000
0100
0001
0100
1000
0001
,
0010
0000
0100
0000
0110
0000
0000
0000
2001
0000
0000
0000
3100
0000
0010
0001
,
1000
0000
0010
1000
0001
0000
1000
0100
0010
0000
0001
0010
0100
0000
1000
0010
,
0100
0000
0001
0100
0010
0000
1000
0100
0010
0000
0001
0010
0100
1000
0001
1000
,
0100
0010
0001
1000
0001
0100
0010
0100
0001
1000
0001
0010
0100
1000
0100
0010
,
0001
1000
0010
0100
0001
1000
0100
0010
0002
0000
0000
0000
1003
0010
0100
0001
,
0010
0001
0100
0001
1000
0100
0010
0001
1000
0001
0100
0010
1000
0001
0010
0100
,
1000
0100
0010
0001
1000
0010
0100
0010
0001
0010
1000
0001
0010
0100
0010
0001
,
0100
0001
0010
0100
1000
0001
0100
0010
1000
0010
0100
0001
1000
0001
0010
0100
,
1000
0100
0010
1000
0001
0100
0010
0001
0100
0000
0100
0000
0001
0000
1000
0000
,
1010
0000
0010
0001
0000
0001
0100
0000
0101
0000
0000
0000
1000
0000
0001
0000
,
0011
0000
0010
1000
0000
1000
0100
0000
1100
0000
0000
0000
0001
0000
1000
0000
,
1010
0000
0010
0001
0000
0001
0100
0000
0101
0000
0000
0000
0001
0010
0100
1000
,
0100
0010
0001
1000
1010
0000
0000
0000
0101
0000
0000
0000
0011
0000
0000
0000
,
1100
0000
1001
0101
1001
1100
0110
0011
,
1001
1010
2000
0000
0000
0000
3001
0010
,
1000
0010
0001
0000
0000
0000
2000
0001
,
3100
1000
0020
0100
1030
0010
0200
0001
,
0310
0100
0002
1000
0103
0001
0020
1000
,
0130
0010
0002
1000
0103
0001
0200
1000
,
0310
0100
0001
1000
0100
0010
2000
0010
,
3001
1000
0010
0001
1000
0010
0001
0010
,
1000
0000
0010
0000
0110
0000
1001
0000
0001
0010
0100
1000
0002
0000
0000
0000
,
0003
0000
0000
0000
2002
0000
0000
0000
3003
0000
0000
0000
1000
0100
0001
0100
,
1000
0000
0000
0000
0110
0000
0000
0000
1001
0000
0000
0000
0001
0000
0010
0001
,
0100
0000
0000
0000
0000
0000
0001
0000
0000
0000
0000
0000
1000
0000
0000
0000
0000
0000
0010
0000
0000
1000
0000
0000
0100
0000
0000
0000
0000
0000
0010
0000
0000
0000
0000
0000
0100
0000
0000
0000
0001
0000
0000
0000
0100
0000
0000
0000
,
0010
0000
0001
0000
1001
0000
0000
0000
0110
0000
0000
0000
0001
0000
0100
0001
,
0010
0000
0001
0000
1000
0000
0100
1000
0010
0000
0100
0000
1000
0000
0100
0000
,
0010
0000
1000
0000
0001
0000
0010
0000
0100
0000
1000
0000
0020
0000
1000
0001
,
0000
0000
0001
1000
0000
0000
1000
0001
0000
0000
0031
1000
0200
0000
1000
0001
,
0000
0000
0001
1000
0000
0000
1000
0001
0000
0000
0301
1000
0010
0000
1000
0000
,
0001
0000
0010
0000
0100
0000
1000
0000
0001
0100
0010
1000
0002
0000
0000
0000
,
2003
0000
3200
0000
0320
0000
0032
1000
,
0103
0001
2000
0001
3100
1000
0002
1000
,
0013
0000
0001
0000
2000
0000
0001
0000
3010
0000
1000
0000
0001
0000
0010
0001
,
0100
0000
0010
1000
0100
0000
0010
0001
0100
0000
0010
1000
0100
0010
0001
1000
,
0001
0100
0010
1000
0100
0010
0001
1000
0010
0100
0001
1000
0200
0000
0000
0000
,
0000
0000
0000
0000
,
0000
0000
0000
0300
;

//---------------dance-double - NewbStepper-BDP----------------
#NOTES:
     dance-double:
     NewbStepper:
     Easy:
     11:
     :
00000000
00000000
00000000
00000000
,
00000000
00000000
00000000
00000000
,
00000000
00000000
00000000
00000000
,
00000000
00000000
00000000
00000000
,
10000000
01000000
10000000
00000000
,
00010000
01000000
00010000
00000000
,
00000010
00000100
00000010
00000100
,
00001000
00000001
00000100
00000000
,
00000001
00000001
00001000
00001000
,
00010000
01000000
00100000
00000000
,
10000000
10000000
00010000
00010000
,
00001000
00000100
00000010
00000000
,
00000001
00000100
00010000
00000100
,
00000001
00000100
00010000
00000100
,
00000001
00000010
00001000
00010000
,
00200000
00000000
00000000
00000000
,
00000000
00000000
00000000
00000000
,
10300000
00000000
10000000
00000000
,
01000000
00010000
00001000
00000100
,
00000001
00000000
00000001
00000000
,
00000010
00001000
00010000
00100000
,
10000000
00010000
10000000
00000000
,
00010000
00001000
00010000
00000000
,
00001000
00000100
00000010
00000001
,
00000100
00000010
00001000
00000100
,
00010000
00010000
00010000
00000000
01000000
01000000
01000000
10000000
,
00100000
00010000
00001000
00000010
00000001
00001000
00000020
00000030
,
00001000
00000001
00000100
00001000
00010000
01000000
10000000
00100000
,
00020000
00030000
00002000
00003000
00020000
00030000
00000010
00000010
,
00001010
00001010
00000101
00000101
,
00001000
00000001
00000100
00001000
,
00010000
00000000
01000000
00000000
10000000
00000000
00000000
00010000
,
00000000
10000000
00000000
01000000
00000000
00010000
00000000
00001000
,
00000000
00000100
00000000
00000001
00000000
00000000
00000000
00001000
,
00000000
00000001
00000000
00000010
00000000
00001000
00000000
00010000
,
00000000
00100000
00000000
10000000
00000000
00000000
00010000
00000000
,
10000000
00100000
00010000
00001000
,
00000010
00000001
00000100
00001000
,
00010000
00000010
00001000
00000010
,
00010000
00001000
00100000
01000000
,
00100000
10000000
00100000
00010000
,
01000000
00001000
00010000
00001000
,
00000010
00001000
00010000
00001000
,
00000100
00000001
00000010
00001000
,
00010000
01000000
10000000
00100000
,
01000000
01100000
00000000
20000000
,
30000000
00200000
00300000
00020000
,
00030000
00002000
00003000
00000020
,
00000030
00000002
00000003
00002000
,
00003000
00000001
00001000
00000002
,
00000003
00000010
00001000
00010000
,
00001000
00100000
00010000
10000000
,
00100000
00010000
00001000
00010000
,
00000000
00011000
00000000
00000100
,
00000001
00000010
00001000
00010000
,
00100000
10000000
00000000
01000000
,
10000000
00100000
00010000
00001000
,
00000010
00000001
00001000
00000002
,
00000000
00000003
00000000
00002000
,
00000000
00003000
00000000
00020000
,
00000000
00030000
00000000
01000000
,
00010000
10000000
01000000
00010000
,
00001000
00010000
00000000
00000010
,
00000100
00000010
00000000
00010000
,
00001000
00010000
00000000
00100000
,
01000000
00100000
00000000
10000000
,
01000000
00010000
00000100
00000001
,
00000100
00010000
00001000
00000010
,
00000001
00000010
00001000
00010000
,
00100000
10010000
00000000
11000000
,
00000000
00011000
00000000
00000101
,
00000000
00011000
00000000
10100000
,
00000000
00011000
00000000
00000011
,
00000000
00011000
00000000
00100000
,
00100000
00100000
00100000
10000000
,
10000000
10000000
10000000
01000000
,
01000000
01000000
01000000
00010000
,
00010000
00011000
00000000
00001100
,
00000000
00011000
00000000
01010000
,
00000000
00022000
00000000
00000000
,
00000000
00033000
00000000
00000002
,
00000003
00000020
00000030
00002000
,
00003000
00020000
00030000
00200000
,
00300000
20000000
30000000
00020000
,
00030000
10000000
00010000
20000000
,
30000000
00100000
00010000
00001000
,
00010000
00000010
00001000
00000001
,
00000010
00001000
00010000
00001000
,
00000000
00011000
00000000
01000000
,
10000000
00100000
00010000
00001000
,
00000010
00000001
00000000
00000100
,
00000001
00000010
00001000
00010000
,
00100000
10000000
00010000
20000000
,
00000000
30000000
00000000
00020000
,
00000000
00030000
00000000
00002000
,
00000000
00003000
00000000
00000100
,
00001000
00000001
00000100
00001000
,
00010000
00001000
00100000
00010000
,
00001000
00000100
00000010
00000001
,
00000100
00001000
00010000
01000000
,
10000000
00100000
00010000
00002000
,
00000000
00000000
00000000
00000000
,
00000000
00000000
00000000
00003000
;

//---------------dance-double - NewbStepper-DDP----------------
#NOTES:
     dance-double:
     NewbStepper:
     Medium:
     15:
     :
00000000
00000000
00000000
00000000
,
00000000
00000000
00000000
00000000
,
00000000
00000000
00000000
00000000
,
00000000
00000000
00000000
00000000
,
00010000
00000000
01000000
00000000
00010000
00001000
00010000
00000000
,
00001000
00000000
00000100
00000000
00001000
00010000
00001000
00000000
,
00010000
00100000
10000000
00100000
10000000
01000000
00010000
01000000
,
00010000
00001000
00000100
00001000
00000200
00000000
00000302
00000000
,
00001003
00000001
00000100
00001000
00010000
01000000
10000000
00000000
,
00100000
10000000
01000000
00000000
00100000
00010000
01000000
00000000
,
00010000
10000000
01000000
00010000
00001000
00000100
00000001
00000000
,
00000010
00000001
00000100
00000000
00000010
00000000
00001001
00000000
,
00000010
00000001
00000100
00000010
00001000
00000001
00000010
00001000
,
00010000
00001000
00000100
00000010
00001000
00010000
01000000
00100000
,
10000000
01000000
00010000
00001000
00100000
00010000
00000010
00000100
,
00002000
00000000
00000000
00000000
,
00000000
00000000
00000000
00000000
,
00003001
00000000
00001000
00000000
00000001
00000100
00001000
00000000
,
00010000
01000000
10000000
00000000
00100000
10000000
01000000
00000000
,
10000000
00000000
00010000
00000000
10000000
01000000
00010000
00000000
,
00001000
00000100
00000001
00000000
00000010
00000000
00000110
00000000
,
00001000
00010000
01000000
10000000
00100000
00010000
00000100
00000010
,
00001000
00010000
01000000
00100000
00001000
00000100
00000001
00000000
,
00000100
00001000
00010000
00100000
,
10100000
01010000
01100000
10100000
,
10010000
00000000
00000000
00000000
10000000
00000000
00000000
00000000
01000000
00000000
00000000
00000000
00010000
00000000
00000000
00000000
00001000
00000000
00000000
00000000
00000100
00000000
00000000
00000000
00000001
00000000
00000000
00000000
00001000
00000001
00001000
00000001
,
00001000
00000000
00000100
00000010
00000001
00000010
00000100
00001000
00010000
01000000
00100000
10000000
00020000
00000000
00000000
00000000
,
10030000
00000000
00000000
01000000
00000000
00000000
00010000
00000000
00000000
00001000
00000000
00000000
00000010
00000001
00000010
00000001
00000000
00000000
00000100
00000000
00000000
00000000
00000000
00000000
00000001
00000000
00000000
00000100
00000000
00000000
00000001
00000000
00000000
00000010
00000000
00000000
00001000
00000000
00000000
00010000
00000000
00000000
00100000
00000000
00000000
10000000
00000000
00000000
,
00020000
00000000
00000000
00000000
00000000
00000000
00000000
00000000
00030000
00000000
00000000
00000000
00000000
00000000
10000000
00000000
02000000
00000000
00000000
00000000
00000000
00000000
00000000
00000000
03010000
00000000
00000000
00001000
00000000
00000000
00010000
00000000
00001000
00000000
00000000
00000000
00000000
00000000
00000010
00000000
00000010
00000000
00000000
00000000
00000000
00000000
00000000
00000000
00000001
00000000
00000000
00000000
00000100
00000000
00000000
00000000
00000010
00000000
00000000
00000000
00001000
00000000
00000000
00000000
,
00020000
02030000
03200000
20300000
32000000
03020000
00032000
00003200
,
00000301
00000010
00000001
00000000
00001000
00000010
00001000
00000000
,
00000001
00000100
00001000
00010000
00100000
00000000
00000000
10000000
,
00100000
10000000
00000000
00010000
00100000
00010000
00000000
10000000
,
01000000
00010000
00001000
00000010
00000000
00000000
00000000
00000101
,
00000000
00001010
00000000
00010010
00000000
00001100
00000000
00101000
,
00000000
00011000
00000000
01100000
00000000
00000000
01010000
00000000
,
10010000
00110000
00011000
00001100
,
00001001
00000000
00001010
00000000
00000110
00000000
00000001
00000010
,
00000100
00000000
00000010
00000100
00001000
00000000
00000100
00001000
,
00010000
00000000
00001000
00010000
00100000
00000000
00010000
01000000
,
10000000
00000000
01000000
00010000
00100000
00000000
10000000
00100000
,
00010000
00000000
00001000
00000100
00000001
00000000
00000100
00001000
,
00000010
00000100
00000001
00000010
00001000
00010000
00100000
10000000
,
00010000
10000000
01000000
00100000
00010000
00001000
00010000
00100000
,
00001000
00010000
01000000
00010000
00000100
00001000
00000010
00000100
,
00010000
01000000
00100000
00010000
00000010
00001000
00010000
00000000
,
00020000
01000000
01000000
10000000
,
10000000
00100000
00100000
00001000
,
00032000
00000100
00000100
00000001
,
00000001
00000000
00003010
00000100
00001000
00010000
00200000
00000000
,
01000000
01000000
10300000
01000000
,
00010000
00001000
00000010
00000011
,
00001001
00000000
00001100
00000000
00010010
00000000
00001000
00010000
,
00100000
01100000
10010000
00020000
,
00100000
00000000
00000000
10000000
00000000
00000000
01000000
00000000
00000000
00031000
00000100
00001000
,
00000200
00000320
00000032
00001003
,
00000001
00000100
00001000
00011000
,
01010000
11000000
10100000
00120000
,
00000000
00000000
00000000
00000000
00030000
00000100
00002000
00000000
,
00000000
00000000
00000000
00000000
00003001
00000000
00000000
00000100
00000000
00000000
00000010
00000000
00002000
00000000
00000000
00000000
,
00000000
00010000
00013000
00000000
01000000
00100000
01100000
00000000
,
10010000
00000000
11000000
00000000
01010000
00000000
00001000
00010000
,
01000000
10000000
00100000
10000000
01000000
00010000
00001000
00100000
,
01000000
00100000
00001000
00010000
00000100
00000010
00000100
00010000
,
00001000
00000100
00000001
00001000
00000001
00000010
00000100
00010000
,
00001000
00100000
01000000
10000000
01000000
00000000
00010000
00001000
,
00000100
00000001
00000010
00000001
00001000
00000010
00010000
00001000
,
00100000
00001000
00010000
01000000
10000000
00010000
01000000
00001000
,
00010000
00100000
10000000
01000000
00100000
00010000
00001000
00000100
,
00000010
00000001
00000100
00000010
00000100
00000000
00021000
00000000
,
00000000
02030000
23000000
30200000
,
00000000
02300000
03020000
00032000
,
00000000
00003002
00000203
00002300
,
00000000
00000000
00023000
00000000
00230000
00000000
10300000
01000000
,
11000000
00000000
00000000
00100000
00000000
00000000
00001000
00000000
00011000
00000000
00000000
00000000
01000000
00000000
00010000
00000000
,
00011000
00000000
00000000
00000100
00000000
00000000
00000010
00000000
00000110
00000000
00000000
00000000
00000001
00000000
00000100
00000000
,
00000101
00000000
00000000
00000010
00000000
00000000
00010000
00000000
00011000
00000000
00000000
00000000
00100000
00000000
10000000
00000000
,
01000000
00010000
01010000
00000000
00001100
00000000
00110000
00000000
,
00001010
00000000
00000001
00000100
00000010
00001000
00010000
01000000
,
00100000
10000000
00020000
00000000
00000000
00000000
00000000
00000000
,
00000000
00030000
00000000
00001000
,
00002000
00000100
00000100
00000001
,
00000001
00000010
00000010
00010000
,
00023000
01000000
01000000
10000000
,
10000000
00000000
00130000
01000000
00010000
00001000
00000020
00000000
,
00000100
00000100
00000031
00000100
,
00001000
00010000
00100000
10100000
,
10010000
00000000
01010000
00000000
00101000
00000000
00010000
00001000
,
00000010
00000110
00001001
00002000
,
00000010
00000000
00000000
00000001
00000000
00000000
00000100
00000000
00000000
00013000
01000000
00010000
,
02000000
03200000
20300000
30010000
,
10000000
01000000
00010000
00011000
,
00001100
00000101
00000011
00002010
,
00000000
00000000
00000000
00000000
00003000
01000000
00020000
00000000
,
00000000
00000000
00000000
00000000
10030000
00000000
00000000
01000000
00000000
00000000
00100000
00000000
00020000
00000000
00000000
00000000
,
00000000
00001000
00031000
00000000
00000100
00000010
00000110
00000000
,
00001001
00000000
00000101
00000000
00001100
00000000
00010000
00001000
,
00010000
00000000
01000000
00100000
01000000
00000000
10000000
01000000
,
10000000
00000000
00100000
00010000
00100000
00000000
00010000
00000100
,
00000001
00000100
00001000
00000010
00010000
01000000
10000000
00100000
,
00010000
00001000
00100000
00010000
00000010
00000100
00020000
00000000
,
00000000
00000000
00000000
00000000
,
00000000
00000000
00000000
00030000
;

//---------------dance-double - NewbStepper-EDP----------------
#NOTES:
     dance-double:
     NewbStepper:
     Hard:
     18:
     :
00000000
00000000
00000000
00000000
,
00000000
00000000
00000000
00000000
,
00000000
00000000
00000000
00000000
,
00000000
00000000
00000000
00000000
,
10000000
00000000
00100000
00000000
00010000
00000000
00001000
00000010
00001000
00000000
00010000
00000000
00000100
00000000
00001000
00000000
,
00000001
00000000
00000010
00000000
00001000
00000000
00010000
00100000
00010000
00000000
00001000
00000000
01000000
00000000
00010000
00000000
,
10000000
00000000
00100000
10000000
00100000
00000000
01000000
00010000
01000000
00000000
00001000
00000000
00010000
00001000
00010000
00000000
,
00001000
00000010
00000001
00000100
00001000
00000000
00011000
00000000
,
01000000
00100000
10000000
01000000
00010000
01000000
00100000
00001000
,
00010000
00000000
00000010
00000000
00000100
00000000
00001000
00010000
00001000
00000000
00000010
00000000
00000001
00000000
00001000
00000000
,
00000100
00000010
00000001
00000100
00001000
00000100
00000010
00010000
,
00001000
00000000
00100000
01000000
00100000
00000000
00001000
00000000
00010000
00000000
00000000
00000000
01100000
00000000
00000000
00000000
,
10000000
01000000
00010000
00001000
00000100
00001000
00100000
01000000
,
00100000
00001000
00000010
00000001
00000100
00000010
00001000
00010000
,
01000000
00000000
00100000
00000000
00010000
00000000
00000010
00000100
00000010
00000000
00001000
00000000
00100000
00000000
01000000
00000000
,
00020000
00000000
00000000
00000000
,
00000000
00000000
00000000
00000000
,
10030000
00000000
01000000
00000000
00010000
00000000
00001000
00000010
00001000
00000000
00010000
00000000
00100000
00000000
01000000
00000000
,
00010000
00000000
00001000
00000000
00000010
00000000
00000100
00001000
00000100
00000000
00000001
00000000
00001000
00000000
00000000
00000000
,
00000001
00000000
00000100
00000000
00001000
00000000
00010000
00100000
00010000
00000000
00001000
00000000
00000010
00000000
00000100
00000000
,
00001000
00000000
00010000
00000000
00100000
00000000
01000000
10000000
01000000
00000000
00000000
00000000
10010000
00000000
00000000
00000000
,
00100000
00000000
10000000
00000000
01000000
00000000
00010000
00001000
00010000
00000000
00000100
00000000
00001000
00000000
01000000
00000000
,
00010000
00000000
00001000
00000000
00000010
00000000
00000001
00000100
00000001
00000000
00000010
00000000
00001000
00000000
00000000
00000000
,
00010000
00001000
00010000
00000000
00001000
01000000
00001000
00000000
01000000
00100000
01000000
00000000
00100000
10000000
00100000
00000000
,
10100000
00110000
00011000
00001010
,
00000001
00000000
00000000
00000000
00000010
00000000
00000000
00000000
00001000
00000000
00000000
00000000
00010000
00000000
00000000
00000000
00100000
00000000
00000000
00000000
10000000
00000000
00000000
00000000
00010000
00000000
00000000
00000000
10000000
01000000
00100000
00010000
,
10000000
00000000
00010000
10000000
01000000
00010000
00001000
00000100
00010000
00100000
00010000
00001000
00000200
00000000
00000300
00000000
,
00000010
00000000
00000000
00000001
00000000
00000000
00000100
00000000
00000000
00001000
00000000
00000000
00010000
00001000
00010000
00001000
00000000
00000000
01000000
00000000
00000000
00000000
00000000
00000000
00100000
00000000
00000000
10000000
00000000
00000000
01000000
00000000
00000000
00010000
00000000
00000000
00001000
00000000
00000000
00000010
00000000
00000000
00000001
00000000
00000000
00000100
00000000
00000000
,
00000201
00000000
00000000
00000000
00000000
00000000
00000000
00000000
00000000
00000000
00000000
00000000
00000300
00000000
00001000
00000000
00020000
00000000
00000000
00000000
00000000
00000000
00000000
00000000
00031000
00000000
00000000
00000100
00000000
00000000
00000001
00000000
00002000
00000000
00000000
00000000
00000000
00000000
00010000
00000000
00013000
00000000
00000000
00000000
00100000
00000000
01000000
00000000
20000000
00000000
00000000
00000000
30200000
00000000
00000000
00000000
00320000
00000000
00000000
00000000
00032000
00000000
00000000
00000000
,
00003010
00000001
00000100
00001000
00010000
00000010
00000100
00000001
,
00001000
00000100
00001000
00000001
00001000
00000010
00001000
00010000
,
00001000
00010000
01000000
00100000
10000000
00000000
10010000
00010000
,
01000000
00010000
10000000
00010000
00100000
00010000
00001000
00010000
,
00001000
00000100
00000010
00000001
00000000
00001001
00000000
00001000
,
00000010
00001000
00000001
00001000
00000100
00001000
00010000
00001000
,
00010000
00100000
01000000
10000000
00000000
10010000
00010000
00100000
,
00010000
10000000
00010000
01000000
00010000
00001000
00011000
00000000
,
00001010
00000000
00001001
00000000
00001100
00000000
00000010
00000001
,
00001000
00000100
00000010
00001000
00010000
00001000
00100000
00010000
,
10000000
01000000
00010000
00001000
00100000
01000000
00010000
00001000
,
00000100
00000010
00001000
00010000
10000000
00100000
00010000
00001000
,
00000010
00000100
00001000
00000010
00001000
00010000
01000000
00100000
,
10000000
00010000
00100000
01000000
00010000
00001000
00000100
00001000
,
00010000
00000000
00000010
00000000
00001000
00000000
00010000
00000000
00001000
00000000
00000010
00000000
00010000
00000000
00001000
00000010
,
00000100
00000000
00000001
00000100
00001000
00000000
00000010
00010000
00001000
00000000
00100000
00001000
00010000
00000000
00100000
10000000
,
00100000
10000000
00100000
10000000
00100000
10000000
00010000
10000000
00010000
10000000
00010000
10000000
00020000
00000000
01000000
00000000
,
01030000
00000000
00020000
10000000
10030000
00000000
00020000
00100000
,
00130000
00000000
00020000
00001000
00031000
00000000
00002000
00000100
,
00003100
00000000
00002000
00000001
00003001
00000000
00002000
00000010
,
00003010
00000000
00000000
00000000
00001000
00000000
00010000
00000000
00100000
00000000
01000000
00000000
10000000
00000000
00100000
01000000
,
00100000
00000000
00010000
00000000
00001000
00000000
00000010
00000100
00000010
00000000
00001000
00000000
00010000
00000000
00100000
01000000
,
00100000
10000000
01000000
00010000
00001000
00000100
00000101
00000000
,
00000011
00000000
00000000
00000000
00001010
00000000
00000000
00000000
00011000
00000000
00000000
00000000
00100000
00001000
00010000
00001000
,
00100000
00000000
01010000
00000000
10100000
00000000
00010000
10000000
,
01000000
00000000
00000000
00010000
00000000
00000000
00001000
00000000
00000000
00000010
00000000
00000000
00000001
00000000
00000000
00000100
00000000
00000000
00001000
00000000
00010000
00000000
00100000
00000000
,
10000000
00010000
00100000
01000000
00010000
00001000
00010000
00000100
,
00000010
00001000
00010000
00100000
01000000
00010000
00001000
00000100
,
00000010
00001000
00010000
00001000
00000100
00000001
00000020
00000000
,
00000000
00000000
00000000
00000000
00000030
00001000
00020000
00000000
,
00000000
00000000
00000000
00000000
00030100
00000000
00000000
00000010
00000000
00000000
00001000
00000000
00020000
00000000
00000000
00000000
,
00000000
01000000
01000000
00000000
00031000
00010000
00200000
00000000
,
20300000
00000000
32000000
00000000
03020000
00000000
00031000
01000000
,
00001000
00010000
01000000
00100000
00001000
00000010
00001000
00010000
,
00000010
00001000
00000001
00000100
00001000
00010000
00100000
10000000
,
00010000
01000000
00010000
10000000
00100000
00010000
00001000
00000100
,
00000001
00000000
00000010
00000000
00000100
00000000
00001000
00000000
00020000
00000000
00000000
00000000
10030000
00000000
00100000
10000000
,
00100000
00000000
01000000
00010000
01000000
00000000
00001000
00010000
00001000
00000000
00000010
00000100
00000010
00000000
00000001
00000100
,
00000001
00000000
00001000
00000100
00001000
00000000
00000010
00010000
00000010
00000000
00010000
00001000
00010000
00000000
00001000
00000000
,
00010000
00000000
01000000
00000000
10000000
00000000
00100000
00000000
00010000
00000000
00001000
00000000
00000010
00000100
00000010
00000000
,
00001000
00010000
00001000
00000000
00100000
00001000
00100000
00001000
00010000
00001000
00010000
00000000
00012000
00000000
00000000
00000000
,
00000000
00003200
00000302
00000023
,
00000000
00000230
00002300
00023000
,
00000000
20030000
32000000
03020000
,
00000000
00000000
00032000
00000000
00003020
00000000
00000031
00000100
,
00011000
00000000
00000000
00000100
00000000
00000010
00001000
00000000
00011000
00000000
00000000
00000000
10000000
00000000
01000000
00000000
,
00011000
00000000
00000000
01000000
00000000
00100000
00010000
00000000
00011000
00000000
00000000
00000000
00000010
00000000
00000001
00000000
,
00000101
00000000
00000000
00001000
00000000
00010000
00001000
00000000
00011000
00000000
00000000
00000000
00100000
00000000
10000000
00000000
,
11000000
00110000
00001010
01010000
,
00001100
00000000
00000000
00000000
00110000
00000000
00110000
00000000
00011000
00000000
00011000
00000000
00010000
00001000
00010000
00000100
,
00010000
00001000
00000010
00000001
00002000
00003000
00000000
00000000
00000000
00000000
00000000
00000000
00000001
00000000
00001000
00000000
,
00000001
00001000
00000001
00000000
00000000
00000000
00002000
00000100
,
00003100
00000000
00002000
00000001
00003001
00000000
00002000
00000010
,
00003010
00000000
00002000
00010000
00013000
00000000
00020000
01000000
,
01030000
00000000
00020000
10000000
10030000
00000000
00020000
00100000
,
00130000
00000000
00000000
00000000
00010000
00000000
00001000
00000000
00000010
00000000
00000100
00000000
00000001
00000000
00000010
00000100
,
00000010
00000000
00001000
00000000
00010000
00000000
00100000
01000000
00100000
00000000
00010000
00000000
00001000
00000000
00000010
00000100
,
00000010
00000001
00000100
00001000
00010000
01000000
11000000
00000000
,
10100000
00000000
00000000
00000000
00110000
00000000
00000000
00000000
00011000
00000000
00000000
00000000
00000010
00010000
00001000
00010000
,
00000010
00000000
00001100
00000000
00000011
00000000
00001000
00000001
,
00000100
00000000
00000000
00001000
00000000
00000000
00010000
00000000
00000000
00100000
00000000
00000000
10000000
00000000
00000000
01000000
00000000
00000000
00010000
00000000
00001000
00000000
00000010
00000000
,
00000001
00001000
00000010
00000100
00001000
00010000
00001000
01000000
,
00100000
00010000
00001000
00000010
00000100
00001000
00010000
01000000
,
00100000
00010000
00001000
00010000
01000000
10000000
00200000
00000000
,
00000000
00000000
00000000
00000000
00300000
00010000
00002000
00000000
,
00000000
00000000
00000000
00000000
01003000
00000000
00000000
00100000
00000000
00000000
00010000
00000000
00002000
00000000
00000000
00000000
,
00000000
00000100
00000100
00000000
00013000
00001000
00000020
00000000
,
00000032
00000203
00001300
00011000
,
01010000
00011000
00001100
00011000
,
10010000
00000000
00011000
00000000
00001001
00000000
00000010
00000001
,
00000100
00000000
00001000
00000000
00010000
00000000
01000000
00000000
10000000
00000000
00100000
00000000
10000000
00010000
10000000
00010000
,
00100000
00010000
00100000
00010000
00100000
00001000
00100000
00001000
00010000
00000100
00010000
00000100
00002000
00000000
00000000
00000000
,
00000000
00000000
00000000
00000000
,
00000000
00000000
00000000
00003000
;

//---------------dance-double - NewbStepper-CDP----------------
#NOTES:
     dance-double:
     NewbStepper-CDP:
     Challenge:
     19:
     :
00000000
00000000
00000000
00000000
,
00000000
00000000
00000000
00000000
,
00000000
00000000
00000000
00000000
,
00000000
00000000
00000000
00000000
,
00001001
00000001
00000100
00001000
00010000
01000000
10000000
00000000
,
10010000
10000000
01000000
00010000
00001000
00000100
00000001
00000000
,
00000010
00000000
00000001
00000100
00000001
00000000
00001000
00000100
00001000
00000000
00000001
00000000
00000100
00001000
00010000
00000000
,
00100000
00000000
10000000
00000000
00010000
00100000
00010000
00100000
02000000
00000000
00000000
00000000
03100000
00000000
00000000
00000000
,
01000000
00000000
10000000
01000000
00100000
00000000
00010000
01000000
00100000
00000000
10000000
01000000
00010000
00000000
00001000
00000000
,
00000100
00000000
00000001
00000100
00000010
00000000
00001000
00000100
00000010
00000000
00000001
00000100
00001000
00000000
00010000
00000000
,
01000000
00000000
10000000
00100000
01000000
00000000
00010000
00100000
01000000
00000000
10000000
00100000
00010000
00000000
00001000
00000000
,
00000010
00000000
00000001
00000100
00000010
00000000
00000100
00000000
00000110
00000000
00000000
00000000
00001001
00000000
00000000
00000000
,
00000010
00000000
00000001
00000100
00000001
00000000
00000100
00001000
00000100
00000000
00001000
00010000
00001000
00000000
00010000
00000000
,
00100000
00000000
10000000
00010000
10000000
00000000
01000000
00100000
01000000
00000000
10000000
00010000
00100000
00010000
10000000
00000000
,
00100000
00000000
10000000
01000000
10000000
00000000
01000000
00010000
01000000
00000000
00010000
00001000
00010000
00000000
00001000
00000000
,
00020000
00000000
00000000
00000000
,
00000000
00000000
00000000
00000000
,
00031000
00000000
00010000
00001000
00010000
00000000
00000010
00000100
00000010
00000000
00010000
00000000
00001000
00000000
00000010
00000100
,
00000010
00000000
00001000
00010000
00001000
00000000
00000010
00000000
00000100
00000000
00000010
00000000
00000001
00000100
00001000
00000000
,
00010000
00000000
00001000
00010000
00001000
00000000
01000000
00100000
01000000
00000000
00001000
00000000
00010000
00000000
01000000
00100000
,
01000000
00000000
00010000
00000000
00001000
00000000
01000000
00100000
01000000
00000000
00001000
00000000
00011000
00000000
00000000
00000000
,
00010000
00000000
00001000
00010000
00001000
00000000
00100000
01000000
00100000
00000000
00001000
00000000
00010000
00000000
00100000
01000000
,
00100000
00000000
00010000
00001000
00010000
00000000
00100000
00000000
01000000
00000000
00100000
00000000
10000000
01000000
00010000
00000000
,
00001000
00010000
00000100
00000000
00001000
00000100
00000010
00000000
00000001
00000100
00000010
00000000
00000100
00001000
00010000
00000000
,
00100000
10000000
00010000
00000000
10000000
01000000
00100000
00000000
01000000
00010000
00001000
00000000
00010000
00001000
00000100
00000000
,
00000020
00000000
00000000
00000000
00002030
00000000
00000000
00000000
00003002
00000000
00000000
00000000
00000203
00000000
00000000
00000000
00002300
00000000
00000000
00000000
00023000
00000000
00000000
00000000
00230000
00000000
00000000
00000000
10300000
01000000
00100000
00010000
,
20000000
00000000
30100000
01000000
01000000
00010000
00001000
00000100
00000100
00000010
00000001
00001000
00000200
00000000
00000000
00000000
,
00000310
00000000
00000000
00000001
00000000
00000000
00000100
00000000
00000000
00001000
00000000
00000000
00010000
00001000
00010000
00100000
00000000
00000000
10000000
00000000
00000000
00010000
00000000
00000000
10000000
00000000
00000000
01000000
00000000
00000000
00010000
00000000
00000000
00001000
00000000
00000000
00000010
00000000
00000000
00000001
00000000
00000000
00001000
00000000
00000000
00000010
00000000
00000000
,
00000200
00000000
00000000
00000000
00000000
00000000
00000000
00000000
00000000
00000000
00000000
00000000
00000000
00000000
00001000
00000000
00002300
00000000
00000000
00000000
00000000
00000000
00000000
00000000
00010000
00000000
00000000
00010000
00000000
00000000
00010000
00000000
00023000
00000000
00000000
00000000
00000000
00000000
01030000
00000000
01000000
00000000
00000000
00000000
10000000
00000000
00100000
00000000
00010000
00000000
00000000
00000000
00001000
00000000
00000000
00000000
00000010
00000000
00000000
00000000
00000001
00000000
00000000
00000000
,
00000200
00002300
00003002
00000023
00020030
00032000
02003000
23000000
,
31000000
00010000
10000000
01000000
00010000
00001000
00000010
00000001
,
00000100
00001000
00000001
00000010
00001000
00000000
00001001
00000001
,
00001000
00000001
00000100
00001000
00010000
00100000
10000000
01000000
,
00010000
10000000
00100000
00010000
00000000
10010000
00000000
00100000
,
10000000
00010000
00100000
01000000
00010000
00001000
00000010
00000001
,
00000100
00001000
00010000
00000100
00010000
00002000
00003010
00000001
,
00001000
00010000
00000100
00001000
00010000
00100000
10100000
00000000
,
00110000
00000000
00011000
00000000
00001010
00000000
00000010
00000001
,
00000100
00010000
00000100
00000010
00001000
00000001
00000100
00001000
,
00010000
00000010
00001000
00010000
00000100
00001000
01000000
00010000
,
00100000
01000000
00010000
00001000
00100000
00010000
00001000
01000000
,
00010000
00000100
00001000
00000010
00000001
00001000
00010000
00000010
,
00001000
00100000
00010000
00001000
00100000
01000000
10000000
00100000
,
00010000
00000000
10000000
00000000
01000000
00000000
00010000
00000000
00100000
00000000
00001000
00000000
00010000
00000000
00001000
00010000
,
00000010
00000000
00001000
00000100
00000010
00000000
00000001
00000100
00001000
00000000
00010000
00001000
01000000
00000000
00100000
10000000
,
00010000
01000000
00010000
01000000
00001000
00010000
00001000
00010000
00000100
00001000
00000100
00001000
00000001
00000000
00001000
00000000
,
00000010
00001000
00000001
00000100
00001000
00010000
00001000
00000010
,
00000100
00000001
00000100
00001000
00010000
01000000
10000000
01000000
,
00100000
10000000
01000000
00010000
00001000
00100000
01000000
10000000
,
00100000
01000000
00010000
00001000
00000100
00000010
00000001
00000100
,
00010000
00001000
00100000
10000000
01000000
00001000
00010000
00000010
,
00000001
00000100
00001000
00010000
00100000
10000000
11000000
00000000
,
01010000
00000000
00000000
00000000
00011000
00000000
00000000
00000000
00001100
00000000
00000000
00000000
00000010
00000100
00000010
00000100
,
00000010
00000000
00000000
00000000
00000110
00000000
00000000
00000000
00001001
00000000
00000000
00000000
00001000
00000000
00000001
00000100
,
00000010
00000000
00000000
00000000
00000000
00000000
00001000
00000000
00000000
00000000
00000000
00000000
00010000
00000000
00000000
00000000
00000000
00000000
01000000
00000000
00000000
00100000
00000000
00000000
00010000
00000000
00000000
00000000
00000000
00000000
00001000
00000000
00000000
00000000
00000000
00000000
00100000
00000000
00000000
00000000
00010000
00000000
00000000
00000000
00100000
00000000
00000000
00000000
,
01000000
00000000
10000000
00000000
11000000
00000000
00000000
00000000
10010000
00000000
00000000
00000000
00010000
00000000
10000000
01000000
,
00100000
00000000
00010000
00000000
00001000
00000000
00000100
00000010
00001000
00000000
00010000
00000000
00001000
00000000
00000010
00000000
,
00000001
00000100
00000001
00000010
00001000
00010000
00200000
00000000
,
00000000
00000000
00000000
00000000
00000000
00000000
00000000
00000000
00300000
00000000
10000000
01000000
00200000
00000000
00000000
00000000
,
00301000
00000000
00010000
00000000
00002000
00000000
00000000
00003020
00000000
00000000
00000031
00000000
00000100
00000000
00001000
00000000
,
00000001
00000010
00001000
00010000
01000000
00100000
20000000
32000000
,
03200000
00320000
00032000
00003200
00000320
00000032
00001003
00000100
,
00000001
00000100
00001000
00000010
00001000
00010000
01000000
10000000
,
01000000
00010000
00100000
00010000
00001000
00000100
00000010
00001000
,
00010000
01000000
00100000
00010000
00001000
00000100
00000001
00000100
,
00001000
00000000
00000010
00000000
00010000
00000000
00001000
01000000
00020000
00000000
00000000
00000000
10030000
00000000
01000000
10000000
,
00010000
00000000
01000000
00010000
10000000
00000000
01000000
00100000
00010000
00000000
00100000
00010000
01000000
00000000
00100000
00010000
,
00001000
00000000
00010000
00001000
00000010
00000000
00000100
00001000
00000001
00000000
00001000
00000100
00000010
00000000
00000001
00000100
,
00000010
00000000
00000100
00001000
00010000
00000000
00001000
00010000
01000000
00000000
00100000
01000000
10000000
00100000
01000000
00100000
,
10000000
01000000
00010000
00001000
00100000
00010000
00100000
00001000
00020000
00000000
00000000
00000000
00031000
00000000
00010000
00001000
,
00000010
00001000
00010000
00001000
00000100
00001000
00010000
01000000
10000000
00100000
01000000
00100000
10000000
01000000
00100000
00010000
,
01000000
00100000
00010000
00001000
00000010
00000001
00000100
00000010
00000001
00000010
00001000
00000100
00020000
00000000
00031000
00010000
,
00100000
00010000
00001000
00010000
01000000
00010000
00001000
00000100
00000001
00000010
00000100
00000010
00000001
00000100
00000010
00001000
,
00000100
00000010
00001000
00010000
00100000
10000000
01000000
00100000
00010000
00000000
01010000
00000000
10000000
00000000
01000000
00000000
,
01010000
00000000
00000000
00001000
00000000
00000000
00010000
00000000
00011000
00000000
00000000
00000000
00000001
00000000
00000100
00000000
,
00001100
00000000
00000000
00010000
00000000
00000000
00001000
00000000
00011000
00000000
00000000
00000000
10000000
00000000
00100000
00000000
,
00110000
00000000
00000000
00001000
00000000
00000000
00010000
00000000
00011000
00000000
00000000
00000000
00000001
00000000
00000010
00000000
,
00001010
00011000
01001000
00011000
,
00010100
00000000
00001100
00001100
00000101
00000101
00000011
00000011
,
00001010
00001010
00020000
00000000
00030000
00000000
00001000
00010000
,
01000000
10000000
00010000
00000000
00000000
00000000
10000000
00010000
,
00100000
00010000
10000000
01000000
00010000
00001000
00010000
00100000
,
01000000
10000000
01000000
00010000
00001000
00000100
00000001
00000100
,
00000010
00000001
00000100
00001000
00010000
00000010
00000100
00000001
,
00000010
00000100
00001000
00010000
01000000
00100000
10000000
01000000
,
00001000
00010000
00000010
00000001
00000100
00010000
00001000
00100000
,
10000000
00000000
01000000
00000000
00010000
00000000
00001000
00000000
00000010
00000001
00000010
00000001
00000100
00000000
00000000
00000000
,
00001100
00000000
00000000
00000000
00011000
00000000
00000000
00000000
01010000
00000000
00000000
00000000
00100000
01000000
00100000
01000000
,
00100000
00000000
00000000
00000000
01100000
00000000
00000000
00000000
10010000
00000000
00000000
00000000
00010000
00000000
10000000
01000000
,
00100000
00000000
00000000
00000000
00000000
00000000
00010000
00000000
00000000
00000000
00000000
00000000
00001000
00000000
00000000
00000000
00000000
00000000
00000100
00000000
00000000
00000010
00000000
00000000
00001000
00000000
00000000
00000000
00000000
00000000
00010000
00000000
00000000
00000000
00000000
00000000
00000010
00000000
00000000
00000000
00001000
00000000
00000000
00000000
00000010
00000000
00000000
00000000
,
00000100
00000000
00000001
00000000
00000101
00000000
00000000
00000000
00001001
00000000
00000000
00000000
00001000
00000000
00000001
00000100
,
00000010
00000000
00001000
00000000
00010000
00000000
01000000
00100000
00010000
00000000
00001000
00000000
00010000
00000000
00100000
00000000
,
10000000
00000000
01000000
00000000
10000000
00000000
00100000
00000000
00010000
00000000
00001000
00000000
00000020
00000000
00000001
00001000
,
00000000
00000000
00001000
00000001
00000000
00000000
00000001
00001000
00000000
00000000
00010030
00001000
00200000
00000000
00010000
10000000
,
00000000
00000000
10000000
00010000
00000000
00000000
00010000
10000000
00000000
00000000
10300000
00000000
01000000
00000000
00010000
00000000
,
10000000
00100000
00010000
00001000
00000100
00000010
00000002
00000203
,
00000320
00000000
00002030
00000000
00023000
00000000
02030000
00000000
03200000
00000000
20300000
00000000
30010000
01000000
10000000
00000000
,
01000000
00010000
00100000
00000000
01000000
00100000
00010000
00000000
00100000
00001000
00010000
00001000
00010000
00000100
00001000
00000000
,
00000100
00000010
00000001
00000000
00000100
00000010
00001000
00000000
00000100
00000010
00000001
00000010
00000001
00000100
00000010
00000000
,
00001000
00010000
01000000
00000000
00100000
10000000
01000000
00000000
00100000
00010000
00001000
00000000
00000100
00000010
00000001
00000100
,
00001000
00010000
00001000
01000000
00010000
10000000
01000000
00010000
00001000
00000100
00000001
00001000
00000200
00000000
00000000
00000000
,
00000000
00000000
00000000
00000000
,
00000000
00000000
00000000
00000300
;
