#TITLE:Everything;
#ARTIST:kors k;
#CREDIT:HARDCORE TANO*C;
#BANNER:Everything.png;
#BACKGROUND:Everything-bg.png;
#MUSIC:Everything.ogg;
#SAMPLESTART:56.228;
#SAMPLELENGTH:15;
#BPMS:0=175;

//---------------dance-single - t7r-bSP----------------
#NOTES:
     dance-single:
     t7r:
     Beginner:
     5:
     :
0000
0000
0000
0000
,
0000
0000
0000
0000
,
0000
0000
0000
0000
,
0000
0000
0000
0000
,
0000
0000
0000
0000
,
0010
0000
0000
0000
,
0100
0000
0000
0000
,
0001
0000
0000
0000
,
1000
0000
0000
0000
,
0001
0000
0001
0000
,
0001
0000
0000
0000
,
1000
0000
1000
0000
,
1000
0000
0000
0000
,
0010
0000
0000
0000
,
0010
0000
0000
0000
,
0100
0000
0000
0000
,
0100
0000
0000
0000
,
0001
0000
0001
0000
,
1000
0000
1000
0000
,
0100
0000
0100
0000
,
0010
0000
0010
0000
,
0001
0001
0001
0000
,
1000
1000
1000
0000
,
0010
0010
0010
0000
,
0100
0000
0000
0000
,
0000
0010
0000
0010
,
0010
0000
0010
0000
,
0000
1000
0000
1000
,
1000
0000
1000
0000
,
0000
0001
0000
0001
,
0001
0000
0001
0000
,
0000
0100
0000
0100
,
0100
0000
0100
0000
,
0001
0000
1000
0000
,
0001
0000
0001
0000
,
1000
0000
0010
0000
,
1000
0000
1000
0000
,
0100
0000
0010
0000
,
0001
0000
0001
0000
,
0100
0000
0010
0000
,
1000
0000
0001
0000
,
1000
0000
0000
0000
,
0100
0000
0100
0000
,
0010
0000
0000
0000
,
0001
0000
0001
0000
,
0100
0000
0000
0000
,
0010
0000
0010
0000
,
1000
0000
0000
0000
,
0001
0000
0001
0000
,
0010
0000
0010
0000
,
0001
0001
0001
0000
,
0010
0000
0010
0000
,
0100
0100
0100
0000
,
1000
0000
0010
0000
,
0100
0000
0001
0000
,
1000
0000
0100
0000
,
0010
0000
0001
0000
,
1001
0000
0000
0000
,
0000
0000
0000
0000
,
0000
0000
0000
0000
,
0000
0000
0000
0000
,
0010
0000
0000
0000
,
0100
0000
0000
0000
,
0001
0000
0000
0000
,
1000
0000
0000
0000
,
0100
0000
0100
0000
,
0100
0000
0100
0000
,
0010
0000
0010
0000
,
0010
0000
0010
0000
,
0001
0000
0001
0000
,
1000
0000
1000
0000
,
0010
0010
0010
0000
,
0100
0000
0000
0000
,
0001
0000
0001
0000
,
1000
0000
1000
0000
,
0100
0000
0100
0000
,
0010
0000
0010
0000
,
0001
0000
1000
0000
,
0001
0000
0001
0000
,
0100
0000
0010
0000
,
0100
0000
0100
0000
,
0001
0001
0001
0000
,
1000
0000
0100
0000
,
1000
1000
1000
0000
,
0001
0000
0100
0000
,
0010
0010
0010
0000
,
0100
0100
0100
0000
,
0001
0001
0001
0000
,
1000
1000
1000
0000
,
0100
0000
0000
0000
;

//---------------dance-single - forcednature-BSP----------------
#NOTES:
     dance-single:
     forcednature:
     Easy:
     8:
     :
0000
0000
0000
0000
,
0000
0000
0000
0000
,
0000
0000
0000
0000
,
0000
0000
0000
0000
,
0000
0000
0000
0000
,
1000
0000
0000
0001
0000
0000
0200
0000
,
0300
0020
0000
0030
,
0000
0000
1000
0000
0100
0000
0000
0020
,
0000
0000
0000
0000
0000
0030
0000
0000
,
0001
0100
0000
0100
,
0001
1000
0010
0000
,
1000
0100
0000
0100
,
1000
0001
0010
0000
,
0100
1000
0001
0000
,
0100
0001
1000
0000
,
0010
0100
0001
1000
,
0100
0010
0001
0000
,
1001
0000
1000
1000
,
0001
0001
0100
0100
,
0010
0010
1000
1000
,
0001
0001
0010
0010
,
0100
1000
0100
1000
,
0001
0100
0001
0100
,
0010
1000
0001
1000
,
0200
0000
0310
0000
,
1001
0000
0001
0100
,
0010
0000
1000
0001
,
0010
0000
0100
1000
,
0001
0100
0010
1000
,
0001
0000
0010
0100
,
1000
0000
0010
0100
,
0001
0000
1000
0100
,
1000
0010
0100
0001
,
0010
0000
0100
1000
,
0001
0000
0100
0001
,
0010
0000
0100
1000
,
0001
0100
1000
0100
,
0001
0000
0010
0001
,
1000
0000
0010
0100
,
0001
0001
0010
0001
,
1000
0000
0000
0001
0000
0000
2000
0000
0000
0000
0000
0000
3000
0000
0000
0000
,
0001
0000
0100
0000
0001
0010
0001
0000
,
1000
0010
0100
0000
,
0001
0000
1000
0000
0100
0010
0100
0000
,
1000
0001
0100
0000
,
0010
0010
1000
1000
,
0200
0010
0310
0000
,
0100
1000
0001
0100
,
0020
1000
1030
0000
,
0001
0000
0010
0000
0001
0100
0001
0000
,
1000
0010
0100
0000
,
0001
0000
1000
0000
0100
0010
0100
0000
,
1000
0001
0100
0000
,
0010
0010
1000
0100
,
1001
0001
0010
0001
,
2002
0000
0000
3003
,
0001
0100
0010
1000
,
0002
0000
0000
0000
,
0000
0000
0003
0000
,
0020
0000
0000
0030
,
0200
0000
0000
0300
,
2000
0000
0000
3000
,
0002
0000
0000
0003
,
0200
0000
0000
0300
,
0020
0000
0000
0030
,
1000
0100
1000
0000
,
0001
0100
0001
0000
,
1000
0010
1000
0000
,
0001
0010
0100
1000
,
0001
0010
0001
0000
,
1000
0010
1000
0000
,
0001
0100
0001
0000
,
1000
0100
0010
0001
,
0100
0001
0100
0000
0001
0000
0100
0000
,
0010
1000
0010
0000
1000
0000
0010
0000
,
1000
0100
1000
0000
0100
0000
1000
0000
,
0002
0023
0230
2300
,
3001
0100
0001
0000
0100
0000
0001
0000
,
1000
0100
1000
0000
0100
0000
1000
0000
,
0010
0100
0010
0000
0100
0000
0010
0000
,
1000
0001
0200
0320
,
1030
0100
1000
0000
0001
0000
0010
0000
,
0001
0100
0001
0000
1000
0000
0010
0000
,
0100
0010
0100
0000
0001
0000
1000
0000
,
0200
0320
0032
2003
,
3010
0100
0010
0000
1000
0000
0001
0000
,
0010
0100
0010
0000
0001
0000
1000
0000
,
0001
0100
0001
0000
1000
0100
1000
0000
,
0020
0100
1000
0130
,
2002
0000
0000
0000
,
0000
0000
0000
0000
,
3003
0000
0000
0000
;

//---------------dance-single - t7r-DSP----------------
#NOTES:
     dance-single:
     t7r:
     Medium:
     12:
     :
0000
0000
0000
0000
,
0000
0000
0000
0000
,
0000
0000
0000
0000
,
0000
0000
0000
0000
,
0000
0000
0000
0000
,
0002
0000
0000
0000
,
2003
0000
0000
0000
,
3020
0000
0000
0000
,
0230
0000
0000
0000
,
0301
0000
0010
0000
0000
0001
1000
0000
,
0001
0000
0100
0001
0000
0100
0001
0000
,
1000
0000
0010
0000
0000
1000
0001
0000
,
1000
0000
0100
1000
0000
0100
1000
0000
,
0010
0000
0100
0000
0000
0001
1000
0000
,
0100
0000
0010
0100
0000
0010
0100
0000
,
1000
0000
0010
0000
1000
0000
0100
0020
,
0000
0002
0000
0033
,
1001
0000
0000
0000
0001
0000
0000
0000
0100
0000
0000
0010
0000
0000
1000
0000
,
0001
0000
0000
0000
0010
0000
0000
0001
0000
0001
0000
0000
0100
0000
0010
0000
,
1000
0000
0000
0000
0100
0000
0000
0000
0010
0000
0000
0100
0000
0000
1000
0000
,
0001
0000
0000
0000
0100
0000
0000
0010
0000
0000
0100
0000
0001
0000
1000
0000
,
0001
0010
0100
0000
1000
0010
0100
0000
,
0001
1000
0010
0000
1000
0001
0010
0000
,
0001
0100
0010
0000
1000
0100
0010
0000
,
0001
0000
0000
0000
1000
0000
0000
0000
0010
0100
0000
0001
1000
0000
0000
0000
,
0010
0000
0000
0000
1000
0000
0000
0000
0001
0000
0000
0100
0000
0000
0001
0000
,
0010
0000
0000
0000
0001
0000
0000
1000
0000
1000
0010
0000
1000
0000
0000
0000
,
0100
0000
0000
0000
0010
0000
0000
0000
0001
0000
0000
1000
0000
0000
0010
0000
,
0100
0000
0000
0000
0010
0000
0000
1000
0000
1000
0100
0000
0010
0000
0001
0000
,
1000
0000
0000
0000
0010
0000
0000
0000
0100
0000
0000
0001
0000
0000
1000
0000
,
0001
0000
0000
0000
0010
0000
0000
0100
0000
0100
0010
0000
0001
0000
0000
0000
,
0100
0000
0000
0000
0010
0000
0000
0000
1000
0000
0000
0001
0000
0000
0010
0000
,
0001
0000
0000
0100
0000
0000
1000
0000
0100
0000
0000
0001
0000
0000
1000
0000
,
0100
0000
0000
0000
0010
0000
0000
0000
0001
0000
0000
1000
0000
0000
0010
0000
,
0100
0000
0000
0000
0001
0000
0000
0010
0000
0010
1000
0000
0010
0000
0000
0000
,
0001
0000
0000
0000
0100
0000
0000
0000
0010
0000
0000
1000
0000
0000
0001
0000
,
1000
0000
0000
0000
0100
0000
0000
0001
0000
0001
0100
0000
0010
0000
0001
0000
,
1000
0000
0000
0000
0010
0000
0000
0000
0100
0000
0000
0001
0000
0000
1000
0000
,
0001
0000
0000
0000
0100
0000
0000
1000
0000
1000
0100
0000
0010
0000
0100
0000
,
0001
0000
0011
0000
1000
0000
0010
0010
,
0100
0000
0000
0110
0000
0000
0001
0000
1000
0000
0000
0000
1020
0000
0000
0000
,
1030
0000
0001
0200
1000
0000
0310
0100
,
0001
0000
0000
0000
0010
0000
0000
0001
0000
0001
1000
0000
0100
0000
0010
0000
,
0001
0000
1000
0200
0001
0000
0310
0100
,
1000
0000
0000
0000
0010
0000
0000
1000
0000
1000
0001
0000
0100
0000
0010
0000
,
1000
0000
0001
0020
1000
0000
0130
0010
,
0001
0000
0000
0000
0100
0000
0000
0001
0000
0001
1000
0000
0010
0000
0100
0000
,
0001
0000
1000
0010
0100
0000
0001
0010
,
0100
0000
0000
0010
0000
0000
0001
0000
1000
0000
0000
0000
1001
0000
0000
0000
,
1100
0000
0100
2000
0010
0000
3001
0100
,
0010
0000
0000
1000
0100
0000
0000
0010
0000
0010
0001
0000
1000
0000
0000
0000
,
0101
0000
0100
0002
0010
0000
1003
0100
,
0010
0000
0000
0001
0100
0000
0000
0010
0000
0010
1000
0000
0001
0000
0100
0000
,
0001
0000
0010
0000
0001
0000
0000
0000
0011
0000
0000
0001
1000
0000
0001
0000
,
0100
0000
0000
0000
0110
0000
0000
0010
0000
0010
1000
0000
0001
0000
1000
0000
,
0100
0001
0100
0000
1000
0010
1000
0000
,
0010
0000
0000
0000
0100
0000
0000
0000
0001
1000
0001
0000
1000
0000
0000
0000
,
2002
0000
0000
0000
,
0000
0000
0000
0000
,
3003
0000
0000
0000
,
0000
0000
0000
0000
,
0002
0000
0000
0003
,
2000
0000
0000
3000
,
0020
0000
0000
0030
,
0200
0000
0000
0300
,
0020
0001
0100
1000
,
0230
0001
0320
1000
,
0230
1000
0010
0001
,
0320
0001
2030
0100
,
3002
0010
1000
0100
,
2003
0010
3002
0100
,
0023
1000
0100
0001
,
0130
0110
1001
0001
,
1000
0010
0100
0000
0001
0010
0100
1000
,
0001
0100
0010
0000
1000
0010
0100
0001
,
1000
0001
0100
0000
0010
1000
0001
0100
,
0001
0010
0100
1000
0020
0000
0130
0000
,
0010
1000
0001
0000
1000
0100
0010
0001
,
0100
0010
1000
0000
0001
0100
0010
1000
,
0001
0010
0001
0000
1000
0100
0010
0001
,
0100
0010
1000
0000
0001
0010
0100
1000
,
0001
0000
0011
0000
1001
0001
0100
0000
,
0010
0000
1010
0000
1001
1000
0100
0000
,
0010
0000
0011
0000
1001
0001
0100
0000
,
0001
0010
0100
1000
0020
0000
0130
0000
,
0010
1000
0010
1000
0001
1000
0100
0000
,
0010
0001
0010
0001
1000
0001
0100
0000
,
0010
1000
0100
0000
0010
0001
0100
0000
,
0001
0000
0100
0000
0010
0000
1000
0000
0001
0000
0010
0000
0001
1000
0001
0000
,
0020
0000
0000
0000
,
0000
0000
0000
0000
,
0030
0000
0000
0000
;

//---------------dance-single - 47R-ESP----------------
#NOTES:
     dance-single:
     47R:
     Hard:
     16:
     :
0000
0000
0000
0000
,
0000
0000
0000
0000
,
0000
0000
0000
0000
,
0000
0000
0000
0000
,
0000
0000
0000
0000
,
0001
0000
0100
0020
0000
0000
2030
0000
,
0000
3002
0000
0103
,
0010
1000
0100
0000
0010
0001
0000
0200
,
0000
0000
0000
0000
0000
0300
0000
0000
,
0001
0010
0100
1000
0000
0100
0010
0001
,
1000
0010
0100
0001
0000
0100
0010
1000
,
0001
0010
1000
0010
0000
0100
0010
0001
,
1000
0010
0001
0010
0000
0100
0010
1000
,
0001
0010
0100
1000
0100
0010
0001
0100
,
0000
0010
1000
0100
1000
0010
0100
0000
,
1000
0100
0001
0010
0001
0100
0010
1000
,
0000
0001
0010
0100
1000
0001
0100
0010
,
1000
0000
0000
0000
0100
0000
0000
0000
0010
0000
0000
0001
0000
0000
1000
0000
,
0010
0000
0000
0000
0100
0000
0000
0001
0000
0001
0010
0000
0100
0000
1000
0001
,
0100
0000
0000
0000
0010
0000
0000
0000
1000
0000
0000
0100
0000
0000
1000
0000
,
0001
0000
0010
0000
0001
0000
1000
0010
0000
0010
0100
0000
0001
0000
1000
0000
,
0001
0100
0001
0010
0001
0100
0001
0000
,
1000
0100
1000
0010
1000
0100
1000
0000
,
0001
0100
0010
1000
0001
0010
0100
1000
,
1001
0000
0000
0000
0001
0000
0100
0000
0010
1000
0000
1000
0002
0000
0013
0001
,
1000
0000
0000
0000
0100
0000
1000
0000
0001
0000
0100
0010
0000
0000
1000
0000
,
0001
0000
0000
0000
0010
0000
0100
1000
0000
1000
0001
0000
0100
0000
0001
0010
,
0001
0000
0000
0000
0100
0000
0010
0000
1000
0000
0100
0010
0000
0000
0001
0000
,
1000
0000
0000
0000
0010
0000
0100
0010
0000
0010
1000
0000
0001
0000
1000
0000
,
0100
0000
1000
0000
0010
0000
1000
0000
0001
0000
0100
0001
0000
0000
0010
0000
,
0100
0000
1000
0000
0001
0000
0100
0010
0000
0010
1000
0000
0001
0000
0010
0100
,
1000
0000
0001
0000
0100
0000
0001
0000
0010
0000
0100
1000
0000
0000
0010
0000
,
0100
0000
0001
1000
0000
0001
0010
0000
0100
0000
1000
0001
0000
1000
0010
0000
,
1000
0000
0100
0000
0010
0000
0100
0000
0001
0000
0100
1000
0000
0000
0001
0000
,
0100
0000
0000
0000
0001
0000
0010
1000
0000
1000
0010
0000
0100
0000
1000
0001
,
1000
0000
0010
0000
0100
0000
0010
0000
0001
0000
0010
0100
0000
0000
0010
0000
,
1000
0000
0000
0000
0100
0000
0010
0001
0000
0001
1000
0000
0010
0000
0100
0001
,
1000
0000
0001
0000
0100
0000
0010
0000
1000
0000
0001
0010
0000
0000
0100
0000
,
1000
0000
0001
0000
0100
0000
0010
1000
0000
1000
0100
0000
0001
0000
0100
0010
,
0001
0000
1000
0000
0001
0000
0100
0000
0010
0000
1000
0001
0000
0000
0010
0000
,
1100
0000
0000
0101
0000
0000
1001
0000
0210
0000
0000
0000
0301
1000
0001
1000
,
0001
0000
0010
0001
0010
0000
0001
0000
0100
0000
0010
1000
0010
0000
1000
0000
,
0100
0000
1000
0010
1000
0000
0001
0010
0000
0010
0100
0000
1000
0000
0001
1000
,
0001
0000
0100
0010
0100
0000
0010
0000
1000
0000
0100
1000
0100
0000
0010
0000
,
0001
0000
0100
0001
0100
0000
0001
1000
0000
1000
0100
0000
0010
0000
0100
0010
,
0001
0000
0100
0001
1000
0000
0100
0000
1000
0000
0010
1000
0001
0000
0010
0000
,
0001
0000
0100
0001
1000
0000
0100
0010
0000
0010
0001
0000
1000
0010
0100
0000
,
0001
0010
0001
0000
1000
0000
0001
0000
1000
0010
1000
0000
0001
0000
0000
0000
,
0100
0000
0000
0010
1000
0000
0001
0000
0010
0000
0000
0001
1000
0000
0001
0000
,
1000
0000
0100
1000
0100
0000
0010
0001
1000
0010
0000
0100
0001
0000
1000
0010
,
1000
0000
0001
0010
0100
1000
0000
0001
0000
0100
0001
0000
1000
0000
0100
0010
,
0001
0000
1000
0010
1000
0000
0001
0100
0001
1000
0000
0100
0010
0001
1000
0000
,
0001
0000
0010
0000
0100
0000
0001
0100
0000
0100
1000
0000
0001
0010
0001
1000
,
0010
0000
0100
0001
0100
0000
0010
1000
0001
1000
0000
0100
0010
0000
0001
0100
,
0010
0000
1000
0001
0010
0000
0100
1000
0000
0001
0100
0000
0010
1000
0001
1000
,
0100
0000
0010
0001
0010
0000
0001
0010
0001
0000
0100
0001
0100
0000
0100
0000
,
0010
1000
0010
1000
0001
0100
0001
0000
1000
0100
0010
0001
1000
0001
0100
0000
,
0020
0000
0000
0000
,
0000
0000
0000
0000
,
0030
0000
0000
0000
,
0000
0000
0000
0000
,
2000
0000
0100
0000
3001
0010
0100
1000
,
0002
0000
0100
0000
1003
0010
0100
0001
,
2000
0000
0010
0000
3001
0010
0100
1000
,
0010
0100
0001
1000
0200
0000
0320
0000
,
0031
0100
1000
0100
0001
0100
0000
0010
,
1000
0100
0001
0100
1000
0100
0000
0100
,
1000
0010
0001
0010
0100
0010
0000
1000
,
0001
0010
0100
1000
0010
0100
1000
0001
,
0010
1000
0100
1000
0010
1000
0100
0010
,
0001
0100
0001
0010
0001
0100
0010
1000
,
0001
0010
0100
1000
0001
0100
0010
1000
,
1002
0000
0100
0000
0010
0010
0013
0000
,
0001
0000
0100
0001
0100
0000
0001
0000
1000
0100
0010
0001
1000
0000
0001
0000
,
1000
0000
0100
1000
0100
0000
1000
0000
0001
0010
0100
1000
0001
0000
1000
0000
,
0001
0000
0100
0001
0100
0000
0010
0000
1000
0010
0100
0001
1000
0000
0001
0000
,
1000
0010
1000
0010
0100
0000
0001
0000
1000
0100
1000
0100
0010
0000
0001
0000
,
1000
0000
0100
0010
0100
0000
0001
0000
0100
1000
0100
0010
0100
0000
1000
0000
,
0001
0000
0100
0010
0100
0000
1000
0000
0100
0010
0100
0001
0100
0000
0001
0000
,
1000
0000
0010
0100
0010
0000
0001
0000
0010
0100
0010
1000
0010
0000
1000
0000
,
0001
0000
0010
0100
1000
0010
0100
0000
0001
0010
0100
1000
0010
0100
0001
0000
,
1000
0000
0010
1000
0001
0100
0001
0000
1000
0010
1000
0000
0001
0010
0100
1000
,
0001
0000
1000
0100
0010
0001
0010
0000
0100
1000
0100
0000
1000
0010
0100
0001
,
1000
0000
0100
1000
0001
0100
0001
0000
1000
0100
1000
0000
0010
0100
0001
1000
,
0100
0010
0001
0010
0100
1000
0001
0000
0100
0010
1000
0001
0010
0100
1000
0001
,
0100
0000
0010
1000
0001
0010
0100
0000
1000
0100
0010
0000
0001
1000
0010
0100
,
0001
0000
1000
0100
0010
0001
0100
0000
0010
1000
0100
0000
1000
0001
0100
0010
,
1000
0001
0010
0001
0100
0001
1000
0000
0001
1000
0010
1000
0100
1000
0001
0000
,
0100
0001
0100
0001
1000
0100
1000
0100
0010
0001
1000
0010
0100
0001
1000
0100
,
0020
0000
0000
0000
,
0000
0000
0000
0000
,
0030
0000
0000
0000
;

//---------------dance-double - forcednature-BDP----------------
#NOTES:
     dance-double:
     forcednature:
     Easy:
     8:
     :
00000000
00000000
00000000
00000000
,
00000000
00000000
00000000
00000000
,
00000000
00000000
00000000
00000000
,
00000000
00000000
00000000
00000000
,
00000000
00000000
00000000
00000000
,
00001000
00000000
00000000
00010000
00000000
00000000
00000200
00000000
,
00000300
00002000
00000000
00003000
,
00000000
00000000
00000001
00000000
00000100
00000000
00000000
00000020
,
00000000
00000000
00000000
00000000
00000000
00000030
00000000
00000000
,
00010000
00001000
00000000
00001000
,
00100000
00010000
00100000
00000000
,
01000000
10000000
00000000
10000000
,
00010000
01000000
00010000
00000000
,
00100000
00001000
00010000
00000000
,
00000010
00010000
00001000
00000000
,
01000000
00010000
10000000
00010000
,
00100000
00001000
00010000
00000000
,
00011000
00000000
00000100
00000100
,
00001000
00001000
00000001
00000001
,
00000100
00000100
00000010
00000010
,
00010000
00010000
00001000
00001000
,
00100000
00010000
00100000
00010000
,
10000000
00100000
10000000
00100000
,
01000000
00010000
01000000
00001000
,
00020000
00000000
00030100
00000000
,
00011000
00000000
00000100
00001000
,
00000010
00000000
00000100
00000001
,
00001000
00000000
00000100
00010000
,
00001000
01000000
00010000
00100000
,
00010000
00000000
10000000
00100000
,
01000000
00000000
00010000
00100000
,
00010000
00000000
01000000
00001000
,
00010000
00000100
00001000
00000100
,
00000010
00000000
00000001
00000100
,
00000010
00000000
00001000
00000100
,
00010000
00000000
00001000
01000000
,
00010000
00100000
01000000
10000000
,
01000000
00000000
00100000
00010000
,
01000000
00000000
00001000
00010000
,
00000100
00000100
00001000
00000001
,
00000100
00000000
00000000
00000010
00000000
00000000
00000200
00000000
00000000
00000000
00000000
00000000
00000300
00000000
00000000
00000000
,
00000001
00000010
00000100
00010000
,
00001000
01000000
00010000
00000000
,
10000000
00100000
01000000
00010000
,
00100000
00001000
00010000
00000000
,
00000010
00000010
00001000
00000100
,
00000020
00000001
00000031
00000000
,
00000010
00000100
00001000
00000100
,
00020000
00001000
00031000
00000000
,
00010000
00000000
00001000
00000000
01000000
00010000
01000000
00000000
,
00100000
10000000
00010000
00000000
,
00100000
00000000
01000000
00000000
00100000
00010000
00100000
00000000
,
00001000
00010000
00000010
00000000
,
00001000
00001000
00000100
00000010
,
00000110
00000100
00001000
00000001
,
00002002
00000000
00000000
00003003
,
00001000
00000100
00010000
00001000
,
02000000
00000000
00000000
00000000
,
00000000
00000000
03000000
00000000
,
00200000
00000000
00000000
00300000
,
20000000
00000000
00000000
30000000
,
02000000
00000000
00000000
03000000
,
00200000
00000000
00000000
00300000
,
00002000
00000000
00000000
00003000
,
00020000
00000000
00000000
00030000
,
00000010
00001000
00000100
00000000
,
00010000
00001000
00100000
00000000
,
00010000
01000000
00100000
00000000
,
10000000
00010000
00100000
01000000
,
00100000
00001000
00010000
00000000
,
00000010
00001000
00000001
00000000
,
00000010
00000001
00001000
00000000
,
00000010
00000100
00000001
00000100
,
00000010
00001000
00000010
00000000
00001000
00000000
00000010
00000000
,
00010000
00001000
00010000
00000000
00001000
00000000
00010000
00000000
,
00000100
00001000
00000100
00000000
00001000
00000000
00000100
00000000
,
00020000
00032000
02003000
03020000
,
00130000
01000000
00100000
00000000
01000000
00000000
00100000
00000000
,
00010000
10000000
00010000
00000000
10000000
00000000
00010000
00000000
,
01000000
00001000
01000000
00000000
00001000
00000000
01000000
00000000
,
00010000
00100000
00002000
00023000
,
00030010
00001000
00000010
00000000
00000100
00000000
00000001
00000000
,
00001000
00000100
00001000
00000000
00000001
00000000
00000010
00000000
,
00000100
00001000
00000100
00000000
00010000
00000000
00001000
00000000
,
02000000
03020000
20030000
32000000
,
03100000
00010000
00100000
00000000
01000000
00000000
10000000
00000000
,
00100000
01000000
00100000
00000000
10000000
00000000
00010000
00000000
,
01000000
00001000
00010000
00000000
00000100
00010000
00001000
00000000
,
00200000
00010000
00001000
00310000
,
20020000
00000000
00000000
00000000
,
00000000
00000000
00000000
00000000
,
30030000
00000000
00000000
00000000
;

//---------------dance-double - t7r-DDP----------------
#NOTES:
     dance-double:
     t7r:
     Medium:
     12:
     :
00000000
00000000
00000000
00000000
,
00000000
00000000
00000000
00000000
,
00000000
00000000
00000000
00000000
,
00000000
00000000
00000000
00000000
,
00000000
00000000
00000000
00000000
,
02000000
00000000
00000000
00000000
,
03020000
00000000
00000000
00000000
,
20030000
00000000
00000000
00000000
,
30200000
00000000
00000000
00000000
,
00310000
00000000
00001000
00000000
00000000
00010000
00000100
00000000
,
00001000
00000000
00000010
00000100
00000000
00000010
00000100
00000000
,
00000001
00000000
00000010
00000000
00000000
00000100
00010000
00000000
,
00001000
00000000
01000000
00010000
00000000
01000000
00010000
00000000
,
10000000
00000000
00100000
00000000
00000000
01000000
00010000
00000000
,
10000000
00000000
01000000
00100000
00000000
01000000
00100000
00000000
,
00001000
00000000
00010000
00000000
00000010
00000000
00000100
00000002
,
00000000
00002000
00000000
00003003
,
00001001
00000000
00000000
00000000
00000001
00000000
00000000
00000000
00000010
00000000
00000000
00000100
00000000
00000000
00001000
00000000
,
00000001
00000000
00000000
00000000
00000100
00000000
00000000
00000010
00000000
00000010
00000000
00000000
00001000
00000000
00000100
00000000
,
00010000
00000000
00000000
00000000
00001000
00000000
00000000
00000000
00100000
00000000
00000000
00010000
00000000
00000000
10000000
00000000
,
00100000
00000000
00000000
00000000
01000000
00000000
00000000
00100000
00000000
00000000
10000000
00000000
00010000
00000000
01000000
00000000
,
00010000
10000000
01000000
00000000
00100000
00000000
00001000
00000000
,
00010000
00000010
00001000
00000000
00000001
00000000
00000010
00000000
,
00000001
00000100
00000010
00000000
00001000
00000100
00010000
00000000
,
00001000
00000000
00000000
00000000
00010000
00000000
00000000
00000000
01000000
00100000
00000000
00010000
10000000
00000000
00000000
00000000
,
10010000
00000000
00000000
00000000
10000000
00000000
00000000
00000000
01000000
00000000
00000000
00100000
00000000
00000000
00001000
00000000
,
00010000
00000000
00000000
00000000
00000010
00000000
00000000
00000100
00000000
00000100
00000001
00000000
00001000
00000000
00000000
00000000
,
00000001
00000000
00000000
00000000
00000010
00000000
00000000
00000000
00000100
00000000
00000000
00001000
00000000
00000000
00000001
00000000
,
00000100
00000000
00000000
00000000
00001000
00000000
00000000
00010000
00000000
00010000
00001000
00000000
00010000
00000000
00000000
00000000
,
00100000
00000000
00000000
00000000
01000000
00000000
00000000
00000000
00010000
00000000
00000000
00100000
00000000
00000000
00010000
00000000
,
10000000
00000000
00000000
00000000
00100000
00000000
00000000
01000000
00000000
01000000
00010000
00000000
00100000
00000000
00000000
00000000
,
00001000
00000000
00000000
00000000
00010000
00000000
00000000
00000000
00000010
00000000
00000000
00001000
00000000
00000000
00000001
00000000
,
00000100
00000000
00000000
00001000
00000000
00000000
00010000
00000000
01000000
00000000
00000000
10000000
00000000
00000000
00010000
00000000
,
10000000
00000000
00000000
00000000
00100000
00000000
00000000
00000000
10000000
00000000
00000000
01000000
00000000
00000000
00100000
00000000
,
00001000
00000000
00000000
00000000
00010000
00000000
00000000
00001000
00000000
00001000
00000100
00000000
00000010
00000000
00000000
00000000
,
00001000
00000000
00000000
00000000
00000001
00000000
00000000
00000000
00000010
00000000
00000000
00000100
00000000
00000000
00000010
00000000
,
00000001
00000000
00000000
00000000
00000100
00000000
00000000
00001000
00000000
00001000
00010000
00000000
00100000
00000000
00000000
00000000
,
01000000
00000000
00000000
00000000
00010000
00000000
00000000
00000000
10000000
00000000
00000000
01000000
00000000
00000000
00100000
00000000
,
00001000
00000000
00000000
00000000
00010000
00000000
00000000
00001000
00000000
00001000
00000010
00000000
00000001
00000000
00000000
00000000
,
00000100
00011000
01000000
10010000
,
00100000
00000000
00000000
01100000
00000000
00000000
10000000
00000000
01000000
00000000
00000000
00000000
12000000
00000000
00000000
00000000
,
13000000
00000000
01000000
00200000
00010000
00000000
01300000
00100000
,
00001000
00000000
00000000
00000000
00010000
00000000
00000000
00000100
00000000
00000100
00001000
00000000
00000001
00000000
00001000
00000000
,
00000001
00000000
00000100
00000020
00001000
00000000
00000130
00000010
,
00010000
00000000
00000000
00000000
00001000
00000000
00000000
01000000
00000000
01000000
00010000
00000000
10000000
00000000
00100000
00000000
,
10000000
00000000
00100000
02000000
00010000
00000000
03100000
01000000
,
00001000
00000000
00000000
00000000
00010000
00000000
00000000
00000010
00000000
00000010
00001000
00000000
00000001
00000000
00000010
00000000
,
00000001
00000000
00000010
00000100
00001000
00000020
00000100
00000000
,
00001030
00000000
00000000
00000001
00000000
00000000
00000100
00000000
00001000
00000000
00000000
00010000
00000000
00000000
01000000
00000000
,
00100000
00000000
00110000
00020000
01000000
00000000
00130000
00010000
,
10000000
00000000
00000000
00000000
01000000
00000000
00000000
00010000
00000000
00010000
00001000
00000000
00010000
00000000
00000010
00000000
,
00001000
00000000
00001010
00002000
00000100
00000000
00003010
00001000
,
00000001
00000000
00000000
00000000
00000100
00000000
00000000
00001000
00000000
00001000
00010000
00000000
00001000
00000000
00100000
00000000
,
00010000
00000000
01000000
00000000
00100000
00000000
10000000
00000000
00010000
00000000
00000000
00100000
00001000
00000000
00000000
00000000
,
00010000
00000000
00000100
00000000
00001000
00000000
00000001
00000000
00001000
00000000
00000000
00000001
00000100
00000000
00000001
00000000
,
00001000
00000100
00000010
00000000
00000001
00000100
00000010
00000000
,
00001000
00000100
00010000
00000000
00001000
01000000
00010000
10000000
,
00200000
00000000
00000000
00000000
,
00000000
00000000
00000000
00000000
,
00300000
00000000
00000000
00000000
,
00000000
00000000
00000000
00000000
,
20000000
00000000
00000000
30000000
,
02000000
00000000
00000000
03000000
,
00200000
00000000
00000000
00300000
,
00002000
00000000
00000000
00003000
,
00020000
01000000
00001000
00000100
,
00032000
01000000
00023000
00000010
,
00032000
00000010
00010000
00100000
,
00023000
00000010
00032000
01000000
,
00023000
01000000
00001000
00000010
,
00032000
00000100
00010000
00100000
,
00013000
00000100
00001000
00000000
00000001
00000100
00000010
00000000
,
00001000
00000100
00010000
00000000
00001000
00000000
00011000
00000000
,
00010000
01000000
10000000
00000000
00200000
00000000
01300000
00000000
,
00100000
10000000
01000000
00000000
00100000
00001000
00010000
00000000
,
00001000
00000100
00000010
00000000
00002000
00000000
00003100
00000000
,
00000010
00000001
00001000
00000001
00000010
00000100
00010000
00000000
,
00000100
00001000
00000001
00000000
00000200
00000000
00000310
00000000
,
00001000
00000010
00000100
00000000
00000001
00000010
00000100
00000000
,
00010000
00001000
00100000
00010000
10000000
00000000
00100000
00000000
,
10000000
01000000
00100000
00001000
00010000
00000000
00001000
00000000
,
00000100
00000010
00000100
00000001
00000200
00000000
00000310
00000000
,
00001000
00000100
00000010
00000001
00002000
00000000
00003001
00000000
,
00000100
00001000
00010000
00000000
00100000
01000000
00010000
00000000
,
00100000
01000000
10000000
00100000
02000000
00000000
03010000
00000000
,
10000000
01000000
00010000
00000000
00002000
00000000
00013000
00000000
,
00001000
00000010
00000100
00000000
00000020
00000000
00000031
00000000
,
00000100
00000010
00001000
00000000
00000001
00000100
00000010
00000000
,
00001000
00000000
00000100
00000000
00010000
00000000
00001000
00000000
01000000
00000000
00100000
00000000
10000000
00010000
10000000
00000000
,
00200000
00000000
00000000
00000000
,
00000000
00000000
00000000
00000000
,
00300000
00000000
00000000
00000000
;

//---------------dance-double - 47R-EDP----------------
#NOTES:
     dance-double:
     47R:
     Hard:
     16:
     :
00000000
00000000
00000000
00000000
,
00000000
00000000
00000000
00000000
,
00000000
00000000
00000000
00000000
,
00000000
00000000
00000000
00000000
,
00000000
00000000
00000000
00000000
,
00000001
00000000
00000100
00000020
00000000
00000000
00002030
00000000
,
00000000
00003002
00000000
00000000
,
00000013
00001000
00010000
00000000
00100000
01000000
00000000
00020000
,
00000000
00000000
00000000
00000000
00000000
00030000
00000000
00000000
,
10000000
01000000
00100000
00010000
00000000
10000000
00100000
01000000
,
00010000
00100000
00001000
00010000
00000000
00000010
00001000
00000001
,
00000100
00000010
00001000
00000100
00000000
00010000
00001000
01000000
,
00010000
00100000
00001000
00000000
00010000
00000100
00001000
00000001
,
00001000
00000100
00010000
00001000
00100000
00010000
01000000
00100000
,
00000000
00100000
00010000
00001000
00010000
00000010
00001000
00000000
,
00000001
00000010
00001000
00010000
00001000
00000010
00000001
00000100
,
00000000
00000100
00001000
00010000
01000000
10000000
00100000
00000000
,
10000000
00000000
00000000
00000000
01000000
00000000
00000000
00000000
00100000
00000000
00000000
00010000
00000000
00000000
10000000
00000000
,
00100000
00000000
00000000
00000000
00010000
00000000
00000000
00001000
00000000
00001000
00010000
00000000
00001000
00000000
00000100
00000010
,
00001000
00000000
00000000
00000000
00000001
00000000
00000000
00000000
00000010
00000000
00000000
00001000
00000000
00000000
00010000
00000000
,
00100000
00000000
01000000
00000000
00010000
00000000
00000000
00100000
00000000
00100000
01000000
00000000
10000000
00000000
00010000
00000000
,
01000000
10000000
01000000
00010000
01000000
00001000
00010000
00000000
,
00000100
00000001
00000100
00001000
00000100
00010000
00001000
00000000
,
00100000
01000000
00100000
00010000
00001000
00000010
00000100
00000010
,
00001001
00000000
00000000
00000000
00001000
00000000
00000100
00000000
00010000
00001000
00000000
00001000
02000000
00000000
03010000
10000000
,
00100000
00000000
00000000
00000000
10000000
00000000
01000000
00000000
00100000
00000000
00010000
10000000
00000000
00000000
00100000
00000000
,
00010000
00000000
00000000
00000000
00001000
00000000
00000100
00000010
00000000
00000010
00001000
00000000
00000001
00000000
00000010
00000100
,
00001000
00000000
00000000
00000000
00000001
00000000
00000100
00000000
00000010
00000000
00010000
00001000
00000000
00000000
01000000
00000000
,
00010000
00000000
00000000
00000000
10000000
00000000
00100000
00010000
00000000
00010000
00001000
00000000
00100000
00000000
00010000
00000000
,
00100000
00000000
00001000
00000000
00010000
00000000
00001000
00000000
01000000
00000000
00010000
10000000
00000000
00000000
01000000
00000000
,
00010000
00000000
00001000
00000000
00100000
00000000
00010000
01000000
00000000
01000000
00001000
00000000
00010000
00000000
00000100
00001000
,
00000010
00000000
00000100
00000000
00001000
00000000
00000100
00000000
00000001
00000000
00000010
00000100
00000000
00000000
00001000
00000000
,
00000010
00000000
00010000
00001000
00000000
01000000
00010000
00000000
00100000
00000000
00001000
00010000
00000000
00000100
00001000
00000000
,
00000001
00000000
00000100
00000000
00000010
00000000
00000100
00000000
00001000
00000000
00000100
00000001
00000000
00000000
00000010
00000000
,
00001000
00000000
00010000
00000000
01000000
00000000
00100000
00010000
00000000
00010000
10000000
00000000
01000000
00000000
00100000
01000000
,
10000000
00000000
00100000
00000000
01000000
00000000
00100000
00000000
00010000
00000000
00100000
01000000
00000000
00000000
00100000
00000000
,
10000000
00000000
01000000
00000000
00010000
00000000
00001000
00010000
00000000
00010000
00001000
00000000
00000010
00000000
00000100
00000000
,
00010000
00000000
00000100
00000000
00001000
00000000
00000010
00000000
00000100
00000000
00001000
00000100
00000000
00000000
00000001
00000000
,
00001000
00000000
00000010
00000000
00010000
00000000
00001000
00100000
00000000
00100000
01000000
00000000
00010000
00000000
00001000
01000000
,
00010000
00000000
00100000
00000000
01000000
00000000
00100000
00000000
10000000
00000000
00100000
00010000
00000000
00000000
01000000
00000000
,
01001000
00000000
00000000
00010100
00000000
00000000
00000100
00000000
00000020
00000000
00000000
00000000
00000031
00001000
00000001
00001000
,
00000001
00000000
00000100
00000001
00000100
00000000
00000001
00000000
00001000
00000000
00000100
00001000
00000100
00000000
00010000
00000000
,
00001000
00000000
00100000
00010000
00100000
00000000
00010000
01000000
00000000
01000000
00100000
00000000
10000000
00000000
01000000
00100000
,
00010000
00000000
10000000
00100000
10000000
00000000
00010000
00000000
10000000
00000000
01000000
00100000
01000000
00000000
00100000
00000000
,
00001000
00000000
00010000
00001000
00010000
00000000
00000010
00001000
00000000
00001000
00000001
00000000
00001000
00000000
00000001
00000010
,
00000100
00000000
00000010
00000001
00001000
00000000
00000001
00000000
00000100
00000000
00000010
00001000
00000001
00000000
00000100
00000000
,
00001000
00000000
00010000
00100000
01000000
00000000
00100000
10000000
00000000
10000000
00010000
00000000
10000000
00000000
01000000
00100000
,
00010000
00000000
01000000
00010000
10000000
00000000
00100000
00000000
00010000
00000000
00001000
00010000
00001000
00000000
00000100
00000000
,
00000010
00000000
00000000
00001000
00000100
00000000
00010000
00000000
00001000
00000000
00000000
00000000
00011000
00000000
00000000
00000000
,
00001000
00000000
01000000
00010000
01000000
00000000
00100000
00000000
10000000
01000000
00000000
00100000
00010000
00000000
00100000
00001000
,
00100000
00000000
00001000
00010000
00000010
00001000
00000000
00000100
00000000
00001000
00000001
00000000
00000100
00000000
00000010
00010000
,
00001000
00000000
00100000
00010000
00100000
00000000
01000000
00000000
10000000
00010000
00000000
01000000
00100000
00000000
10000000
00000000
,
01000000
00000000
00010000
00000000
00001000
00000000
00000010
00000100
00000000
00000100
00001000
00000000
00000001
00000100
00000010
00000000
,
00000100
00000000
00001000
00010000
00001000
00000000
00100000
00010000
00100000
00000000
01000000
10000000
00010000
00000000
01000000
00000000
,
01100000
00000000
00100000
00000000
10000000
00000000
00010000
00100000
00000000
00100000
01000000
00000000
00010000
00001000
00010000
00000000
,
00000010
00000000
00001000
00000100
00001000
00000000
00000001
00000100
00000001
00000000
00001000
00000100
00001000
00000000
00000010
00000000
,
00010000
00001000
00010000
00001000
01000000
00010000
01000000
00000000
00100000
10000000
01000000
00100000
00010000
01000000
00100000
00000000
,
20000000
00000000
00000000
00000000
,
00000000
00000000
00000000
00000000
,
30000000
00000000
00000000
00000000
,
00000000
00000000
00000000
00000000
,
00020000
00000000
00100000
00000000
10030000
01000000
00010000
00000000
,
00002000
00000000
01000000
00000000
00013000
00001000
00000010
00000000
,
00000002
00000000
00000100
00000000
00001003
00000010
00000001
00000000
,
00000010
00001000
00000100
00010000
00002000
00000000
00003010
00000000
,
00000001
00000100
00001000
00000100
00000001
00000010
00000000
00000010
,
00001000
00010000
01000000
00010000
00001000
00100000
00000000
01000000
,
10000000
00100000
00010000
00100000
01000000
00001000
00000000
00100000
,
01000000
00010000
00001000
00000100
00000010
00010000
00001000
00000010
,
00000001
00000100
00000010
00001000
00010000
01000000
00100000
10000000
,
00010000
00100000
01000000
10000000
01000000
00010000
00001000
00000010
,
00000100
00010000
00001000
00000100
00000001
00000010
00000100
00010000
,
00021000
00000000
00000010
00000000
00000100
00000100
00030100
00000000
,
00010000
00000000
00000100
00001000
00000100
00000000
00001000
00000000
00000001
00000010
00000100
00001000
00000001
00000000
00001000
00000000
,
00000001
00000000
00000010
00000001
00000010
00000000
00000001
00000000
00001000
00000010
00000100
00000001
00001000
00000000
00000001
00000000
,
00000100
00000000
00001000
00010000
00001000
00000000
00010000
00000000
00100000
01000000
00010000
10000000
00100000
00000000
10000000
00000000
,
01000000
10000000
01000000
10000000
00010000
00000000
00100000
00000000
00001000
00010000
00001000
00010000
00000010
00000000
00001000
00000000
,
00000001
00000000
00000100
00000010
00000100
00000000
00001000
00000000
00000100
00000010
00000100
00000001
00000100
00000000
00000001
00000000
,
00001000
00000000
00000100
00000010
00000100
00000000
00000001
00000000
00000100
00001000
00000100
00010000
00001000
00000000
00010000
00000000
,
00001000
00000000
00010000
01000000
00100000
00000000
01000000
00000000
10000000
00100000
10000000
00010000
10000000
00000000
01000000
00000000
,
00010000
00000000
00001000
00000100
00000010
00000000
00001000
00000100
00000010
00000001
00001000
00000010
00010000
00001000
00010000
00000000
,
00001000
00000000
01000000
00000000
00010000
00100000
00010000
00000000
00100000
01000000
00100000
00000000
01000000
10000000
00010000
10000000
,
00100000
00000000
01000000
00000000
00001000
01000000
00001000
00000000
00010000
00001000
00010000
00000000
00000100
00001000
00000100
00000010
,
00000001
00000000
00000100
00000000
00000010
00001000
00000010
00000000
00010000
00001000
00010000
00000000
00000100
00001000
00000100
00010000
,
00001000
00100000
00010000
00100000
01000000
10000000
01000000
00000000
10000000
00100000
10000000
00010000
01000000
00001000
00010000
00000000
,
00000100
00000000
00001000
00000000
00000001
00000100
00000010
00000000
00001000
00000010
00000100
00000000
00000001
00001000
00000100
00000010
,
00000100
00000000
00010000
00000000
00001000
00100000
00010000
00000000
01000000
00010000
00100000
00000000
00001000
00010000
00001000
01000000
,
00010000
00000000
00100000
00000000
01000000
10000000
00010000
00000000
00100000
00001000
00010000
00000000
00000010
00001000
00000010
00000100
,
00000001
00000000
00000010
00000000
00001000
00000000
00010000
00000000
01000000
10000000
00010000
10000000
00100000
01000000
00010000
00100000
,
02000000
00000000
00000000
00000000
,
00000000
00000000
00000000
00000000
,
03000000
00000000
00000000
00000000
;
