#VERSION:0.83;
#TITLE:Everybody In The House;
#ARTIST:Relect;
#BANNER:Everybody In The House.png;
#BACKGROUND:Everybody In The House-bg.png;
#JACKET:Everybody In The House-jacket.png;
#MUSIC:Everybody In The House.ogg;
#OFFSET:-0.016;
#SAMPLESTART:94.604;
#SAMPLELENGTH:15;
#BPMS:0=170;

//---------------dance-single - Marten-ESP----------------
#NOTEDATA:;
#CHARTNAME:Marten-ESP;
#STEPSTYPE:dance-single;
#DESCRIPTION:Marten-ESP;
#DIFFICULTY:Hard;
#METER:13;
#RADARVALUES:0.602030,0.699417,0.120406,0.311639,0.262060,595,578,17,44,0,0,0,0,0,0.602030,0.699417,0.120406,0.311639,0.262060,595,578,17,44,0,0,0,0,0;
#CREDIT:Marten;
#NOTES:
0000
0000
0000
0000
,
0000
0000
0000
0000
,
0000
0000
0000
0000
,
0000
0000
0000
0000
,
0000
0000
0000
0000
,
1000
0100
0010
0001
1000
0100
0010
0001
,
1000
0010
0100
0001
1000
0010
0100
0001
,
1000
0100
0001
0100
1000
0001
1000
0000
,
0010
0000
0100
0020
0000
0000
0130
0000
,
2002
0000
0000
0000
,
0000
0000
3003
0000
,
0001
0000
0000
0000
1000
0000
0000
0010
0000
0000
0010
0000
0100
0000
0001
0000
,
1000
0000
0000
0000
1000
0000
0000
0100
0000
0000
0100
0000
1000
0000
0000
0000
,
0000
0000
0010
0000
0000
0010
0000
0000
,
0010
0000
0000
0000
0000
0000
0010
0000
0000
0010
0000
0000
0100
0000
0001
0000
,
0010
0000
0000
0000
0001
0000
0000
1000
0000
0000
1000
0000
0010
0000
0100
0000
,
0010
0000
0000
0000
1000
0000
0000
0001
0000
0000
0001
0000
0010
0000
0000
0000
,
0000
0000
0100
0000
0000
0100
0000
0000
,
0100
0000
0000
0200
0000
0000
0000
0000
,
1300
0000
0000
0000
0010
0000
0000
0100
0000
0000
0010
0000
1000
0000
0001
0000
,
0010
0000
0000
0000
1000
0000
0000
0010
0000
0000
0001
0000
1000
0000
0000
0000
,
0100
0000
1000
0000
0010
1000
0100
0000
,
1000
0000
0000
0000
0001
0000
1000
0000
0000
1000
0000
0000
1000
0000
0001
0000
,
0010
0000
0000
0000
0100
0000
0000
0010
0000
0000
0001
0000
0100
0000
0100
0000
,
0001
0000
0000
0000
0010
0000
0000
1000
0000
0000
0010
0000
0001
0000
0000
0000
,
0010
0000
0001
0000
0100
0001
0010
0000
,
0001
0000
0000
0000
0100
0000
0001
0000
0000
0001
0000
0000
1000
0000
0001
0000
,
0100
0000
0000
0000
0001
0000
0000
1000
0100
0000
1000
0000
0001
0000
0010
0000
,
0100
0000
0000
0000
1000
0000
0000
0001
0100
0000
0100
0000
0001
0000
0000
0000
,
1000
0000
1010
0000
0100
0001
1000
0000
,
1010
0000
0000
0000
1000
0000
0100
0000
0000
0100
0000
0000
0010
0000
0001
0000
,
1000
0000
0000
0000
0010
0000
0000
0100
0010
0000
1000
0000
0001
0000
0010
0000
,
0001
0000
0000
0000
0100
0000
0000
0001
0010
0000
0100
0000
1000
0000
0000
0000
,
0001
0000
0011
0000
0001
1000
0100
0000
,
0011
0000
0000
0000
0001
0000
1000
0000
0000
1000
0000
0000
0010
0000
0100
0000
,
0020
0000
0000
0000
,
0000
0000
0000
0000
,
0000
0000
0000
0000
,
0000
0000
0030
0000
,
0010
0000
0000
1000
0000
0000
1000
0000
0100
0000
1000
0000
0001
0000
1000
0000
,
0100
0000
0000
0100
0000
0000
0100
0000
0010
0000
0001
0000
0010
0000
0100
0000
,
1000
0000
0000
0010
0000
0000
0010
0000
0100
0000
0001
0000
0100
0000
0010
0000
,
1000
0000
0000
0001
0000
0000
0001
0000
0010
0000
0001
0000
0100
0000
0000
0000
,
0001
0000
0010
0001
0010
0000
0100
0000
1000
0000
0001
0000
0100
0000
0001
0000
,
1000
0000
0010
1000
0010
0000
0100
0000
0001
0000
1000
0000
0100
0000
0010
0000
,
0001
0000
1000
0100
1000
0000
0001
0000
1000
0000
0010
0000
0100
0000
0010
0000
,
1000
0000
0001
0100
0001
0000
1000
0000
0100
0000
0010
0000
0001
0000
1000
0000
,
0001
0001
1000
1000
0010
0010
0100
0100
,
0001
0010
1000
0001
0100
1000
0001
1000
,
0020
0000
0000
0030
,
2000
0000
0000
0002
0000
0000
3003
0000
,
0010
0000
1000
0001
0000
1000
0001
0000
0010
0000
0001
0000
0100
0000
0010
0000
,
1000
0000
0100
1000
0000
0100
1000
0000
0010
0000
1000
0000
0001
0000
0100
0000
,
0001
0000
0010
0001
0000
0010
0001
0000
1000
0000
0100
0000
0010
0000
0100
0000
,
1000
0000
0010
0100
0000
0010
0100
0000
0001
0000
0100
0000
0010
0000
0100
0000
,
0001
0000
1000
0100
0000
1000
0100
0000
0010
0000
0001
0000
1000
0000
0010
0000
,
1000
0000
0001
0100
0000
0001
0100
0000
0010
0000
1000
0000
0010
0000
0100
0000
,
0001
0000
0010
0100
0000
0010
0100
0000
1000
0000
0001
0000
1000
0000
0010
0000
,
0100
0000
0000
0100
0000
0000
0100
0000
0110
0000
0000
0000
1001
0000
0000
0000
,
0001
0000
0000
0011
0000
0000
0101
0000
0001
0000
1000
0000
0100
0000
1000
0000
,
0010
0000
0000
0110
0000
0000
1010
0000
1000
0000
0100
0000
0001
0000
0100
0000
,
1000
0000
0000
1001
0000
0000
0101
0000
0001
0000
0100
0000
0010
0000
0100
0000
,
0001
0000
0000
0011
0000
0000
0110
0000
0100
0000
1000
0000
0001
0000
1000
0000
,
0010
0000
1000
0100
0000
1000
0010
0000
0100
0000
0001
0000
1000
0000
0001
0000
,
0100
0000
0001
0010
0000
0001
0100
0000
0001
0000
0010
0000
1000
0000
0010
0000
,
0002
0000
0000
0000
,
2003
0000
0000
0002
0000
0000
3003
0000
,
2001
0000
0000
0000
3020
0000
0000
1030
0100
0000
0010
0000
0100
0000
1000
0000
,
0002
0000
0000
0000
2003
0000
0000
3010
0100
0000
0100
0000
0002
0000
0000
0000
,
1003
0000
0200
1300
0010
0200
0301
1000
,
0200
0000
0310
0000
0001
0000
0100
0000
0000
0100
0000
0000
0001
0000
1000
0000
,
0020
0000
0000
0000
0230
0000
0000
0301
0010
0000
0001
0000
1000
0000
0100
0000
,
2000
0000
0000
0000
3020
0000
0000
0130
0001
0000
0001
0000
2000
0000
0000
0000
,
3100
0000
0020
0031
1000
0020
0130
0001
,
0020
0000
0031
0000
0100
0000
0010
0000
0000
0010
0000
0000
1000
0000
0001
0000
,
2000
0000
0000
0000
3002
0000
0000
0013
0100
0000
0010
0000
0001
0000
1000
0000
,
0200
0000
0000
0000
2300
0000
0000
3010
0100
0000
1000
0000
0200
0000
0000
0000
,
0301
0000
2000
3100
0001
2000
3010
0001
,
2000
0000
3100
0000
0001
0000
1000
0000
0000
1000
0000
0000
0010
0000
0001
0000
,
2000
0000
0000
0000
3002
0000
0000
0013
0000
0000
0100
0000
1000
0000
1000
0000
,
0020
0000
0000
0000
0230
0000
0000
0301
0000
0000
1000
0000
0002
0000
0000
0000
,
0013
0000
0002
0103
1000
0002
0013
1000
,
0002
0000
0103
0000
1000
0000
0001
0000
0000
0001
0000
0000
0010
0000
1000
0000
,
0001
0000
0000
0010
0001
0000
1000
0000
0001
0000
0000
0100
0010
0000
1000
0000
,
0010
0000
0000
1000
0100
0000
1000
0000
0001
0000
0000
0010
0001
0000
0100
0000
,
0010
0000
0000
1000
0010
0000
0100
0000
0010
0000
0000
1000
0100
0000
0010
0000
,
0100
0000
0000
1000
0001
0000
0100
0000
0001
0000
0000
0010
0100
0000
0010
0000
,
0001
0000
0000
1000
0010
0000
0100
0000
0010
0000
0000
1000
0100
0000
0010
0000
,
0001
0000
0000
0100
0010
0000
1000
0000
0001
0000
0000
0010
0001
0000
0100
0000
,
0010
0000
0000
1000
0001
0000
1000
0000
0100
0000
0000
0010
0001
0000
1000
0000
,
0100
0100
0100
1001
,
1000
0100
1000
0100
1000
0010
1000
0010
,
0100
0001
0100
0001
0010
0001
0010
0001
,
1000
0001
1000
0001
0100
0010
0100
0010
,
1000
0001
1000
0001
0010
0100
0010
0100
,
1000
0010
0100
0001
1000
0010
0100
0001
,
1000
0100
0010
0001
1000
0100
0010
0001
,
1000
0100
0001
0100
1000
0001
1000
0000
,
0010
0000
0100
0020
0000
0000
0130
0000
;

//---------------dance-single - Marten-DSP----------------
#NOTEDATA:;
#CHARTNAME:Marten-DSP;
#STEPSTYPE:dance-single;
#DESCRIPTION:Marten-DSP;
#DIFFICULTY:Medium;
#METER:11;
#RADARVALUES:0.477577,0.594505,0.099158,0.198316,0.162902,472,458,14,28,0,0,0,0,0,0.477577,0.594505,0.099158,0.198316,0.162902,472,458,14,28,0,0,0,0,0;
#CREDIT:Marten;
#NOTES:
0000
0000
0000
0000
,
0000
0000
0000
0000
,
0000
0000
0000
0000
,
0000
0000
0000
0000
,
0000
0000
0000
0000
,
0100
1000
0001
0000
0100
0001
1000
0000
,
0010
1000
0001
0000
0010
0001
1000
0000
,
0001
1000
0001
0010
0100
1000
0001
0000
,
0010
0000
0100
0020
0000
0000
0130
0000
,
2002
0000
0000
0000
,
0000
0000
3003
0000
,
1000
0000
0000
0000
0001
0000
0000
0001
0000
0000
1000
0000
0100
0000
0000
0000
,
0010
0000
0000
0000
0100
0000
0000
0100
0000
0000
1000
0000
0001
0000
0000
0000
,
0000
0000
0100
0000
0000
0100
0000
0000
,
0100
0000
0000
0000
0000
0000
0100
0000
0000
0100
0000
0000
0100
0000
0000
0000
,
0001
0000
0000
0000
0010
0000
0000
0010
0000
0000
0100
0000
1000
0000
0000
0000
,
0001
0000
0000
0000
1000
0000
0000
1000
0000
0000
0010
0000
0100
0000
0000
0000
,
0000
0000
0010
0000
0000
0010
0000
0000
,
0010
0000
0000
0020
0000
0000
0000
0000
,
1030
0000
0000
0000
0100
0000
0000
0010
0000
0000
0001
0000
1000
0000
0000
0000
,
0001
0000
0000
0000
0100
0000
0000
0010
0000
0000
1000
0000
0001
0000
0000
0000
,
0000
0000
1000
0000
0010
1000
0000
1000
,
0100
0000
0000
0000
0100
0000
0010
0000
0000
0010
0000
0000
0010
0000
0100
0000
,
1000
0000
0000
0000
0010
0000
0000
0100
0000
0000
0001
0000
1000
0000
0000
0000
,
0001
0000
0000
0000
0010
0000
0000
0100
0000
0000
1000
0000
0001
0000
0000
0000
,
1000
0000
0001
0000
0010
0001
0000
0001
,
0100
0000
0000
0000
0100
0000
0010
0000
0000
0010
0000
0000
0100
0000
0001
0000
,
1000
0000
0000
0000
0100
0000
0000
0010
0000
0000
0100
0000
1000
0000
0001
0000
,
1000
0000
0000
0000
0010
0000
0000
0100
0000
0000
0010
0000
1000
0000
0000
0000
,
0001
0000
0011
0000
0000
1001
0000
0000
,
1010
0000
0000
0000
0000
0000
0110
0000
0000
0010
0000
0000
1000
0000
0100
0000
,
0010
0000
0000
0000
0001
0000
0000
1000
0000
0000
0001
0000
0100
0000
0001
0000
,
0010
0000
0000
0000
0100
0000
0000
1000
0000
0000
0001
0000
1000
0000
0000
0000
,
0010
0000
1010
0000
0000
1001
0000
0000
,
0011
0000
0000
0000
0000
0000
0110
0000
0000
0010
0000
0000
0001
0000
0100
0000
,
0020
0000
0000
0000
,
0000
0000
0000
0000
,
0000
0000
0000
0000
,
0000
0000
0030
0000
,
1000
0000
0000
0001
0000
0000
0001
0000
0010
0000
0000
0000
0000
0000
0000
0000
,
0100
0000
0000
1000
0000
0000
1000
0000
0010
0000
0000
0000
0100
0000
0000
0000
,
0001
0000
0000
1000
0000
0000
1000
0000
0010
0000
0000
0000
0000
0000
0000
0000
,
0100
0000
0000
0001
0000
0000
0001
0000
0010
0000
0000
0000
1001
0000
0000
0000
,
1000
0100
0100
1000
0100
0100
0010
0000
,
0001
0100
0100
0001
0100
0100
0010
0000
,
1000
0010
0010
0100
0010
0010
1000
0000
,
0001
0010
0010
0100
0010
0010
0001
0000
,
1000
0100
0010
0001
1000
0001
0100
0010
,
1000
0001
0010
0100
1000
0100
0010
0001
,
2000
0000
0000
3000
,
0020
0000
0000
0200
0000
0000
0330
0000
,
0110
0000
0000
0010
0000
0000
1000
0000
0001
0000
1000
0000
0100
0000
0010
0000
,
0001
0000
0000
0001
0000
0000
0001
0000
1000
0000
0010
0000
1000
0000
0000
0000
,
0100
0000
0000
0010
0000
0000
0010
0000
0001
0000
0100
0000
0001
0000
1000
0000
,
0010
0000
0000
0010
0000
0000
0010
0000
1000
0000
0100
0000
0010
0000
0000
0000
,
0001
0000
0000
1000
0000
0000
1000
0000
0010
0000
1000
0000
0001
0000
0100
0000
,
0001
0000
0000
0001
0000
0000
0001
0000
0010
0000
0100
0000
1000
0000
0000
0000
,
0100
0000
0000
1000
0000
0000
1000
0000
0010
0000
0100
0000
0010
0000
1000
0000
,
0001
1000
1001
0110
,
0010
0000
0000
1000
0000
0000
0001
0000
0010
0000
0001
0000
1000
0000
0001
0000
,
0100
0000
0000
0010
0000
0000
1000
0000
0001
0000
1000
0000
0100
0000
0000
0000
,
0010
0000
0000
0001
0000
0000
0010
0000
0100
0000
1000
0000
0001
0000
1000
0000
,
0010
0000
0000
0100
0000
0000
0001
0000
1000
0000
0100
0000
1000
0000
0000
0000
,
0001
0000
0000
0100
0000
0000
0010
0000
0100
0000
0001
0000
1000
0000
0001
0000
,
0010
0000
0000
0100
0000
0000
1000
0000
0001
0000
1000
0000
0010
0000
0000
0000
,
0200
0000
0000
0300
,
0002
0000
0000
2000
0000
0000
3003
0000
,
0002
0000
0000
0000
2003
0000
0000
3100
0000
0000
1000
0000
0001
0000
0100
0000
,
0002
0000
0000
0000
0023
0000
0000
0130
0000
0000
1000
0000
0001
0000
0000
0000
,
0100
0000
0001
0000
1000
0001
0000
0100
,
0001
0000
0000
0000
0010
0000
0001
0000
0000
0001
0000
0000
1000
0000
0001
0000
,
2000
0000
0000
0000
3002
0000
0000
0103
0000
0000
0010
0000
0100
0000
0001
0000
,
2000
0000
0000
0000
3200
0000
0000
0310
0000
0000
0001
0000
1000
0000
0000
0000
,
0010
0000
1000
0000
0001
1000
0000
0010
,
1000
0000
0000
0000
0100
0000
1000
0000
0000
1000
0000
0000
0010
0000
1000
0000
,
0002
0000
0000
0000
0203
0000
0000
0310
0000
0000
1000
0000
0001
0000
1000
0000
,
0200
0000
0000
0000
0320
0000
0000
0031
0000
0000
1000
0000
0001
0000
0000
0000
,
0100
0000
0010
0000
1000
0010
0000
0100
,
0010
0000
0000
0000
0001
0000
0010
0000
0000
0010
0000
0000
1000
0000
0001
0000
,
2000
0000
0000
0000
3002
0000
0000
0013
0000
0000
0100
0000
0010
0000
0001
0000
,
2000
0000
0000
0000
3020
0000
0000
0130
0000
0000
0001
0000
1000
0000
0000
0000
,
0010
0000
0100
0000
0001
0100
0000
0010
,
0100
0000
0000
0000
1000
0000
0100
0000
0000
0100
0000
0000
0001
0000
1000
0000
,
0001
0010
0100
1000
,
0001
0100
0010
1000
,
0001
0100
1000
0100
,
0001
0010
1000
0010
,
0001
1000
0100
0001
,
1000
0010
0001
0100
,
1000
0001
0010
1000
,
0001
0001
0001
0110
,
1000
0010
0100
0000
0001
0010
0100
0000
,
1000
0100
0010
0000
0001
0100
0010
0000
,
1000
0001
0010
0000
0001
1000
0010
0000
,
1000
0001
0100
0000
0001
1000
0100
0000
,
0010
1000
0100
0000
0010
0001
0100
0000
,
0001
0100
1000
0000
0001
0010
1000
0000
,
0001
1000
0001
0010
0100
1000
0001
0000
,
0010
0000
0100
0020
0000
0000
0130
0000
;

//---------------dance-single - Marten-BSP----------------
#NOTEDATA:;
#CHARTNAME:Marten-BSP;
#STEPSTYPE:dance-single;
#DESCRIPTION:Marten-BSP;
#DIFFICULTY:Easy;
#METER:7;
#RADARVALUES:0.336934,0.419650,0.056662,0.092075,0,333,325,8,13,0,0,0,0,0,0.336934,0.419650,0.056662,0.092075,0,333,325,8,13,0,0,0,0,0;
#CREDIT:Marten;
#NOTES:
0000
0000
0000
0000
,
0000
0000
0000
0000
,
0000
0000
0000
0000
,
0000
0000
0000
0000
,
0000
0000
0000
0000
,
1000
0100
0010
0001
,
1000
0100
0010
0001
,
1000
0010
0001
0010
,
1000
0000
0000
0001
0000
0000
0010
0000
,
2002
0000
0000
0000
,
0000
0000
3003
0000
,
0001
0100
0010
0010
,
1000
0100
0001
0100
,
0000
0000
1000
0000
0000
1000
0000
0000
,
1000
0000
0000
1000
0000
0000
0001
0000
,
1000
0100
0010
0010
,
0001
0100
1000
0100
,
0000
0000
0001
0000
0000
0001
0000
0000
,
0001
0000
0000
0002
0000
0000
0000
0000
,
0013
0001
0100
0010
,
0001
0010
0100
0001
,
0000
0000
1000
0000
0000
0100
0000
0000
,
0001
0000
0000
0100
0000
0000
1000
0000
,
0010
1000
0100
0010
,
1000
0010
0100
1000
,
0000
0000
0001
0000
0000
0100
0000
0000
,
1000
0000
0000
0100
0000
0000
0001
0000
,
1001
1000
0100
0010
,
0001
0000
0100
0000
0001
1000
0001
0000
,
0000
0000
0100
0000
0000
0100
0000
0000
,
0100
0000
0000
0100
0000
0000
0100
0000
,
0010
1000
0001
0010
,
0100
0000
0010
0000
0001
1000
0001
0000
,
0000
0000
0010
0000
0000
0010
0000
0000
,
0010
0000
0000
0010
0000
0000
0100
0000
,
2002
0000
0000
0000
,
0000
0000
0000
0000
,
0000
0000
0000
0000
,
0000
0000
3003
0000
,
0001
0100
1000
0000
,
1000
0100
0001
0000
,
0001
0010
1000
0000
,
1000
0010
0001
0000
,
1000
0010
0100
0100
,
0001
0010
0100
0100
,
1000
0001
0100
0100
,
0001
1000
0100
0100
,
0010
0010
0001
0001
,
1000
0000
1000
0000
0010
0100
0010
0000
,
0200
0000
0000
0300
,
0002
0000
0000
2000
0000
0000
3003
0000
,
0001
0000
0100
0000
0001
0010
0001
0000
,
1000
0100
0010
0100
,
1000
0000
0001
0000
1000
0010
1000
0000
,
0001
0100
0010
0100
,
0001
0000
1000
0000
0100
0010
0100
0000
,
1000
0001
0100
1000
,
0100
0000
0001
0000
0010
0001
0010
0000
,
0100
1000
1001
1001
,
0001
0000
0010
0000
0100
0010
0100
0000
,
1000
0001
0100
0010
,
0001
0000
0010
0000
0100
0001
0100
0000
,
0001
1000
0100
0010
,
0100
0000
1000
0000
0010
1000
0010
0000
,
0100
0001
1000
0010
,
0220
0000
0000
0330
,
0002
0000
0000
2000
0000
0000
3003
0000
,
0001
0100
1000
0100
,
0001
1000
0100
1000
,
0001
0000
0010
0000
0000
0010
0000
0000
,
0010
0000
0000
0010
0000
0000
0001
0000
,
1000
0010
0001
0010
,
1000
0100
0001
0100
,
1000
0000
0001
0000
0000
0001
0000
0000
,
0001
0000
0000
0001
0000
0000
0100
0000
,
0001
0010
0100
0010
,
0001
0000
1000
0000
0010
0100
0010
0000
,
0000
0000
1000
0000
0000
1000
0000
0000
,
1000
0000
0000
1000
0000
0000
0001
0000
,
1000
0100
0010
1000
,
0010
0000
0001
0000
1000
0001
1000
0000
,
0000
0000
0010
0000
0000
0010
0000
0000
,
0010
0000
0000
0010
0000
0000
0110
0000
,
0010
1000
0001
0001
,
0010
0001
1000
1000
,
0100
1000
0001
0001
,
0100
0001
1000
1000
,
0010
1000
0100
0100
,
0010
0001
0100
0100
,
0001
1000
0100
0010
,
0001
1000
0000
1001
,
0001
0000
0100
0000
0010
1000
0010
0000
,
1000
0000
0100
0000
0010
0001
0010
0000
,
0001
0000
1000
0000
0001
0100
0001
0000
,
1000
0000
0001
0000
1000
0100
1000
0000
,
0001
0010
0100
1000
,
0001
0100
0010
1000
,
0001
0100
1000
0100
,
0010
0000
0100
0020
0000
0000
0130
0000
;

//---------------dance-single - Marten-bSP----------------
#NOTEDATA:;
#CHARTNAME:Marten-bSP;
#STEPSTYPE:dance-single;
#DESCRIPTION:Marten-bSP;
#DIFFICULTY:Beginner;
#METER:4;
#RADARVALUES:0.158855,0.209825,0.007083,0.077910,0,157,156,1,11,0,0,0,0,0,0.158855,0.209825,0.007083,0.077910,0,157,156,1,11,0,0,0,0,0;
#CREDIT:Marten;
#NOTES:
0000
0000
0000
0000
,
0000
0000
0000
0000
,
0000
0000
0000
0000
,
0000
0000
0000
0000
,
0000
0000
0000
0000
,
0001
0000
0001
0000
,
1000
0000
1000
0000
,
0010
0000
0000
0000
,
0100
0000
0000
0000
,
0020
0000
0000
0000
,
0000
0000
0030
0000
,
1000
0000
0000
0000
,
1000
0000
0000
0000
,
0001
0000
0000
0000
,
0001
0000
0000
0000
,
0010
0000
0000
0000
,
0010
0000
0000
0000
,
0100
0000
0000
0000
,
0100
0000
0000
0000
,
1000
0000
0001
0000
,
0100
0000
0010
0000
,
1000
0000
1000
0000
,
0100
0000
0100
0000
,
1000
0000
0100
0000
,
0010
0000
0001
0000
,
0100
0000
0100
0000
,
0001
0000
0001
0000
,
1000
0000
0100
0000
,
0010
0000
0100
0000
,
1000
0000
0010
0000
,
0100
0000
0100
0000
,
0001
0000
0100
0000
,
0010
0000
0100
0000
,
0001
0000
0010
0000
,
0100
0000
0100
0000
,
2002
0000
0000
0000
,
0000
0000
0000
0000
,
0000
0000
0000
0000
,
0000
0000
3003
0000
,
0020
0000
0000
0000
,
0000
0000
0030
0000
,
0200
0000
0000
0000
,
0000
0000
0300
0000
,
0001
0000
0001
0000
,
0001
0000
0001
0000
,
1000
0000
1000
0000
,
1000
0000
1000
0000
,
0010
0000
0100
0000
,
0010
0000
0100
0000
,
0020
0000
0000
0000
,
0200
0000
0000
0330
,
0100
0000
0001
0000
,
1000
0000
0100
0000
,
1000
0000
0001
0000
,
0100
0000
0010
0000
,
0100
0000
0001
0000
,
1000
0000
0100
0000
,
0010
0000
0001
0000
,
1000
0000
0010
0010
,
0010
0000
0100
0000
,
0001
0000
0100
0000
,
0010
0000
1000
0000
,
0100
0000
1000
0000
,
0001
0000
0010
0000
,
0100
0000
1000
0000
,
0002
0000
0000
0000
,
2000
0000
0000
3003
,
0001
0000
0100
0000
,
0001
0000
1000
0000
,
0100
0000
1000
0000
,
0001
0000
0010
0000
,
0001
0000
1000
0000
,
0010
0000
1000
0000
,
0001
0000
0100
0000
,
0010
0000
1000
0000
,
0001
0000
0001
0000
,
1000
0000
1000
0000
,
0100
0000
0010
0000
,
0001
0000
1000
0000
,
0001
0000
0001
0000
,
1000
0000
1000
0000
,
0001
0000
0100
0000
,
0010
0000
0010
0000
,
1000
0000
1000
0000
,
0100
0000
0100
0000
,
0010
0000
0010
0000
,
0001
0000
0001
0000
,
1000
0000
1000
0000
,
0010
0000
0010
0000
,
0100
0000
0100
0000
,
0001
0000
0000
0000
,
1000
0000
0100
0000
,
0001
0000
0100
0000
,
1000
0000
0010
0000
,
0001
0000
0010
0000
,
1000
0000
0001
0000
,
1000
0000
0001
0000
,
0020
0000
0000
0000
,
0200
0000
0000
0330
;

//---------------dance-double - Kekkle-EDP----------------
#NOTEDATA:;
#CHARTNAME:Kekkle-EDP;
#STEPSTYPE:dance-double;
#DESCRIPTION:Kekkle-EDP;
#DIFFICULTY:Hard;
#METER:13;
#RADARVALUES:0.605065,0.699417,0.120406,0.332887,0.262060,598,581,17,47,0,0,0,0,0,0.605065,0.699417,0.120406,0.332887,0.262060,598,581,17,47,0,0,0,0,0;
#CREDIT:Kekkle;
#NOTES:
// measure 0
00000000
00000000
00000000
00000000
,  // measure 1
00000000
00000000
00000000
00000000
,  // measure 2
00000000
00000000
00000000
00000000
,  // measure 3
00000000
00000000
00000000
00000000
,  // measure 4
00000000
00000000
00000000
00000000
,  // measure 5
10000000
00100000
01000000
00010000
00100000
00001000
00010000
00000100
,  // measure 6
00001000
00000010
00000100
00000001
00000010
00000001
00000100
00000010
,  // measure 7
00001000
00000100
00010000
00001000
00100000
00010000
01000000
00000000
,  // measure 8
00010000
00000000
00100000
02000000
00000000
00000000
03100000
00000000
,  // measure 9
20020000
00000000
00000000
00000000
,  // measure 10
00000000
00000000
00000000
30030000
,  // measure 11
10000000
00000000
00000000
00000000
00100000
00000000
00000000
01000000
00000000
00000000
01000000
00000000
00010000
00000000
00100000
00000000
,  // measure 12
00001000
00000000
00000000
00000000
00000100
00000000
00000000
00001000
00000000
00000000
00001000
00000000
00010000
00000000
00000000
00000000
,  // measure 13
00000000
00000000
00010000
00000000
00000000
00010000
00000000
00000000
,  // measure 14
00010000
00000000
00000000
00000000
00000000
00000000
00010000
00000000
00000000
00010000
00000000
00000000
00000010
00000000
00001000
00000000
,  // measure 15
00000100
00000000
00000000
00000000
00000010
00000000
00000000
00000001
00000000
00000000
00000001
00000000
00001000
00000000
00000010
00000000
,  // measure 16
00000100
00000000
00000000
00000000
00001000
00000000
00000000
00010000
00000000
00000000
00010000
00000000
01000000
00000000
00000000
00000000
,  // measure 17
00000000
00000000
01000000
00000000
00000000
01000000
00000000
00000000
,  // measure 18
01000000
00000000
00000000
02000000
00000000
00000000
00000000
00000000
,  // measure 19
13000000
00000000
00000000
00000000
00010000
00000000
00000000
00100000
00000000
00000000
01000000
00000000
00100000
00000000
00001000
00000000
,  // measure 20
00010000
00000000
00000000
00000000
00000010
00000000
00000000
00001000
00000000
00000000
00000001
00000000
00000010
00000000
00000000
00000000
,  // measure 21
00000100
00000000
00000010
00000000
00000001
00001000
00000010
00000000
,  // measure 22
00001000
00000000
00000000
00000000
00010000
00000000
01000000
00000000
00000000
00100000
00000000
00000000
10000000
00000000
00010000
00000000
,  // measure 23
00100000
00000000
00000000
00000000
01000000
00000000
00000000
00010000
00000000
00000000
00001000
00000000
00010000
00000000
00000010
00000000
,  // measure 24
00000100
00000000
00000000
00000000
00001000
00000000
00000000
00000100
00000000
00000000
00000010
00000000
00010000
00000000
00000000
00000000
,  // measure 25
00001000
00000000
01000000
00000000
00010000
00100000
01000000
00000000
,  // measure 26
10000000
00000000
00000000
00000000
00100000
00000000
01000000
00000000
00000000
00010000
00000000
00000000
00100000
00000000
01000000
00000000
,  // measure 27
00010000
00000000
00000000
00000000
00001000
00000000
00000000
00010000
00001000
00000000
00000100
00000000
00000001
00000000
00000010
00000000
,  // measure 28
00000100
00000000
00000000
00000000
00010000
00000000
00000000
00000100
00010000
00000000
00001000
00000000
00100000
00000000
00000000
00000000
,  // measure 29
00010000
00000000
10010000
00000000
10000000
01000000
00100000
00000000
,  // measure 30
00101000
00000000
00000000
00000000
00001000
00000000
00010000
00000000
00000000
00000010
00000000
00000000
00000100
00000000
00001000
00000000
,  // measure 31
00010000
00000000
00000000
00000000
00000100
00000000
00000000
00000010
00000001
00000000
00001000
00000000
00000010
00000000
00000100
00000000
,  // measure 32
00001000
00000000
00000000
00000000
00010000
00000000
00000000
00100000
01000000
00000000
00010000
00000000
10000000
00000000
00000000
00000000
,  // measure 33
01000000
00000000
01100000
00000000
00100000
00001000
00010000
00000000
,  // measure 34
00010010
00000000
00000000
00000000
00000010
00000000
00000100
00000000
00000000
00001000
00000000
00000000
00000100
00000000
00000001
00000000
,  // measure 35
00002000
00000000
00000000
00000000
,  // measure 36
00000000
00000000
00000000
00000000
,  // measure 37
00000000
00000000
00000000
00000000
,  // measure 38
00000000
00000000
00000000
00003000
,  // measure 39
00000001
00000000
00000000
00000010
00000000
00000000
00000001
00000000
00001000
00000000
00000010
00000000
00010000
00000000
00001000
00000000
,  // measure 40
01000000
00000000
00000000
00010000
00000000
00000000
01000000
00000000
00100000
00000000
10000000
00000000
00010000
00000000
00100000
00000000
,  // measure 41
00001000
00000000
00000000
00010000
00000000
00000000
00001000
00000000
00000100
00000000
00000010
00000000
00001000
00000000
00000001
00000000
,  // measure 42
00000010
00000000
00000000
00000100
00000000
00000000
00000010
00000000
00000001
00000000
00000010
00000000
00000100
00000000
00010000
00000000
,  // measure 43
00001000
00000000
01000000
00010000
01000000
00000000
00010000
00000000
10000000
00000000
01000000
00000000
00100000
00000000
01000000
00000000
,  // measure 44
10000000
00000000
00100000
01000000
00100000
00000000
00010000
00000000
00001000
00000000
00000100
00000000
00000010
00000000
00001000
00000000
,  // measure 45
00000001
00000000
00000010
00000001
00000010
00000000
00000100
00000000
00010000
00000000
00001000
00000000
00000100
00000000
00000010
00000000
,  // measure 46
00001000
00000000
00000100
00010000
00000100
00000000
00010000
00000000
00001000
00000000
01000000
00000000
00010000
00000000
00100000
00000000
,  // measure 47
01000000
10000000
01000000
00010000
00001000
00000010
00000001
00001000
,  // measure 48
00000010
00000100
00001000
00010000
00100000
10000000
00010000
01000000
,  // measure 49
00200000
00000000
00000000
00300000
,  // measure 50
00020000
00000000
00000000
00002000
00000000
00000000
00033000
00000000
,  // measure 51
00010000
00000000
00000010
00001000
00000000
00000010
00001000
00000000
00000001
00000000
00000010
00000000
00001000
00000000
00000010
00000000
,  // measure 52
00000100
00000000
00010000
00001000
00000000
00010000
00001000
00000000
01000000
00000000
00010000
00000000
00100000
00000000
01000000
00000000
,  // measure 53
10000000
00000000
00010000
01000000
00000000
00010000
01000000
00000000
00100000
00000000
00010000
00000000
00001000
00000000
01000000
00000000
,  // measure 54
00001000
00000000
00010000
00000010
00000000
00010000
00000010
00000000
00001000
00000000
00000001
00000000
00000010
00000000
00000001
00000000
,  // measure 55
00001000
00000000
00000010
00010000
00000000
00000010
00010000
00000000
00001000
00000000
00010000
00000000
01000000
00000000
00100000
00000000
,  // measure 56
00010000
00000000
10000000
00100000
00000000
10000000
00100000
00000000
01000000
00000000
00010000
00000000
00100000
00000000
01000000
00000000
,  // measure 57
00100000
00000000
00001000
00010000
00000000
00001000
00010000
00000000
00000100
00000000
00000010
00000000
00000001
00000000
00001000
00000000
,  // measure 58
00000010
00000000
00000000
00010000
00000000
00000000
00010000
00000000
00011000
00000000
00000000
00000000
00011000
00000000
00000000
00000000
,  // measure 59
00001000
00000000
00000000
01001000
00000000
00000000
01100000
00000000
00100000
00000000
10000000
00000000
00010000
00000000
00100000
00000000
,  // measure 60
00001000
00000000
00000000
00011000
00000000
00000000
00010010
00000000
00000010
00000000
00000100
00000000
00000001
00000000
00001000
00000000
,  // measure 61
00000100
00000000
00000000
00010100
00000000
00000000
00011000
00000000
00010000
00000000
00100000
00000000
01000000
00000000
00010000
00000000
,  // measure 62
10000000
00000000
00000000
11000000
00000000
00000000
01100000
00000000
00100000
00000000
00010000
00000000
01000000
00000000
00001000
00000000
,  // measure 63
00010000
00000000
00000010
00001000
00000000
00000010
00000100
00000000
00000010
00000000
00000001
00000000
00000010
00000000
00001000
00000000
,  // measure 64
00000100
00000000
00010000
00001000
00000000
00010000
01000000
00000000
00100000
00000000
00010000
00000000
10000000
00000000
00100000
00000000
,  // measure 65
02000000
00000000
00000000
00000000
,  // measure 66
03002000
00000000
00000000
00020000
00000000
00000000
00033000
00000000
,  // measure 67
00020010
00000000
00000000
00000000
00030020
00000000
00000000
00000130
00000001
00000000
00000100
00000000
00000010
00000000
00010000
00000000
,  // measure 68
00000200
00000000
00000000
00000000
00020300
00000000
00000000
00031000
01000000
00000000
00010000
00000000
00200000
00000000
00000000
00000000
,  // measure 69
01300000
00000000
20000000
30010000
01000000
00200000
00310000
00001000
,  // measure 70
00000200
00000000
00000310
00000000
00001000
00000000
00000001
00000000
00000000
00000010
00000000
00000000
00000001
00000000
00001000
00000000
,  // measure 71
00000020
00000000
00000000
00000000
00000230
00000000
00000000
00001300
00010000
00000000
00001000
00000000
01000000
00000000
00010000
00000000
,  // measure 72
00200000
00000000
00000000
00000000
02300000
00000000
00000000
03010000
00001000
00000000
00010000
00000000
00000020
00000000
00000000
00000000
,  // measure 73
00001030
00000000
00000002
00000013
00000100
00000020
00000031
00001000
,  // measure 74
00000020
00000000
00000130
00000000
00001000
00000000
00010000
00000000
00000000
00100000
00000000
00000000
01000000
00000000
00010000
00000000
,  // measure 75
20000000
00000000
00000000
00000000
30200000
00000000
00000000
00310000
00001000
00000000
00000100
00000000
00000001
00000000
00001000
00000000
,  // measure 76
00000200
00000000
00000000
00000000
00000320
00000000
00000000
00001030
00010000
00000000
00000100
00000000
00020000
00000000
00000000
00000000
,  // measure 77
00031000
00000000
00020000
01030000
10000000
00020000
00130000
10000000
,  // measure 78
00020000
00000000
00031000
00000000
00000010
00000000
00000001
00000000
00000000
00001000
00000000
00000000
00000010
00000000
00000100
00000000
,  // measure 79
00002000
00000000
00000000
00000000
00023000
00000000
00000000
01030000
10000000
00000000
00100000
00000000
00010000
00000000
00001000
00000000
,  // measure 80
00020000
00000000
00000000
00000000
00030200
00000000
00000000
00000310
00000001
00000000
00000010
00000000
00002000
00000000
00000000
00000000
,  // measure 81
00013000
00000000
00002000
00003010
00000001
00002000
00003100
00000001
,  // measure 82
00002000
00000000
00013000
00000000
01000000
00000000
10000000
00000000
00000000
00100000
00000000
00000000
10000000
00000000
00010000
00000000
,  // measure 83
01000000
00000000
00000000
00100000
10000000
00000000
00010000
00000000
00100000
00000000
00000000
00100000
00001000
00000000
00010000
00000000
,  // measure 84
00000010
00000000
00000000
00000010
00001000
00000000
00000001
00000000
00000010
00000000
00000000
00000010
00000001
00000000
00001000
00000000
,  // measure 85
00000010
00000000
00000000
00000100
00001000
00000000
00010000
00000000
00001000
00000000
00000000
00001000
01000000
00000000
00010000
00000000
,  // measure 86
00100000
00000000
00000000
00100000
01000000
00000000
10000000
00000000
00100000
00000000
00000000
00100000
00010000
00000000
00001000
00000000
,  // measure 87
00010000
00000000
00000000
00000100
00000010
00000000
00000001
00000000
00001000
00000000
00000000
00001000
00000010
00000000
00010000
00000000
,  // measure 88
00001000
00000000
00000000
00001000
00100000
00000000
01000000
00000000
00100000
00000000
00000000
00100000
00010000
00000000
10000000
00000000
,  // measure 89
00100000
00000000
00000000
10000000
01000000
00000000
00010000
00000000
00001000
00000000
00000000
00001000
00010000
00000000
00000010
00000000
,  // measure 90
00000200
00002300
00013000
00011000
,  // measure 91
00001000
01000000
00001000
01000000
00010000
00100000
00010000
00100000
,  // measure 92
01000000
10000000
01000000
10000000
00100000
01000000
00001000
00010000
,  // measure 93
00000100
00001000
00000100
00001000
00000001
00000100
00000001
00000100
,  // measure 94
00000010
00001000
00000010
00001000
00000100
00010000
00001000
00100000
,  // measure 95
01000000
10000000
00010000
01000000
00100000
00010000
00001000
00000100
,  // measure 96
00000001
00000010
00000100
00000010
00000001
00000100
00001000
00010000
,  // measure 97
00100000
01000000
00001000
00010000
01000000
10000000
00100000
00000000
,  // measure 98
02000000
00000000
03001000
00020000
00000000
00000000
00031000
00000000
;

//---------------dance-double - Kekkle-DDP----------------
#NOTEDATA:;
#CHARTNAME:Kekkle-DDP;
#STEPSTYPE:dance-double;
#DESCRIPTION:Kekkle-DDP;
#DIFFICULTY:Medium;
#METER:11;
#RADARVALUES:0.475553,0.594505,0.092075,0.205398,0.162902,470,457,13,29,0,0,0,0,0,0.475553,0.594505,0.092075,0.205398,0.162902,470,457,13,29,0,0,0,0,0;
#CREDIT:Kekkle;
#NOTES:
// measure 0
00000000
00000000
00000000
00000000
,  // measure 1
00000000
00000000
00000000
00000000
,  // measure 2
00000000
00000000
00000000
00000000
,  // measure 3
00000000
00000000
00000000
00000000
,  // measure 4
00000000
00000000
00000000
00000000
,  // measure 5
10000000
00010000
01000000
00000000
00010000
00100000
00001000
00000000
,  // measure 6
00010000
00000010
00000100
00000000
00000001
00001000
00000100
00000000
,  // measure 7
00000010
00000001
00000010
00000100
00000010
00000001
00001000
00000000
,  // measure 8
00000100
00000000
00010000
00002000
00000000
00000000
01003000
00000000
,  // measure 9
02200000
00000000
00000000
00000000
,  // measure 10
00000000
00000000
03300000
00000000
,  // measure 11
00100000
00000000
00000000
00000000
10000000
00000000
00000000
10000000
00000000
00000000
00010000
00000000
00100000
00000000
00000000
00000000
,  // measure 12
00001000
00000000
00000000
00000000
00010000
00000000
00000000
00010000
00000000
00000000
00000010
00000000
00000100
00000000
00000000
00000000
,  // measure 13
00000000
00000000
00000100
00000000
00000000
00000100
00000000
00000000
,  // measure 14
00000100
00000000
00000000
00000000
00000000
00000000
00000100
00000000
00000000
00000100
00000000
00000000
00000100
00000000
00000000
00000000
,  // measure 15
00000001
00000000
00000000
00000000
00001000
00000000
00000000
00001000
00000000
00000000
00000100
00000000
00010000
00000000
00000000
00000000
,  // measure 16
00001000
00000000
00000000
00000000
00100000
00000000
00000000
00100000
00000000
00000000
01000000
00000000
10000000
00000000
00000000
00000000
,  // measure 17
00000000
00000000
10000000
00000000
00000000
10000000
00000000
00000000
,  // measure 18
10000000
00000000
00000000
20000000
00000000
00000000
00000000
00000000
,  // measure 19
30010000
00000000
00000000
00000000
01000000
00000000
00000000
00010000
00000000
00000000
00100000
00000000
01000000
00000000
00000000
00000000
,  // measure 20
00100000
00000000
00000000
00000000
00001000
00000000
00000000
00010000
00000000
00000000
00000010
00000000
00000100
00000000
00000000
00000000
,  // measure 21
00000001
00000000
00001000
00000000
00000100
00010000
00000000
00010000
,  // measure 22
00001000
00000000
00000000
00000000
00001000
00000000
01000000
00000000
00000000
00100000
00000000
00000000
10000000
00000000
00000000
00000000
,  // measure 23
01000000
00000000
00000000
00000000
00100000
00000000
00000000
01000000
00000000
00000000
10000000
00000000
00010000
00000000
00000000
00000000
,  // measure 24
01000000
00000000
00000000
00000000
00001000
00000000
00000000
00010000
00000000
00000000
00000100
00000000
00000010
00000000
00000000
00000000
,  // measure 25
00000001
00000000
00001000
00000000
00000010
00000100
00000000
00000100
,  // measure 26
00001000
00000000
00000000
00000000
00001000
00000000
00010000
00000000
00000000
00100000
00000000
00000000
10000000
00000000
00000000
00000000
,  // measure 27
01000000
00000000
00000000
00000000
00100000
00000000
00000000
01000000
00000000
00000000
10000000
00000000
00100000
00000000
01000000
00000000
,  // measure 28
00100000
00000000
00000000
00000000
00010000
00000000
00000000
00001000
00000000
00000000
00010000
00000000
00000100
00000000
00000000
00000000
,  // measure 29
00001000
00000000
00001001
00000000
00000000
00001100
00000000
00000000
,  // measure 30
00010100
00000000
00000000
00000000
00000000
00000000
00011000
00000000
00000000
00001000
00000000
00000000
01000000
00000000
00010000
00000000
,  // measure 31
00100000
00000000
00000000
00000000
01000000
00000000
00000000
00100000
00000000
00000000
00010000
00000000
10000000
00000000
00100000
00000000
,  // measure 32
01000000
00000000
00000000
00000000
00010000
00000000
00000000
00100000
00000000
00000000
00100000
00000000
00001000
00000000
00000000
00000000
,  // measure 33
00010000
00000000
00011000
00000000
00000000
01001000
00000000
00000000
,  // measure 34
00110000
00000000
00000000
00000000
00000000
00000000
01100000
00000000
00000000
01000000
00000000
00000000
10000000
00000000
00100000
00000000
,  // measure 35
00020000
00000000
00000000
00000000
,  // measure 36
00000000
00000000
00000000
00000000
,  // measure 37
00000000
00000000
00000000
00000000
,  // measure 38
00000000
00000000
00030000
00000000
,  // measure 39
00001000
00000000
00000000
00010000
00000000
00000000
00010000
00000000
00000010
00000000
00000000
00000000
00000000
00000000
00000000
00000000
,  // measure 40
00000100
00000000
00000000
00000001
00000000
00000000
00000001
00000000
00001000
00000000
00000000
00000000
00000100
00000000
00000000
00000000
,  // measure 41
00010000
00000000
00000000
00001000
00000000
00000000
00001000
00000000
00100000
00000000
00000000
00000000
00000000
00000000
00000000
00000000
,  // measure 42
01000000
00000000
00000000
10000000
00000000
00000000
10000000
00000000
00010000
00000000
00000000
00000000
01010000
00000000
00000000
00000000
,  // measure 43
01000000
00100000
00100000
10000000
00100000
00100000
01000000
00000000
,  // measure 44
00001000
00010000
00010000
00000100
00010000
00010000
00001000
00000000
,  // measure 45
00000010
00000001
00000001
00001000
00000001
00000001
00000010
00000000
,  // measure 46
00000100
00010000
00010000
00001000
00010000
00010000
00000100
00000000
,  // measure 47
00010000
00001000
00010000
00001000
01000000
00010000
01000000
00010000
,  // measure 48
10000000
01000000
10000000
01000000
00100000
00010000
00100000
00010000
,  // measure 49
00002000
00000000
00000000
00003000
,  // measure 50
00000002
00000000
00000000
00002000
00000000
00000000
00003003
00000000
,  // measure 51
00000001
00000000
00000000
00000100
00000000
00000000
00000001
00000000
00000010
00000000
00000100
00000000
00001000
00000000
00000100
00000000
,  // measure 52
00010000
00000000
00000000
00001000
00000000
00000000
00010000
00000000
01000000
00000000
00100000
00000000
01000000
00000000
00000000
00000000
,  // measure 53
10000000
00000000
00000000
00100000
00000000
00000000
01000000
00000000
00010000
00000000
01000000
00000000
00100000
00000000
00010000
00000000
,  // measure 54
00001000
00000000
00000000
00000100
00000000
00000000
00000010
00000000
00001000
00000000
00000001
00000000
00000010
00000000
00000000
00000000
,  // measure 55
00000100
00000000
00000000
00010000
00000000
00000000
00001000
00000000
01000000
00000000
00010000
00000000
00100000
00000000
01000000
00000000
,  // measure 56
10000000
00000000
00000000
00010000
00000000
00000000
01000000
00000000
00001000
00000000
00010000
00000000
00001000
00000000
00000000
00000000
,  // measure 57
00010000
00000000
00000000
00000010
00000000
00000000
00000100
00000000
00000001
00000000
00000100
00000000
00000010
00000000
00010000
00000000
,  // measure 58
00001000
00010000
00011000
00011000
,  // measure 59
00001000
00000000
00000000
00100000
00000000
00000000
01000000
00000000
00100000
00000000
00010000
00000000
10000000
00000000
00100000
00000000
,  // measure 60
01000000
00000000
00000000
00100000
00000000
00000000
00010000
00000000
00001000
00000000
00000100
00000000
00000010
00000000
00000000
00000000
,  // measure 61
00001000
00000000
00000000
00000001
00000000
00000000
00000010
00000000
00000001
00000000
00000100
00000000
00000001
00000000
00001000
00000000
,  // measure 62
00000100
00000000
00000000
00010000
00000000
00000000
00001000
00000000
00010000
00000000
01000000
00000000
00100000
00000000
00000000
00000000
,  // measure 63
00010000
00000000
00000000
10000000
00000000
00000000
00100000
00000000
10000000
00000000
00100000
00000000
01000000
00000000
00001000
00000000
,  // measure 64
00010000
00000000
00000000
00001000
00000000
00000000
00000100
00000000
00000010
00000000
00001000
00000000
00000001
00000000
00000000
00000000
,  // measure 65
00002002
00000000
00000000
00003003
,  // measure 66
00000002
00000000
00000000
00002000
00000000
00000000
00003003
00000000
,  // measure 67
00000002
00000000
00000000
00000000
00002003
00000000
00000000
00003100
00000000
00000000
00010000
00000000
00001000
00000000
00010000
00000000
,  // measure 68
00200000
00000000
00000000
00000000
02300000
00000000
00000000
03010000
00000000
00000000
10000000
00000000
01000000
00000000
00000000
00000000
,  // measure 69
00100000
00000000
00010000
00000000
10000000
00100000
00000000
01000000
,  // measure 70
00001000
00000000
00000000
00000000
00010000
00000000
00001000
00000000
00000000
00000100
00000000
00000000
00000010
00000000
00001000
00000000
,  // measure 71
00000002
00000000
00000000
00000000
00000023
00000000
00000000
00000130
00000000
00000000
00000010
00000000
00000001
00000000
00001000
00000000
,  // measure 72
00000200
00000000
00000000
00000000
00020300
00000000
00000000
00031000
00000000
00000000
01000000
00000000
00100000
00000000
00000000
00000000
,  // measure 73
10000000
00000000
00010000
00000000
00100000
00001000
00000000
00010000
,  // measure 74
00001000
00000000
00000000
00000000
00000100
00000000
00000010
00000000
00000000
00001000
00000000
00000000
00000100
00000000
00010000
00000000
,  // measure 75
00002000
00000000
00000000
00000000
02003000
00000000
00000000
03010000
00000000
00000000
00100000
00000000
00010000
00000000
10000000
00000000
,  // measure 76
00200000
00000000
00000000
00000000
00320000
00000000
00000000
00031000
00000000
00000000
00000100
00000000
00000010
00000000
00000000
00000000
,  // measure 77
00000100
00000000
00000001
00000000
00001000
00000100
00000000
00000100
,  // measure 78
00010000
00000000
00000000
00000000
00010000
00000000
00001000
00000000
00000000
00100000
00000000
00000000
00010000
00000000
10000000
00000000
,  // measure 79
00200000
00000000
00000000
00000000
02300000
00000000
00000000
03010000
00000000
00000000
00100000
00000000
00001000
00000000
00010000
00000000
,  // measure 80
00000200
00000000
00000000
00000000
00002300
00000000
00000000
00003010
00000000
00000000
00000100
00000000
00000001
00000000
00000000
00000000
,  // measure 81
00000010
00000000
00000001
00000000
00001000
00000010
00000000
00000010
,  // measure 82
00010000
00000000
00000000
00000000
00010000
00000000
00001000
00000000
00000000
00010000
00000000
00000000
01000000
00000000
00100000
00000000
,  // measure 83
00010000
10000000
00100000
01000000
,  // measure 84
00001000
00010000
00000100
00000010
,  // measure 85
00000001
00001000
00000010
00000100
,  // measure 86
00000001
00000010
00000100
00010000
,  // measure 87
00001000
00010000
00100000
10000000
,  // measure 88
00010000
00100000
10000000
00010000
,  // measure 89
00001000
00000010
00000001
00001000
,  // measure 90
00000010
00000001
00000010
00001000
,  // measure 91
00000100
00010000
00001000
00000000
00010000
00001000
01000000
00000000
,  // measure 92
00010000
00100000
01000000
00000000
10000000
00100000
01000000
00000000
,  // measure 93
00010000
00100000
00001000
00000000
00010000
00000010
00000100
00000000
,  // measure 94
00000001
00001000
00000100
00000000
00001000
00000001
00000100
00000000
,  // measure 95
00000010
00001000
00000100
00000000
00010000
00001000
00100000
00000000
,  // measure 96
01000000
10000000
00100000
00000000
01000000
00001000
00010000
00000000
,  // measure 97
00000010
00001000
00000010
00000100
00000001
00001000
00000100
00000000
,  // measure 98
00010000
00000000
00001000
00020000
00000000
00000000
00031000
00000000
;

//---------------dance-double - Kekkle-BDP----------------
#NOTEDATA:;
#CHARTNAME:Kekkle-BDP;
#STEPSTYPE:dance-double;
#DESCRIPTION:Kekkle-BDP;
#DIFFICULTY:Easy;
#METER:7;
#RADARVALUES:0.332887,0.419650,0.035414,0.077910,0,329,324,5,11,0,0,0,0,0,0.332887,0.419650,0.035414,0.077910,0,329,324,5,11,0,0,0,0,0;
#CREDIT:Kekkle;
#NOTES:
// measure 0
00000000
00000000
00000000
00000000
,  // measure 1
00000000
00000000
00000000
00000000
,  // measure 2
00000000
00000000
00000000
00000000
,  // measure 3
00000000
00000000
00000000
00000000
,  // measure 4
00000000
00000000
00000000
00000000
,  // measure 5
10000000
00100000
01000000
00010000
,  // measure 6
01000000
00100000
00010000
00001000
,  // measure 7
00100000
00001000
00010000
00000100
,  // measure 8
00001000
00000000
00000000
00000001
00000000
00000000
00000100
00000000
,  // measure 9
00000020
00000000
00000000
00000000
,  // measure 10
00000000
00000000
00000000
00000030
,  // measure 11
00001000
00000010
00000100
00000010
,  // measure 12
00010000
00001000
01000000
00010000
,  // measure 13
00000000
00000000
00010000
00000000
00000000
00010000
00000000
00000000
,  // measure 14
00010000
00000000
00000000
00010000
00000000
00000000
10000000
00000000
,  // measure 15
00100000
01000000
00010000
00100000
,  // measure 16
01000000
00100000
00001000
00010000
,  // measure 17
00000000
00000000
00010000
00000000
00000000
00010000
00000000
00000000
,  // measure 18
00010000
00000000
00000000
00020000
00000000
00000000
00000000
00000000
,  // measure 19
00030010
00000100
00000010
00001000
,  // measure 20
00000001
00000010
00000100
00001000
,  // measure 21
00000000
00000000
00001000
00000000
00000000
00001000
00000000
00000000
,  // measure 22
00001000
00000000
00000000
00001000
00000000
00000000
00000100
00000000
,  // measure 23
00010000
00001000
00010000
01000000
,  // measure 24
00100000
00010000
10000000
00100000
,  // measure 25
00000000
00000000
00100000
00000000
00000000
00100000
00000000
00000000
,  // measure 26
00100000
00000000
00000000
00100000
00000000
00000000
01000000
00000000
,  // measure 27
00001000
00010000
00000100
00000010
,  // measure 28
00000100
00000000
00010000
00000000
00001000
00010000
00001000
00000000
,  // measure 29
00000000
00000000
00001000
00000000
00000000
00001000
00000000
00000000
,  // measure 30
00001000
00000000
00000000
00001000
00000000
00000000
00010000
00000000
,  // measure 31
00001000
01000000
00010000
00100000
,  // measure 32
01000000
00000000
00100000
00000000
00001000
00010000
00001000
00000000
,  // measure 33
00000000
00000000
00001000
00000000
00000000
00001000
00000000
00000000
,  // measure 34
00001000
00000000
00000000
00001000
00000000
00000000
00010000
00000000
,  // measure 35
00000200
00000000
00000000
00000000
,  // measure 36
00000000
00000000
00000000
00000000
,  // measure 37
00000000
00000000
00000000
00000000
,  // measure 38
00000000
00000000
00000300
00000000
,  // measure 39
00010000
00001000
01000000
00000000
,  // measure 40
01000000
00001000
00010000
00000000
,  // measure 41
00010000
00000010
00000100
00000000
,  // measure 42
00000100
00000010
00010000
00000000
,  // measure 43
00001000
00010000
00001000
00001000
,  // measure 44
01000000
00010000
01000000
01000000
,  // measure 45
00100000
10000000
00010000
00010000
,  // measure 46
00100000
00001000
00010000
00010000
,  // measure 47
00000010
00000010
00001000
00001000
,  // measure 48
00000001
00000001
00000010
00000010
,  // measure 49
00000200
00000000
00000000
00000300
,  // measure 50
00002000
00000000
00000000
00000002
00000000
00000000
00003003
00000000
,  // measure 51
00000001
00000000
00000100
00000000
00000010
00001000
00000010
00000000
,  // measure 52
00001000
00000100
00010000
00001000
,  // measure 53
00010000
00000000
01000000
00000000
00100000
00010000
00100000
00000000
,  // measure 54
00010000
01000000
00001000
00010000
,  // measure 55
00000100
00000000
00000010
00000000
00000100
00001000
00000100
00000000
,  // measure 56
00000010
00000001
00001000
00000010
,  // measure 57
00000100
00000000
00001000
00000000
00010000
00001000
00010000
00000000
,  // measure 58
01000000
10000000
10010000
10010000
,  // measure 59
00010000
00000000
01000000
00000000
00001000
00010000
00001000
00000000
,  // measure 60
00000010
00000100
00001000
00000001
,  // measure 61
00000100
00000000
00000010
00000000
00001000
00000010
00001000
00000000
,  // measure 62
00000100
00010000
00001000
00010000
,  // measure 63
00100000
00000000
01000000
00000000
00010000
10000000
00010000
00000000
,  // measure 64
00100000
01000000
00100000
00001000
,  // measure 65
00022000
00000000
00000000
00033000
,  // measure 66
00020000
00000000
00000000
00002000
00000000
00000000
00033000
00000000
,  // measure 67
00010000
00000010
00000100
00000100
,  // measure 68
00000001
00001000
00000100
00000010
,  // measure 69
00000001
00000000
00000100
00000000
00000000
00000100
00000000
00000000
,  // measure 70
00000100
00000000
00000000
00000100
00000000
00000000
00000010
00000000
,  // measure 71
00010000
00001000
01000000
00001000
,  // measure 72
00100000
00100000
00010000
10000000
,  // measure 73
00100000
00000000
01000000
00000000
00000000
01000000
00000000
00000000
,  // measure 74
01000000
00000000
00000000
01000000
00000000
00000000
00010000
00000000
,  // measure 75
01000000
00001000
00010000
00000010
,  // measure 76
00000100
00000000
00000001
00000000
00001000
00000100
00001000
00000000
,  // measure 77
00000010
00000000
00000100
00000000
00000000
00000100
00000000
00000000
,  // measure 78
00000100
00000000
00000000
00000100
00000000
00000000
00000010
00000000
,  // measure 79
00001000
00000100
00010000
00001000
,  // measure 80
01000000
00010000
00100000
00010000
,  // measure 81
10000000
00000000
00100000
00000000
00000000
00100000
00000000
00000000
,  // measure 82
00100000
00000000
00000000
00100000
00000000
00000000
01100000
00000000
,  // measure 83
01000000
00010000
10000000
10000000
,  // measure 84
01000000
00100000
00010000
00010000
,  // measure 85
00100000
00001000
00010000
00010000
,  // measure 86
00000010
00001000
00000100
00000100
,  // measure 87
00000010
00000001
00001000
00001000
,  // measure 88
00000010
00000100
00001000
00001000
,  // measure 89
00010000
00100000
01000000
01000000
,  // measure 90
00010000
10000000
00000000
10010000
,  // measure 91
00010000
00000000
01000000
00000000
00010000
01000000
00010000
00000000
,  // measure 92
01000000
00000000
00001000
00000000
00010000
00001000
00010000
00000000
,  // measure 93
00000100
00000000
00000010
00000000
00000100
00000010
00000100
00000000
,  // measure 94
00001000
00000000
00000001
00000000
00001000
00000100
00001000
00000000
,  // measure 95
00000100
00010000
00001000
01000000
,  // measure 96
00010000
00100000
01000000
10000000
,  // measure 97
01000000
00100000
00010000
01000000
,  // measure 98
00001000
00000000
00000000
00020000
00000000
00000000
00031000
00000000
;
