#TITLE:Evans;
#ARTIST:DJ YOSHITAKA;
#BANNER:Evans.png;
#BACKGROUND:Evans-bg.png;
#MUSIC:Evans.ogg;
#OFFSET:-0.067;
#SAMPLESTART:61.04;
#SAMPLELENGTH:15;
#BPMS:0=185;
#STOPS:68=1.946,174=0.973,274.5=0.324;

//---------------dance-single - Marten-ESP----------------
#NOTES:
     dance-single:
     Marten:
     Hard:
     15:
     0.733338,0.783979,0.614886,0.381975,0.470481,551,485,66,41,0,0,0.733338,0.783979,0.614886,0.381975,0.470481,551,485,66,41,0,0:
// measure 0
0000
0000
0000
0000
,  // measure 1
0000
0000
0000
0000
,  // measure 2
0000
0000
0000
0000
,  // measure 3
0000
0000
0000
0000
,  // measure 4
0000
0000
0000
0000
,  // measure 5
1100
1000
1001
0000
0001
0000
0100
0000
,  // measure 6
0010
1010
0000
0000
0101
0000
0110
0000
,  // measure 7
1001
1000
0000
0000
1001
0001
0000
0000
,  // measure 8
0110
0000
0110
0000
0000
0000
0000
0000
1010
0000
0000
0101
0000
0000
1001
0000
,  // measure 9
0000
0000
1001
0000
0001
0100
0001
0010
,  // measure 10
1000
0000
0010
0000
0001
0000
0100
0000
0010
1000
0001
0000
0010
0000
0001
0000
,  // measure 11
0100
0010
1000
0100
0001
0100
1000
0001
,  // measure 12
1001
1001
0000
0000
0011
0000
0110
0000
,  // measure 13
1100
0000
1001
0000
0001
0000
0100
0010
,  // measure 14
1001
0000
0000
0000
0001
0000
0100
0000
0001
1000
0001
0000
0010
0000
0100
0000
,  // measure 15
1001
0000
0010
0100
1001
0000
0010
0100
,  // measure 16
1001
1001
0000
0000
0100
0000
1001
0000
,  // measure 17
1001
0000
0000
0000
0000
0000
0000
0000
0021
0000
0000
0230
0000
0000
2300
0000
,  // measure 18
0000
3002
0000
0000
0103
0000
0001
0000
0020
0000
0000
0230
0000
0000
0302
0000
,  // measure 19
0000
0203
0000
0000
1300
0000
0010
0000
2000
0000
0000
3020
0000
0000
0032
0000
,  // measure 20
0000
0023
0000
0000
0130
0000
0001
0000
2000
0000
0000
3200
0000
0000
0320
0000
,  // measure 21
0000
2030
0000
0000
3010
0000
0001
1000
0002
0000
0000
0203
0000
0000
0320
0000
,  // measure 22
0000
0230
0000
0000
0301
0000
1000
0000
0020
0000
0000
0032
0000
0000
0023
0000
,  // measure 23
0000
0230
0000
0000
1300
0000
0100
0000
0002
0000
0000
2003
0000
0000
3200
0000
,  // measure 24
0000
0302
0000
0000
0103
0000
1000
0000
0002
0000
0000
0023
0000
0000
2030
0000
,  // measure 25
0000
3020
0000
0000
0031
0000
1000
0000
0001
0000
0100
0000
0000
0000
0100
0000
,  // measure 26
0000
0100
0000
0100
0000
0001
0000
0001
,  // measure 27
0000
0001
0000
0001
1000
0100
0000
0100
,  // measure 28
1000
0001
0000
0001
0100
0010
0000
0010
,  // measure 29
1000
0001
0000
0001
1000
0010
1000
0100
,  // measure 30
0010
0001
1000
0000
0001
0010
0001
0100
,  // measure 31
0010
1000
0001
0000
1000
0001
0100
0001
,  // measure 32
0010
0000
1000
0000
0010
0000
0001
0000
1000
0100
1000
0000
0001
0000
0010
0000
,  // measure 33
0001
0100
0001
0000
1000
0000
0001
0000
1001
0000
0000
0000
1000
0000
0000
0000
,  // measure 34
0010
0000
0000
0000
0100
0000
0001
1000
0001
0000
0000
0000
0010
0000
0000
0000
,  // measure 35
0100
0000
0000
0000
1000
0000
0001
0100
0001
0000
0000
0000
1001
0000
0000
0000
,  // measure 36
0001
0000
0000
0000
0010
0000
0001
1000
0001
0000
0000
0000
0100
0000
0000
0000
,  // measure 37
0010
0000
1000
0010
1001
0000
0100
0001
,  // measure 38
1000
0000
0100
0010
1001
0000
0001
0010
,  // measure 39
0100
1000
0010
1000
1010
0000
0010
0000
,  // measure 40
0110
0010
0011
0010
,  // measure 41
0110
0000
0010
0000
1000
0100
0001
1000
,  // measure 42
0010
0000
0001
0000
1000
0000
0001
0000
0100
0001
0100
0000
0010
1000
0010
0000
,  // measure 43
1000
0100
1000
0000
0001
0010
0001
0000
0200
0000
0000
0000
0310
0000
1000
0000
,  // measure 44
0001
0000
0010
0100
0000
0010
0100
0000
1000
0000
1000
0000
0001
0000
0100
0001
,  // measure 45
0000
0010
0001
0000
1000
0001
0000
0100
0001
0000
0010
0000
0100
0000
1000
0001
,  // measure 46
0000
1000
0100
0000
1000
0010
0000
1000
0001
0000
0100
0000
0010
0000
1000
0100
,  // measure 47
0000
0010
0100
0000
1000
0001
0000
0100
0010
0000
1000
0000
1010
0000
0000
0000
,  // measure 48
0100
0000
0000
0000
1001
0000
0000
1010
0000
0000
0101
0000
0010
0000
0000
0000
,  // measure 49
1001
0000
0001
0000
0000
0010
0000
0000
0100
0000
1000
0000
1001
0000
0000
1000
,  // measure 50
0000
0000
0010
0000
0000
0010
0000
0000
0100
0000
0010
0000
1000
0000
0100
1000
,  // measure 51
0000
0001
1000
0000
0010
1000
0000
0001
1000
0000
0001
0000
0100
0010
0100
0010
,  // measure 52
0100
0000
0001
0000
0000
0000
1000
0000
0001
0000
1000
0000
0002
0000
0000
0023
,  // measure 53
0000
0000
2030
0000
0000
3020
0000
0000
0031
0000
1000
0000
0002
0000
0000
0203
,  // measure 54
0000
0000
2300
0000
0000
3200
0000
0000
0301
0000
1000
0000
0100
0000
1000
0001
,  // measure 55
0000
0100
0001
0000
1000
0001
0000
0010
0001
0000
0100
0000
0110
0000
0000
0000
,  // measure 56
1001
0000
0000
0000
0011
0000
0000
0110
0000
0000
1100
0000
1001
0000
0000
0001
,  // measure 57
0000
0000
0100
0000
0001
0010
0000
0100
1000
0000
0001
0000
1001
0000
0000
1000
,  // measure 58
0000
0000
0100
0000
1000
0010
0000
0100
0001
0000
1000
0000
0001
0000
1000
0100
,  // measure 59
0000
0010
0100
0000
0001
0100
0000
0010
0100
0000
1000
0000
0001
0000
0100
0010
,  // measure 60
0000
1000
0010
0000
0100
0010
0000
0001
0010
0000
0100
0000
0001
0000
0000
0000
,  // measure 61
1001
0001
0000
0000
0000
0000
1000
0000
,  // measure 62
1010
0011
0110
1001
,  // measure 63
0100
1001
0100
0101
,  // measure 64
1100
0000
0000
0000
1001
0000
0000
0011
0000
0000
0110
0000
1100
0000
0000
0000
,  // measure 65
1000
0001
1000
0000
1010
0000
0101
0000
,  // measure 66
0001
0010
0110
1001
,  // measure 67
0100
0000
0000
0000
1001
0000
0000
0000
0010
0000
0000
0000
1000
0100
1000
0000
,  // measure 68
0001
0000
0100
0001
0000
0010
0001
0000
1000
0000
0010
0000
1000
0000
0001
0100
,  // measure 69
0000
0001
0010
0000
0100
0000
0010
0000
0001
0000
1000
0010
0000
0100
0010
0000
,  // measure 70
1000
0001
0000
1000
0100
0000
0010
0000
0001
0000
0100
0001
0000
1000
0100
0000
,  // measure 71
1000
0001
0000
0100
0010
0000
1000
0000
0010
0000
0000
1000
0000
0000
0100
0000
,  // measure 72
0010
0001
0000
0100
0001
0000
1000
0001
0010
0001
0010
0000
0000
0000
0100
0000
,  // measure 73
1000
0000
0000
0000
0001
0000
1000
0000
0010
1000
0010
0000
0100
0000
0000
0000
,  // measure 74
0001
0000
1000
0000
0100
0000
0010
0001
0010
0000
0100
0000
1000
0000
0010
1000
,  // measure 75
0010
0000
0100
0000
0001
0000
1000
0000
0001
0100
0001
0000
1000
0100
1000
0000
,  // measure 76
0001
0010
0100
0000
1000
0000
0001
0000
1001
0000
0000
0000
0000
0000
0000
0000
;

//---------------dance-single - Marten-DSP----------------
#NOTES:
     dance-single:
     Marten:
     Medium:
     12:
     0.608231,0.677073,0.614886,0.307443,0.265519,457,391,66,33,0,0,0.608231,0.677073,0.614886,0.307443,0.265519,457,391,66,33,0,0:
0000
0000
0000
0000
,
0000
0000
0000
0000
,
0000
0000
0000
0000
,
0000
0000
0000
0000
,
0000
0000
0000
0000
,
0101
0000
1001
0000
1000
0000
0001
0100
,
0001
0011
0000
0000
0110
0000
1100
0000
,
1001
0100
1001
0010
,
1001
0000
1001
0000
0000
0000
0000
0000
1010
0000
0000
0110
0000
0000
0101
0000
,
0000
1001
0001
0100
,
0001
0010
0001
1000
0100
1000
0001
0100
,
0010
0000
1000
0000
0100
0000
0010
0001
,
1001
1001
0000
0000
0011
0000
0110
0000
,
1100
0000
1001
0000
0001
0000
0100
0010
,
0110
0000
0010
1000
0001
1000
0100
1000
,
1001
0010
1001
0100
,
1001
1001
0000
0001
0100
0000
0110
0000
,
1001
0000
0000
0000
0000
0000
0000
0000
2010
0000
0000
3002
0000
0000
0023
0000
,
0000
0230
0000
0000
1300
0000
0010
0000
2000
0000
0000
3002
0000
0000
0203
0000
,
0000
0320
0000
0000
0130
0000
0001
0000
0020
0000
0000
0032
0000
0000
2003
0000
,
0000
3020
0000
0000
0130
0000
0010
0000
2000
0000
0000
3200
0000
0000
0320
0000
,
0000
0032
0000
0000
0103
0000
0001
0000
0020
0000
0000
0032
0000
0000
0203
0000
,
0000
0320
0000
0000
1030
0000
0001
0000
2000
0000
0000
3020
0000
0000
0230
0000
,
0000
0302
0000
0000
0013
0000
0001
0000
2000
0000
0000
3200
0000
0000
0302
0000
,
0000
0203
0000
0000
1300
0000
0001
0000
2000
0000
0000
3020
0000
0000
0032
0000
,
0000
0023
0000
0000
1030
0000
0001
0000
0100
0000
0001
0000
0000
0000
0001
0000
,
0000
0001
0000
0001
0000
1000
0000
1000
,
0000
1000
0000
1000
0000
0010
0000
0010
,
0000
0010
0000
0010
0000
0100
0000
0100
,
0000
0100
0000
0100
0001
1000
0100
1000
,
0100
0000
0010
0001
0100
0001
0100
0010
,
0100
0000
0001
1000
0100
1000
0100
0010
,
0001
0010
0001
0100
0010
0100
0001
0010
,
0100
1000
0001
0100
1001
0000
0010
0000
,
1000
0000
0001
0001
0000
0000
0010
0000
,
0001
0000
1000
1000
1001
0000
1001
0000
,
0001
0000
0100
0100
0000
0000
0010
0000
,
1000
0000
0010
0010
1010
0000
0100
0001
,
0000
0000
0010
0001
0011
0000
0100
1000
,
0000
0000
0001
1000
1001
0000
0001
0000
,
1001
1000
0110
0010
,
0110
0000
0100
0000
0001
0100
0010
1000
,
0001
0100
0010
1000
0001
0010
0100
0001
,
0100
0010
0001
1000
0020
0000
1030
1000
,
0001
0000
0000
0010
0000
0000
0010
0000
0100
0000
1000
0000
0001
0000
0000
0100
,
0000
0000
0001
0000
0000
0010
0000
0000
0100
0000
1000
0000
0010
0000
0000
1000
,
0000
0000
0100
0000
0000
1000
0000
0000
0010
0000
1000
0000
0001
0000
0000
0010
,
0000
0000
0100
0000
0000
0001
0000
0000
0100
0000
1000
0000
0001
0000
0000
0100
,
0000
0000
0010
0000
1010
0000
0000
0110
0000
0000
0101
0000
0000
0000
0000
0000
,
1001
0000
0001
0000
0010
0000
0000
0000
0100
0000
1000
0000
1001
0000
0000
1000
,
0000
0000
0010
0000
0000
0010
0000
0000
0100
0000
0001
0000
1000
0000
0000
0100
,
0000
0000
0010
0000
0000
1000
0000
0000
0010
0000
0001
0000
1000
0000
0001
0000
,
1000
0000
1001
0000
0000
0000
1000
0000
0001
0000
0001
0000
1001
0000
0000
1000
,
0000
0000
0010
0000
0000
0100
0000
0000
0001
0000
1000
0000
0001
0000
0000
0010
,
0000
0000
0100
0000
0000
1000
0000
0000
0001
0000
1000
0000
0001
0000
0000
0100
,
0000
0000
0010
0000
0000
1000
0000
0000
0100
0000
1000
0000
1001
0000
0000
0000
,
0110
0000
0000
0000
0011
0000
0000
0110
0000
0000
1100
0000
1001
0000
0000
0001
,
0000
0000
1000
0000
0010
0000
0000
0000
0100
0000
0001
0000
1001
0000
0000
0001
,
0000
0000
0010
0000
0000
0010
0000
0000
0100
0000
1000
0000
0001
0000
0000
0100
,
0000
0000
1000
0000
0000
0100
0000
0000
0001
0000
1000
0000
0001
0000
0000
0010
,
0000
0000
1000
0000
0000
0010
0000
0000
0001
0000
1000
0000
0010
0000
0000
0000
,
0110
0010
0000
0000
0000
0000
1000
0000
,
1100
0110
0011
1001
,
0100
1001
0010
1001
,
0110
0000
0000
0000
0011
0000
0000
0110
0000
0000
1100
0000
1000
0000
0000
0000
,
0000
0010
0110
1001
,
0000
0100
0110
1001
,
0000
0000
0110
0000
0000
0000
0001
1000
,
0001
0000
0000
0010
0000
0000
0100
0000
0010
0000
0010
0000
0001
0000
0100
0000
,
0000
0001
0000
0000
1000
0000
0100
0000
1000
0000
0000
0010
0000
0000
0100
0000
,
0000
0100
0000
0000
0001
0000
0010
0000
0001
0000
0000
1000
0000
0000
0100
0000
,
0000
0100
0000
0000
0010
0000
0001
0000
1000
0000
0000
0010
0000
0000
0100
0000
,
0000
0001
0000
0000
1000
0000
0100
0000
0010
0000
0000
0001
0000
0000
1000
0000
,
0000
1000
0000
0000
0010
0000
1000
0000
0001
0000
0000
0001
0000
0000
0010
0000
,
0000
0010
0000
0000
0100
0000
1000
0000
0001
0000
0100
0000
1000
0000
0000
0000
,
1000
0100
0001
0000
1000
0100
0010
0001
,
0100
0010
0001
0010
1000
0000
0000
0000
;

//---------------dance-single - Marten-BSP----------------
#NOTES:
     dance-single:
     Marten:
     Easy:
     8:
     0.415248,0.498896,0.605569,0.232911,0,312,247,65,25,0,0,0.415248,0.498896,0.605569,0.232911,0,312,247,65,25,0,0:
0000
0000
0000
0000
,
0000
0000
0000
0000
,
0000
0000
0000
0000
,
0000
0000
0000
0000
,
0000
0000
0000
0000
,
1010
1001
0001
1000
,
0100
0100
0000
0000
0110
0000
0011
0000
,
1001
0000
1001
0000
,
0010
0010
0000
0000
1010
0000
0000
0101
,
0000
1001
0001
0010
,
0100
1000
0001
1000
,
0001
0001
0010
0010
,
0001
0001
0000
0000
0101
0000
1001
0000
,
1010
1001
0001
1000
,
1001
0001
0010
0100
,
1100
1000
1001
0001
,
0100
0100
0000
0000
0000
0000
0110
0000
,
1001
0000
0000
0000
0020
0000
0000
2030
,
0000
0000
3100
0000
0020
0000
0000
0032
,
0000
0000
0103
0000
0002
0000
0000
2003
,
0000
0000
3100
0000
2000
0000
0000
3002
,
0000
0000
0103
0000
0020
0000
0000
2030
,
0000
0000
3001
0000
0020
0000
0000
0032
,
0000
0000
1003
0000
0200
0000
0000
2300
,
0000
0000
3010
0000
0200
0000
0000
0302
,
0000
0000
0013
0000
0000
0001
0000
0001
,
0000
0001
0000
0001
0000
1000
0000
1000
,
0000
1000
0000
1000
0000
0010
0000
0010
,
0000
0010
0000
0010
0000
0100
0000
0100
,
0000
0100
0000
0100
0100
0000
0001
0000
,
1000
1000
0100
1000
,
0001
0001
1000
0010
,
0001
0010
1000
0100
,
0010
0001
1001
0001
,
0010
0000
0200
0300
0000
0000
1000
0000
,
0010
0000
0200
0300
0110
0000
0110
0000
,
0100
0000
0002
0003
0000
0000
0010
0000
,
0100
0000
2000
3000
0000
0000
0002
0003
,
0000
0000
2000
3000
0000
0000
0002
0003
,
0000
0000
2000
3000
0010
0000
0010
0000
,
1000
1000
0001
0001
,
0010
0010
0100
1000
,
0001
1000
0010
0010
,
0100
0001
2000
3001
,
0010
0100
1000
1001
,
0001
0100
0100
0010
,
1000
0100
0100
1000
,
0010
0001
0010
1001
,
0000
0000
1010
0000
0000
0101
0000
0000
,
1001
0001
0010
1001
,
0001
1000
0100
1100
,
0000
0011
0000
1000
,
0000
1001
0000
0000
0110
0000
0010
0000
,
1000
0001
0001
0010
,
0001
0100
0010
1000
,
1000
0001
0001
1001
,
0110
0010
0100
1001
,
0001
0010
0110
1001
,
1000
0010
0110
1001
,
0000
0110
0000
1001
,
0001
0010
0100
1000
,
1001
0000
0000
0000
,
0101
1100
0101
1001
,
0000
1001
0000
1010
,
0101
0110
0000
1001
,
0000
0000
0110
1001
,
0000
0000
0110
1001
,
0000
1001
0000
0001
,
0010
0100
1000
0001
,
0100
0100
0001
0010
,
0100
0100
1000
0100
,
0010
0001
1001
1000
,
0010
0110
1001
0001
,
1000
1001
0110
0010
,
0100
0101
1010
0000
,
1100
0000
0011
0001
,
0010
0100
0110
0000
;

//---------------dance-single - Marten-bSP----------------
#NOTES:
     dance-single:
     Marten:
     Beginner:
     5:
     0.246221,0.356354,0.503088,0.083848,0,185,131,54,9,0,0,0.246221,0.356354,0.503088,0.083848,0,185,131,54,9,0,0:
0000
0000
0000
0000
,
0000
0000
0000
0000
,
0000
0000
0000
0000
,
0000
0000
0000
0000
,
0000
0000
0000
0000
,
1001
1001
0000
0000
,
0100
0000
0010
0000
,
1001
0000
1001
0000
,
1001
0000
0000
0000
,
0000
1001
0000
0000
,
0001
0000
1000
0000
,
0100
0000
0010
0000
,
1001
0000
0110
0000
,
0000
1001
0000
0000
,
1001
0000
1000
0000
,
1001
0000
1001
0000
,
1001
0000
0000
0010
,
0110
0000
2000
0000
,
0000
3000
0002
0000
,
0000
0003
0200
0300
,
0020
0030
0200
0000
,
0000
0300
0002
0000
,
0000
0003
0020
0000
,
0000
0030
0200
0000
,
0000
0300
2000
0000
,
0000
3000
0001
0000
,
0000
0000
1000
0000
,
0000
0000
0010
0000
,
0010
0000
0100
0000
,
0001
0000
1000
0000
,
0001
0000
0010
0000
,
0000
0000
0100
0000
,
0000
0000
1000
0000
,
0001
0000
1001
0000
,
0000
0000
1000
0000
,
0001
0000
1001
1001
,
0001
0000
1000
0000
,
0000
0000
1001
0000
,
0000
0000
1001
0000
,
0000
0000
1001
0000
,
1001
0000
0110
0000
,
0110
0000
1001
0000
,
0001
0000
1000
0000
,
0001
0000
1001
0010
,
0000
0010
0000
1001
,
0000
0001
0000
1000
,
0000
1000
0000
0100
,
0000
0010
0000
1001
,
0000
0110
0000
0000
,
1001
0000
0000
1001
,
0000
0001
0000
1001
,
0000
1001
0000
0110
,
0000
0010
0000
1001
,
0000
0001
0000
1000
,
0000
0010
0000
0100
,
0000
0010
0000
0110
,
0000
1001
0000
0110
,
0000
0010
0000
1001
,
0000
0001
0000
1001
,
0000
0110
0000
1001
,
0000
0001
1000
0000
,
1001
0000
0000
0000
,
0100
0100
0100
0100
,
0000
0010
0000
1000
,
1000
1000
0000
1001
,
0000
0000
1001
1001
,
0000
0000
1001
1001
,
0000
1001
0000
0001
,
0000
1000
0000
0001
,
0000
0010
0010
0000
,
0100
0000
0010
0000
,
0001
0000
1001
0000
,
1000
0000
1001
0000
,
0001
1000
1001
0000
,
1000
0001
1001
0000
,
1001
0000
0001
0000
,
1000
0000
1001
0000
;

//---------------dance-double - NewbStepper-EDP----------------
#NOTES:
     dance-double:
     NewbStepper:
     Hard:
     15:
     0.717367,0.869225,0.512405,0.400607,0.400607,539,484,55,43,0,0,0.717367,0.869225,0.512405,0.400607,0.400607,539,484,55,43,0,0:
00000000
00000000
00000000
00000000
,
00000000
00000000
00000000
00000000
,
00000000
00000000
00000000
00000000
,
00000000
00000000
00000000
00000000
,
00000000
00000000
00000000
00000000
,
01100000
10010000
00000000
10000000
,
01000000
01100000
00000000
00000000
00101000
00000000
00011000
00000000
,
00010010
00000010
00000000
00000000
00101000
00100000
00000000
00000000
,
00011000
00000000
00011000
00000000
00000000
00000000
00000000
00000000
00010100
00000000
00000000
00001100
00000000
00000000
00001100
00000000
,
00000000
00000000
00001001
00000000
00000001
00000100
00000001
00000010
,
00001000
00010000
00000010
00001000
00000010
00000100
00001000
00010000
,
01000000
10000000
00100000
00010000
00100000
10000000
01000000
00010000
,
00011000
00011000
00000000
00000000
01001000
00000000
00110000
00000000
,
01100000
00000000
10010000
00000000
10000000
01000000
10000000
00100000
,
00010000
00000000
00001000
00000000
00100000
00000000
00010000
00000000
10000000
00100000
10000000
00000000
00010000
00000000
00100000
00000000
,
01100000
00000000
00010000
00001000
00011000
00000000
00000100
00000010
,
00000110
00000001
00000100
00001000
00010000
01000000
10000000
00010000
,
10010000
00000000
00000000
00000000
00000000
00000000
00000000
00000000
00210000
00000000
00000000
02300000
00000000
00000000
23000000
00000000
,
00000000
30200000
00000000
00000000
00310000
00000000
00001000
00000000
00000020
00000000
00000000
00000032
00000000
00000000
00000203
00000000
,
00000000
00000302
00000000
00000000
00000013
00000000
00000001
00000000
00002000
00000000
00000000
00003200
00000000
00000000
00010000
00000000
,
00000300
00020000
00000000
00000000
01030000
00000000
10000000
00000000
00020000
00000000
00000000
02030000
00000000
00000000
00001000
00000000
,
03000000
00002000
00000000
00000000
00003010
00000000
00000001
00001000
00000002
00000000
00000000
00000203
00000000
00000000
00000302
00000000
,
00000000
00000023
00000000
00000000
00001030
00000000
00010000
00000000
00200000
00000000
00000000
20300000
00000000
00000000
32000000
00000000
,
00000000
23000000
00000000
00000000
30100000
00000000
10000000
00000000
00020000
00000000
00000000
02030000
00000000
00000000
00001000
00000000
,
03000000
00002000
00000000
00000000
00003100
00000000
00000001
00000000
00002000
00000000
00000000
00003200
00000000
00000000
00020300
00000000
,
00000000
00032000
00000000
00000000
00013000
00000000
00100000
00000000
10000000
00000000
01000000
00000000
00000000
00000000
00010000
00000000
,
00000000
00000100
00000000
00000100
00000000
00010000
00000000
00100000
,
00000000
00100000
00000000
00010000
00001000
00000100
00000000
00000100
,
00000001
00001000
00000000
00001000
00000010
00000100
00000000
00000100
,
00001000
00010000
00000000
00010000
00100000
10000000
00100000
10000000
,
01000000
10000000
01000000
00100000
00010000
00100000
00010000
00001000
,
00000100
00000010
00000001
00000000
00000100
00000010
00001000
00000000
,
00000001
00000100
00001000
00000000
00010000
01000000
10000000
00100000
,
00010000
00001000
00100000
01000000
00020000
00000000
00001000
00000000
,
00100000
00000000
00031000
00000010
00000002
00000000
00000100
00000000
,
00001000
00000000
00000013
00000100
00002000
00000000
00000010
00000000
,
00000001
00000000
00003100
00010000
00002000
00000000
00010000
00000000
,
00000010
00000000
00013000
00100000
20000000
00000000
31000000
00010000
,
00002000
00000000
00003100
00001000
00020000
00000000
00130000
00010000
,
00002000
00000000
00003010
00001000
00010000
00000000
00010000
00000000
,
00110000
00100000
10100000
10000000
,
10010000
00000000
00010000
00000000
10000000
01000000
00010000
00001000
,
00000010
00000000
00000001
00000000
00001000
00000000
00000010
00000000
00010000
00001000
00010000
00000000
00000100
00010000
00000100
00000000
,
00001000
00000010
00001000
00000000
00000001
00000010
00000001
00000000
00002000
00000000
00000000
00000000
00003001
00000000
00000000
00000000
,
00000010
00000000
00000001
00000100
00000000
00000001
00000100
00000000
00001000
00000000
00010000
00000000
00000100
00000000
00010000
00000000
,
01000000
00010000
00001000
00000100
00000010
00001000
00010000
00100000
,
10000000
00100000
00010000
01000000
00001000
00010000
00100000
10000000
,
00100000
00010000
00001000
00000010
00000001
00000010
00001000
00000000
,
00011000
00000000
00000000
00000000
00010010
00000000
00000000
00011000
00000000
00000000
01001000
00000000
01100000
00000000
00000000
00000000
,
00100000
00000000
10000000
01000000
00000000
10000000
01000000
00000000
00010000
00000000
00001000
00000000
01000000
00000000
00001000
00000000
,
00000100
00001000
00010000
01000000
00100000
00010000
00001000
00000010
,
00000001
00000000
00000010
00000000
00001000
00000000
00000001
00000000
00000100
00000000
00001000
00000000
00010000
00001000
00010000
00000000
,
00100000
00000000
00010000
00001000
00000000
00000010
00001000
00000000
00010000
00001000
00010000
00000000
00011000
00000000
00000000
00000000
,
00001000
00000000
00010000
00000100
00000000
00010000
00001000
00000000
00100000
00010000
00100000
00000000
01000000
10000000
00000000
00010000
,
10000000
00000000
00010000
00100000
00000000
00001000
00010000
00000000
00000010
00001000
00000010
00000000
00000100
00000001
00000000
00001000
,
00000001
00000000
00001000
00000010
00000000
00010000
00001000
00000000
00100000
00010000
00100000
00000000
00110000
00000000
00000000
00000000
,
10010000
00000000
00000000
00000000
10100000
00000000
00000000
01010000
00000000
00000000
00101000
00000000
00011000
00000000
00000000
00000000
,
00010000
00000000
00001000
01000000
00000000
00001000
00010000
00000000
00000010
00001000
00000010
00000000
00000100
00000001
00000000
00001000
,
00000001
00000000
00001000
00000010
00000000
00010000
00001000
00000000
00100000
00010000
00100000
00000000
01000000
10000000
00000000
00010000
,
10000000
00000000
00010000
00100000
00000000
00001000
00010000
00000000
00000010
00001000
00000010
00000000
00010000
00000100
00001000
00000001
,
00000100
00000000
00001000
00010000
00000000
00001000
00010000
00000000
00100000
00000000
00010000
00000000
00001000
00000000
00000000
00000000
,
00011000
00000000
00000000
00000000
,
01010000
00011000
00001100
00011000
,
00000000
01100000
00000000
10010000
,
10000000
00000000
00000000
00000000
00100000
00000000
00000000
00010000
00000000
00000000
00001000
00000000
00000110
00000000
00000000
00000000
,
00000000
00000000
00001010
00000110
,
00000000
00000000
00000011
00000110
,
00000000
00000000
00001001
00000000
00000000
00000000
00000001
00000100
,
00001000
00000000
00010000
00000000
01000000
00000000
10000000
00000000
00100000
00000000
02000000
03000000
00100000
00000000
10000000
01000000
,
00000000
10000000
01000000
00000000
00100000
00010000
00100000
00000000
00001000
00000000
00010000
00000100
00000000
00010000
00001000
00000000
,
01000000
00001000
00000000
00010000
00001000
00000000
00000100
00000010
00000100
00000000
00000001
00000100
00000000
00000010
00000100
00000000
,
00001000
00000100
00000000
00000010
00000100
00000000
00001000
00000000
00011000
00000000
00200000
00000000
00300000
00000000
00010000
10000000
,
00010000
00000000
10000000
00000000
01000000
00000000
00010000
00000000
00011000
00000000
00000020
00000000
00000030
00000000
00001000
00000001
,
00001000
00000000
00000001
00000000
00000100
00000000
00001000
00000000
00011000
00000000
00200000
00000000
00300000
00000000
00010000
10000000
,
00010000
00000000
10000000
00000000
01000000
00000000
00100000
00000000
00010000
00000000
00100000
00001000
00100000
00000000
00001000
00010000
,
00001000
00000000
00010000
00000010
00010000
00000000
00000010
00000000
00001000
00000000
00000001
00000100
00000001
00000000
00001000
00000100
,
00001000
00000000
00000010
00000000
00010000
00001000
00100000
00001000
00020000
00000000
00000000
00000000
00000000
00000000
00000000
00000000
,
00000000
00000000
00000000
00030000
;

//---------------dance-double - NewbStepper-DDP----------------
#NOTES:
     dance-double:
     NewbStepper:
     Medium:
     12:
     0.560318,0.641438,0.335392,0.279494,0.204962,421,385,36,30,0,0,0.560318,0.641438,0.335392,0.279494,0.204962,421,385,36,30,0,0:
00000000
00000000
00000000
00000000
,
00000000
00000000
00000000
00000000
,
00000000
00000000
00000000
00000000
,
00000000
00000000
00000000
00000000
,
00000000
00000000
00000000
00000000
,
00000110
00001001
00000000
00000001
,
00000100
00001000
00000000
00000000
00001100
00000000
00011000
00000000
,
01010000
00000000
10010000
00000000
,
10000000
00000000
01000000
00000000
00000000
00000000
00000000
00000000
00110000
00000000
00000000
00110000
00000000
00000000
00110000
00000000
,
00000000
01001000
00010000
00001000
,
00000010
00000001
00000010
00000100
00001000
00000001
00000100
00000010
,
00000100
00000000
00001000
00000000
00010000
00000000
01000000
10000000
,
00010000
10010000
00000000
00000000
00101000
00000000
00011000
00000000
,
00010010
00000000
00011000
00000000
00001000
00000000
01000000
00100000
,
01100000
00000000
00010000
10000000
01000000
00010000
00001000
00000010
,
00000011
00000100
00001010
00000100
,
00000001
00000100
00001000
00010000
00100000
10000000
00010000
00000000
,
10010000
00000000
00000000
00000000
00000000
00000000
00000000
00000000
20000000
00000000
00000000
30200000
00000000
00000000
02300000
00000000
,
00000000
03020000
00000000
00000000
00130000
00000000
00001000
00000000
00020000
00000000
00000000
00032000
00000000
00000000
00003200
00000000
,
00000000
00002300
00000000
00000000
00013000
00000000
00001000
00000000
00020000
00000000
00000000
00030020
00000000
00000000
00001000
00000000
,
00000000
00002030
00000000
00000000
00003001
00000000
00000100
00000000
00000200
00000000
00000000
00002300
00000000
00000000
00010000
00000000
,
00000000
00023000
00000000
00000000
00130000
00000000
00010000
00000000
00002000
00000000
00000000
00003020
00000000
00000000
00000032
00000000
,
00000000
00000023
00000000
00000000
00000031
00000000
00000100
00000000
00000002
00000000
00000000
00002003
00000000
00000000
00000100
00000000
,
00000000
00003200
00000000
00000000
00010300
00000000
00001000
00000000
02000000
00000000
00000000
03020000
00000000
00000000
00230000
00000000
,
00000000
20300000
00000000
00000000
30100000
00000000
00010000
00000000
01000000
00000000
00000000
02000000
00000000
00000000
03002000
00000000
,
00000000
00023000
00000000
00000000
00031000
00000000
00000010
00000000
00000001
00000000
00000000
00000000
00000100
00000000
00000000
00000000
,
00001000
00000010
00000001
00000100
,
00001000
00010000
00100000
00000000
10000000
00000000
01000000
00000000
,
00010000
00100000
10000000
01000000
,
00010000
00001000
00000010
00000000
00000001
00001000
00000010
00000000
,
00001000
00000001
00000010
00000000
00000100
00010000
00001000
00000000
,
01000000
00001000
00010000
00000000
00100000
10000000
01000000
00100000
,
00010000
01000000
00100000
00010000
00001000
00000100
00000010
00010000
,
00001000
00000100
00000001
00000010
00000110
00000000
00000001
00000000
,
00001000
00000000
00000001
00000100
00000000
00000000
00001000
00000000
,
00010000
00000000
00001000
00100000
00000000
00000000
00010000
00000000
,
01000000
00000000
00010000
10000000
00000000
00000000
00100000
00000000
,
10000000
00000000
00100000
01000000
00100000
00000000
00010000
00001000
,
00010000
00000000
00000100
00000010
00000100
00000000
00001000
00000001
,
00001000
00000000
00000010
00000100
00000001
00000000
00000100
00000000
,
00000010
00001000
00010000
01000000
,
00100000
00000000
10000000
00000000
00010000
00010000
10000000
10000000
,
00100000
01000000
00010000
00001000
00000010
00000100
00000001
00001000
,
00000100
00010000
00001000
01000000
00020000
00000000
10030000
00000000
,
00100000
00000000
00000000
10000000
00000000
00000000
01000000
00000000
00010000
00000000
00001000
00000000
00000100
00000000
00000000
00000001
,
00000000
00000000
00001000
00000000
00000000
00000001
00000000
00000000
00000010
00000000
00000100
00000000
00001000
00000000
00000000
00000100
,
00000000
00000000
00010000
00000000
00000000
00000100
00000000
00000000
00000010
00000000
00001000
00000000
00010000
00000000
00000000
00010000
,
00000000
00000000
00001000
00000000
00000000
00001000
00000000
00000000
00100000
00000000
00010000
00000000
10000000
00000000
00000000
01000000
,
00000000
00000000
00010000
00000000
00001000
00000000
00000000
00011000
00000000
00000000
00011000
00000000
00000010
00000000
00000000
00000000
,
00000110
00000000
00000001
00000100
00001000
00010000
01000000
00000000
,
01100000
00000000
10000000
01000000
00010000
00001000
00000100
00000000
,
00000001
00000000
00000000
00000000
00000010
00000000
00000001
00000000
00000100
00000000
00001000
00000000
00010000
00000000
00000000
00010000
,
00000000
00000000
00001000
00000000
00000000
00100000
00000000
00000000
00010000
00000000
10000000
00000000
01000000
00000000
00000000
10000000
,
00000000
00000000
00010000
00000000
00000000
10000000
00000000
00000000
00100000
00000000
01000000
00000000
00010000
00000000
00000000
01000000
,
00000000
00000000
00001000
00000000
00000000
01000000
00000000
00000000
00100000
00000000
00010000
00000000
00001000
00000000
00000000
00001000
,
00000000
00000000
00010000
00000000
00000000
00010000
00000000
00000000
00000010
00000000
00001000
00000000
00000001
00000000
00000000
00000100
,
00000000
00000000
00001000
00000000
00010000
00000000
00000000
00011000
00000000
00000000
00011000
00000000
00100000
00000000
00000000
00000000
,
01100000
00000000
10000000
01000000
00010000
00001000
00000100
00000000
,
00000110
00000000
00000001
00000100
00001000
00010000
01000000
00000000
,
10000000
00000000
00000000
00000000
00100000
00000000
10000000
00000000
01000000
00000000
00010000
00000000
00001000
00000000
00000000
00001000
,
00000000
00000000
00010000
00000000
00000000
00000010
00000000
00000000
00001000
00000000
00000001
00000000
00000100
00000000
00000000
00000000
,
00000110
00000000
00000000
00000000
,
00000001
00001000
00010000
10000000
,
00000000
10010000
00000000
10000000
,
00010000
00001000
00000001
00001001
,
00000000
00000000
00010100
00011000
,
00000000
00000000
01001000
00011000
,
00000000
00000000
01001000
00000000
00000000
00000000
01000000
00010000
,
10000000
00000000
00000000
00100000
00000000
00000000
10000000
00000000
01000000
00000000
00020000
00030000
00001000
00000000
00000100
00000000
,
00000000
00000001
00000000
00000000
00000010
00000000
00000100
00000000
00001000
00000000
00000000
00000010
00000000
00000000
00010000
00000000
,
00000000
00000010
00000000
00000000
00001000
00000000
00010000
00000000
01000000
00000000
00000000
00100000
00000000
00000000
10000000
00000000
,
00000000
00010000
00000000
00000000
10000000
00000000
01000000
00000000
00010000
00000000
00001000
00000000
00000000
00000000
00000010
00000000
,
00000100
00000010
00000001
00000100
00001000
00010000
00000000
00100000
,
01000000
00100000
10000000
01000000
00010000
00001000
00000000
00000010
,
00000001
00000010
00000100
00001000
00000001
00000100
00001000
00000000
,
00010000
01000000
10000000
00000000
00010000
10000000
01000000
00100000
,
00010000
01000000
00100000
00010000
00001000
00000000
00000000
00000000
;

//---------------dance-double - NewbStepper-BDP----------------
#NOTES:
     dance-double:
     NewbStepper:
     Easy:
     8:
     0.306112,0.397813,0.335392,0.232911,0,230,194,36,25,0,0,0.306112,0.397813,0.335392,0.232911,0,230,194,36,25,0,0:
// measure 0
00000000
00000000
00000000
00000000
,  // measure 1
00000000
00000000
00000000
00000000
,  // measure 2
00000000
00000000
00000000
00000000
,  // measure 3
00000000
00000000
00000000
00000000
,  // measure 4
00000000
00000000
00000000
00000000
,  // measure 5
10100000
10010000
00000000
00000000
,  // measure 6
00000000
00101000
00000000
00000000
00011000
00000000
00010100
00000000
,  // measure 7
00001001
00000000
00001001
00000000
,  // measure 8
00000010
00000010
00000000
00000000
00001010
00000000
00000000
00000101
,  // measure 9
00000000
00001001
00000001
00000100
,  // measure 10
00001000
00010000
01000000
10000000
,  // measure 11
00010000
00010000
10000000
10000000
,  // measure 12
00100000
00100000
00000000
00000000
11000000
00000000
10010000
00000000
,  // measure 13
00101000
00011000
00010000
00001000
,  // measure 14
00011000
00010000
00001000
00000100
,  // measure 15
00000101
00000001
00000011
00000010
,  // measure 16
00001000
00001000
00000000
00000000
00000000
00000000
00011000
00000000
,  // measure 17
00011000
00000000
00000000
00000000
00200000
00000000
00000000
20300000
,  // measure 18
00000000
00000000
31000000
00000000
00200000
00000000
00000000
00302000
,  // measure 19
00000000
00000000
00013000
00000000
00000020
00000000
00000000
00002030
,  // measure 20
00000000
00000000
00003001
00000000
00000200
00000000
00000000
00000320
,  // measure 21
00000000
00000000
00010030
00000000
00002000
00000000
00000000
00203000
,  // measure 22
00000000
00000000
00310000
00000000
20000000
00000000
00000000
30020000
,  // measure 23
00000000
00000000
01030000
00000000
00002000
00000000
00000000
00023000
,  // measure 24
00000000
00000000
00030010
00000000
00000200
00000000
00000000
00000302
,  // measure 25
00000000
00000000
00000013
00000000
00000000
00000001
00000000
00000001
,  // measure 26
00000000
00000001
00000000
00000001
00000000
00001000
00000000
00001000
,  // measure 27
00000000
00001000
00000000
00001000
00000000
00000010
00000000
00000010
,  // measure 28
00000000
00000010
00000000
00000010
00000000
00010000
00000000
00010000
,  // measure 29
00000000
00010000
00000000
00010000
00010000
00000000
00001000
00000000
,  // measure 30
01000000
01000000
10000000
01000000
,  // measure 31
00010000
00010000
00100000
00001000
,  // measure 32
00000010
00000001
00000100
00001000
,  // measure 33
01000000
00010000
10010000
10000000
,  // measure 34
00010000
00000000
00002000
00003000
00000000
00000000
00000001
00000000
,  // measure 35
00001000
00000000
00020000
00030000
00000000
00000000
10000000
00000000
,  // measure 36
00010000
00000000
00002000
00003000
00000000
00000000
00000001
00000000
,  // measure 37
00001000
00000000
00020000
00030000
00000000
00000000
20000000
30000000
,  // measure 38
00000000
00000000
00020000
00030000
00000000
00000000
00002000
00003000
,  // measure 39
00000000
00000000
00000002
00000003
00001000
00000000
00001000
00000000
,  // measure 40
00000010
00000010
00010000
00010000
,  // measure 41
00001000
00001000
00100000
00100000
,  // measure 42
01000000
10000000
00010000
00100000
,  // measure 43
00100000
00001000
00020000
00031000
,  // measure 44
00000010
00000001
00000100
00000110
,  // measure 45
00000010
00010000
00010000
00001000
,  // measure 46
00000010
00001000
00010000
00100000
,  // measure 47
00100000
10000000
00010000
10010000
,  // measure 48
00000000
00000000
10100000
00000000
00000000
01001000
00000000
00000000
,  // measure 49
00011000
00010000
00001000
00011000
,  // measure 50
00010000
00001000
00000100
00000101
,  // measure 51
00000000
00001010
00000000
00000001
,  // measure 52
00000100
00001000
00010000
01000000
,  // measure 53
00100000
00001000
00001000
00010000
,  // measure 54
00100000
00010000
00001000
00000010
,  // measure 55
00000010
00000001
00001000
00001001
,  // measure 56
00000110
00000010
00001000
00011000
,  // measure 57
00000000
00100000
00010000
00011000
,  // measure 58
00000000
00000100
00001000
00011000
,  // measure 59
00000000
00011000
00000000
00011000
,  // measure 60
00001000
00010000
01000000
10000000
,  // measure 61
10010000
00000000
00000000
00000000
,  // measure 62
10000000
01000000
00010000
00001000
,  // measure 63
00000000
00011000
00000000
00010010
,  // measure 64
00000010
00000110
00000000
00001001
,  // measure 65
00000000
00000000
00000110
00001001
,  // measure 66
00000000
00000000
00011000
00011000
,  // measure 67
00000000
10010000
00000000
10000000
,  // measure 68
01000000
00100000
00010000
00100000
,  // measure 69
00001000
00001000
00010000
00100000
,  // measure 70
00010000
00001000
00000010
00000010
,  // measure 71
00000001
00001000
00001001
00000001
,  // measure 72
00000010
00001000
00011000
00010000
,  // measure 73
00100000
10000000
10010000
10000000
,  // measure 74
01000000
00010000
00011000
00001000
,  // measure 75
00000100
00000001
00000010
00001000
,  // measure 76
00010000
00100000
01100000
00000000
;
