#TITLE:Evans -whelm-;
#ARTIST:Remixed by leeium;
#BANNER:Evans -whelm-.png;
#BACKGROUND:Evans -whelm--bg.png;
#MUSIC:Evans -whelm-.ogg;
#OFFSET:-0.042;
#SAMPLESTART:111.088;
#SAMPLELENGTH:15;
#BPMS:0=175,68=87.5,116=175,212=87.5,244=175;

//---------------dance-single - leeium-ESP----------------
#NOTES:
     dance-single:
     leeium:
     Hard:
     15:
     0.509088,1.048838,0.250337,0.397594,0.401275,484,450,34,54,0,0,0.509088,1.048838,0.250337,0.397594,0.401275,484,450,34,54,0,0:
0000
0000
0000
0000
,
0000
0000
0000
0000
,
0000
0000
0000
0000
,
0000
0000
0000
0000
,
0000
0000
0000
0000
,
0000
0000
0000
0000
,
0000
0000
0000
0000
,
0000
0000
0000
0000
,
1010
0000
0000
0000
0001
0010
0000
0001
,
1000
0010
0100
0002
0100
0000
0013
0000
,
0100
0000
0010
0100
0000
1000
0000
0001
,
1000
0010
0100
0002
0100
0000
0013
0000
,
0100
0000
0010
0001
0000
1000
0000
0001
,
0100
0010
1000
0002
1000
0000
0013
0000
,
0100
0000
0010
0100
0000
1000
0000
0001
,
1000
0010
0100
0001
0100
0010
1000
0100
,
0010
0001
1100
0001
,
2002
0000
0000
0000
,
0000
0000
0000
0000
,
0000
0000
0000
0000
,
0000
0000
3003
0000
,
1000
0100
1000
0001
0000
0000
0000
0000
0100
0001
0100
0010
0000
0000
0000
0000
,
1010
0000
0000
0000
0101
0000
0000
0000
0011
0000
0000
0010
0000
0000
0001
0000
,
1000
0010
1000
0100
0000
0000
0000
0000
0010
0100
0010
0001
0000
0000
0000
0000
,
0001
0000
0000
0001
0000
0010
0100
1000
0001
0000
0000
0100
0000
0010
0000
0100
,
0001
0000
1000
0000
0010
0100
0010
1000
0000
0001
0000
1000
0000
0100
0010
0001
,
0010
0000
0100
0000
0010
0000
0100
1000
0000
0001
0000
1000
0000
0100
1000
0100
,
0010
0000
0100
0000
1000
0001
0010
0001
0000
0100
0000
0010
0000
0100
0001
0010
,
0001
0000
1000
0000
0010
0000
1000
0001
0000
0010
0000
0100
0000
1000
0000
0001
,
1000
0000
1000
0000
1000
0000
1000
0001
,
0100
0000
0100
0000
0100
0000
0100
0001
,
0010
0000
0010
0000
0010
0000
0010
0100
,
1000
0000
1000
0000
1000
0001
1000
0100
,
0010
0010
0001
0001
1000
1000
0010
0010
,
0100
0001
0100
0001
1000
0100
1000
0100
0010
0001
0010
0001
1000
0010
1000
0010
,
0200
0000
0000
0000
,
0300
0000
0000
0000
,
0010
0000
0002
0000
0013
1000
1000
0001
,
1000
0100
0010
0010
0001
1000
0010
0010
,
0200
0000
1000
0000
0301
1000
0100
0001
,
1000
0000
0001
0001
1000
0001
0100
1000
,
0020
0000
0230
0000
1300
0100
0010
1000
,
0100
0000
0001
0200
0000
1300
0001
0001
,
0020
0000
0031
1000
0010
1000
0001
0100
,
0010
0000
0101
0000
0010
0000
1100
0100
,
0010
0000
0000
0000
0012
0000
0000
0000
1003
0000
0001
1000
0001
1000
0001
1000
,
0010
1000
0200
0000
1300
0200
0000
0310
,
0001
0000
0101
0000
0010
2000
0000
3010
,
0100
0000
0101
0001
1000
0001
0020
0000
,
0130
1000
0100
1000
0200
0000
0000
0000
0310
0000
0001
0000
1000
0000
1000
0000
,
0100
0000
1000
0200
0000
0301
1000
1000
,
0010
0000
0001
1000
0001
0100
0010
0000
,
1010
0000
0100
0202
0000
0000
0303
0000
,
1001
0000
0000
0000
0001
0000
0000
0000
0010
0000
0100
0000
0010
0000
0001
0000
1000
0000
0001
1000
0002
0000
0000
0000
0103
0000
0100
0000
0200
0000
0000
0000
,
0320
0000
1000
0000
0130
0010
0000
1000
0002
0000
0000
0003
0100
0001
0010
0100
,
2000
0000
0010
0000
3001
0100
0002
0000
0013
0000
0001
1000
0010
0100
0010
1000
,
0000
0000
0000
0000
0200
0000
0000
0000
0310
0000
0010
0000
0010
0000
0200
0000
0000
0000
0000
0000
0310
0000
0001
0000
2000
0000
0000
0000
3001
0100
0001
0010
,
0000
0102
2003
0000
3001
2100
3002
0000
,
0203
0000
0000
0000
0310
0000
1000
0000
0002
0000
0000
0000
1003
0000
0001
0000
0020
0000
0000
0000
0000
0000
0130
0000
1000
0100
1000
0100
1000
0100
1000
0100
,
0010
0000
0000
0000
0000
0000
0001
0000
0000
0000
0000
0000
0010
0000
0000
0000
0000
0000
0001
0000
0000
0000
0000
0000
0010
0000
0000
0000
0000
0000
0001
0000
0000
0000
0000
0000
0010
0000
0000
0000
0000
0000
0001
0000
0000
0000
0000
0000
0010
0000
0000
0000
0000
0000
0000
0000
0000
0000
0000
0000
0000
0000
0000
0000
0001
0000
0000
0000
0000
0000
0000
0000
0000
0000
0000
0000
0000
0000
0000
0000
1000
0000
0000
0000
0000
0000
0000
0000
0000
0000
0000
0000
0000
0000
0000
0000
0010
0000
0000
0000
0000
0000
0000
0000
0000
0000
0000
0000
1000
0000
0000
0000
0000
0000
0000
0000
0000
0000
0000
0000
0010
0000
0000
0000
0000
0000
0000
0000
0000
0000
0000
0000
0020
0000
0000
0000
0000
0000
0000
0000
0000
0000
0000
0000
0000
0000
0000
0000
0000
0000
0000
0000
0000
0000
0000
0000
0130
0000
0000
0000
0000
0000
0000
0000
0000
0000
0000
0000
0001
0000
0000
0000
0000
0000
0000
0000
0000
0000
0000
0000
1000
0000
0000
0000
0000
0000
0000
0000
0000
0000
0000
0000
,
0010
1010
0110
0202
0000
0000
0303
0000
,
2001
0000
0000
0000
0000
0000
0000
0000
3010
0100
0001
0010
0100
1000
0200
0000
,
0000
0000
0000
0000
0000
0000
0000
0000
0310
0000
0100
0000
0010
0100
0010
0001
,
2000
0000
3000
0000
0110
0001
0001
0120
,
0000
0000
0031
1100
,
1020
0000
0000
0000
0000
0000
0000
0000
0130
0001
0100
0010
1000
0000
2100
0000
,
0000
0000
0000
0000
0000
0000
0000
0000
3001
0000
1000
0000
0001
0100
0001
0000
,
2010
0000
0000
0000
0000
0000
0000
0000
0000
0000
0000
0000
3001
0000
0010
0000
0100
0000
1000
0000
0000
1020
0000
0000
,
0000
0000
0030
1100
0000
0000
0101
0000
,
0001
0000
2100
0000
3010
0100
0001
0100
,
0000
0010
0000
1000
0010
0100
0001
0010
,
0001
0000
0000
0000
1000
0000
0000
0000
0100
0000
0000
0000
1000
0000
0000
0001
0000
0000
1000
0000
0000
0001
0000
0000
0010
0000
0000
0000
0000
0000
0100
0000
0000
0000
0000
0000
0010
0000
0000
0000
0000
0000
0021
0000
0000
0000
0000
0000
,
0000
1000
0000
0031
0100
0001
1000
0010
,
0001
0000
0010
0000
1000
0000
0002
0000
0000
0000
0000
0000
0013
0000
0000
1000
0000
0000
0001
0000
0000
0100
0000
0000
,
0020
0000
0001
0000
0000
0000
0130
0000
1000
0000
0001
1000
0100
1000
0010
0100
,
0001
1100
0101
2002
,
0000
0000
0000
0000
,
3003
0000
0000
0000
;

//---------------dance-single - leeium-DSP----------------
#NOTES:
     dance-single:
     leeium:
     Medium:
     10:
     0.391283,0.651980,0.206160,0.184071,0.161983,372,344,28,25,0,0,0.391283,0.651980,0.206160,0.184071,0.161983,372,344,28,25,0,0:
// measure 0
0000
0000
0000
0000
,  // measure 1
0000
0000
0000
0000
,  // measure 2
0000
0000
0000
0000
,  // measure 3
0000
0000
0000
0000
,  // measure 4
0000
0000
0000
0000
,  // measure 5
0000
0000
0000
0000
,  // measure 6
0000
0000
0000
0000
,  // measure 7
0000
0000
0000
0000
,  // measure 8
1010
0000
0011
0000
,  // measure 9
1000
0100
0010
0002
0000
0000
0000
0000
,  // measure 10
0003
0000
0100
0000
0000
0100
0000
0000
,  // measure 11
1000
0100
0010
0002
0000
0000
0000
0000
,  // measure 12
0003
0000
0010
0000
0000
0010
0000
0000
,  // measure 13
1000
0010
0100
0002
0000
0000
0000
0000
,  // measure 14
0003
0000
0100
0000
0000
0100
0000
0000
,  // measure 15
1000
0010
0100
0002
0000
0000
0003
0000
,  // measure 16
0110
0000
0101
0000
,  // measure 17
2002
0000
0000
0000
,  // measure 18
3003
0000
0000
0000
,  // measure 19
0000
0000
0000
0000
,  // measure 20
0000
0000
0000
0000
,  // measure 21
0001
0100
0001
0100
0000
0000
0000
0000
0001
1000
0001
1000
0000
0000
0000
0000
,  // measure 22
1010
0000
0000
0000
1001
0000
0000
0000
0011
0000
0000
0010
0000
0000
0001
0000
,  // measure 23
0010
0001
0010
0001
0000
0000
0000
0000
1000
0001
1000
0001
0000
0000
0000
0000
,  // measure 24
0100
0000
0000
0100
0000
0000
0001
0000
0010
0000
0000
0100
0000
0000
0010
0000
,  // measure 25
0001
0100
0001
0100
0000
0000
0000
0000
0001
1000
0001
1000
0000
0000
0000
0000
,  // measure 26
1100
0000
0000
0000
1001
0000
0000
0000
0101
0000
0000
0100
0000
0000
0001
0000
,  // measure 27
0010
0001
0010
0001
0000
0000
0000
0000
1000
0010
1000
0010
0000
0000
0000
0000
,  // measure 28
0100
0000
0000
0100
0000
0000
0010
0000
1000
0000
0000
0100
0000
0000
1000
0000
,  // measure 29
0001
0000
0001
0000
0001
0000
0001
0100
,  // measure 30
0001
0000
0001
0000
0001
0000
0001
0010
,  // measure 31
0100
0000
0100
0000
0100
0000
0100
0010
,  // measure 32
0100
0000
0100
0000
0100
0000
0100
1000
,  // measure 33
0001
1000
0001
1000
0010
0100
0010
0100
,  // measure 34
0001
1000
0001
0100
0010
1000
0001
0010
,  // measure 35
0200
0000
0000
0000
,  // measure 36
0300
0000
0000
0000
,  // measure 37
0100
0000
1000
0000
0001
1000
0001
1000
,  // measure 38
0010
0100
0010
0010
0010
1000
0010
0010
,  // measure 39
0100
0000
0001
0000
1000
0100
1000
0100
,  // measure 40
1000
0000
0001
0001
1000
0001
1000
0000
,  // measure 41
0010
0000
0100
0000
0001
0100
0010
0000
,  // measure 42
1000
0000
0001
1000
0000
0001
0001
0001
,  // measure 43
0010
0000
0001
0010
0001
0010
0001
0000
,  // measure 44
1000
0000
0101
0000
1000
0000
0001
0010
,  // measure 45
0000
0000
1001
0000
0010
0100
0100
0100
,  // measure 46
0010
0100
0010
0000
0100
0010
0000
0010
,  // measure 47
0001
0000
1000
0000
0010
1000
0000
1000
,  // measure 48
0010
0000
0010
0100
0001
0100
0001
0100
,  // measure 49
0010
0000
1001
0000
0000
0100
0001
0000
,  // measure 50
0100
0000
0010
0100
0000
0010
0010
0010
,  // measure 51
0100
0000
0001
1000
0001
0010
0100
0000
,  // measure 52
1100
0000
0002
2000
0000
0000
3003
0000
,  // measure 53
0010
0000
1000
0000
0010
0100
0010
0100
0001
0000
1000
0000
0010
0010
0020
0000
,  // measure 54
0130
0000
0001
0000
0001
1000
0000
1000
0002
0000
0000
0003
0010
0001
0010
0000
,  // measure 55
0010
0000
0001
0000
0001
0100
0002
0000
1003
0000
0001
0000
0100
0010
0100
0010
,  // measure 56
0000
0000
0000
0000
0010
0000
0000
0000
0010
0000
0010
0000
0010
0000
0200
0000
0000
0000
0000
0000
0310
0000
0010
0000
0010
0000
0000
1000
0000
0000
0001
0000
,  // measure 57
0000
1001
0100
0000
0010
1001
0100
0000
,  // measure 58
0010
0001
0000
0000
0001
1000
0000
0000
1001
0000
0000
0000
1000
0001
1000
0001
,  // measure 59
0100
0010
0100
0010
1000
0000
0000
0000
0100
0010
0100
0010
0001
0000
0100
0000
,  // measure 60
0000
0101
0110
2020
0000
0000
3030
0000
,  // measure 61
2001
0000
0000
0000
3001
0100
0001
0020
,  // measure 62
0000
0000
0000
0000
0130
1000
0010
1000
,  // measure 63
0002
0000
0003
0000
0010
0001
1000
0200
,  // measure 64
0000
0000
0301
1000
,  // measure 65
0120
0000
0000
0000
0130
1000
0010
0200
,  // measure 66
0000
0000
0000
0000
0301
0100
0010
1000
,  // measure 67
0002
0000
0000
0000
1003
0000
0001
2000
,  // measure 68
0000
0000
0000
3010
0000
0000
0100
0000
,  // measure 69
0001
0000
0110
0000
1000
0010
1000
0010
,  // measure 70
0000
0100
0000
0010
0000
1000
0100
1000
,  // measure 71
0001
0000
0010
0000
0001
0000
0100
0001
,  // measure 72
0000
0010
0000
0001
0000
0100
0001
0100
,  // measure 73
0010
0000
1010
0000
1000
0100
0010
0100
,  // measure 74
0000
1000
0000
0001
0000
0100
0001
0010
,  // measure 75
0001
0110
0011
2002
,  // measure 76
0000
0000
0000
0000
,  // measure 77
3003
0000
0000
0000
;

//---------------dance-single - leeium-BSP----------------
#NOTES:
     dance-single:
     leeium:
     Easy:
     7:
     0.229300,0.368511,0.184071,0.198797,0.025770,218,193,25,27,0,0,0.229300,0.368511,0.184071,0.198797,0.025770,218,193,25,27,0,0:
0000
0000
0000
0000
,
0000
0000
0000
0000
,
0000
0000
0000
0000
,
0000
0000
0000
0000
,
0000
0000
0000
0000
,
0000
0000
0000
0000
,
0000
0000
0000
0000
,
0000
0000
0000
0000
,
0110
0000
1001
0000
,
1000
0000
0000
0002
0000
0000
0000
0000
,
0003
0000
0001
0000
0000
0001
0000
0000
,
0001
0000
0000
2000
0000
0000
0000
0000
,
3000
0000
1000
0000
0000
1000
0000
0000
,
1000
0000
0000
0020
0000
0000
0000
0000
,
0030
0000
0010
0000
0000
0010
0000
0000
,
0010
0000
0000
0200
0000
0000
0300
0000
,
0110
0000
1001
0000
,
0220
0000
0000
0000
,
0330
0000
0000
0000
,
0000
0000
0000
0000
,
0000
0000
0000
0000
,
0010
0000
0100
0000
,
0001
0010
0100
1000
,
0100
0000
0010
0000
,
0001
1000
0010
0100
,
0001
0000
0000
0001
0000
0000
0000
0000
1000
0000
0000
1000
0000
0000
0000
0000
,
0001
1000
0010
0100
,
0010
0000
0000
0010
0000
0000
0000
0000
0100
0000
0000
0100
0000
0000
0000
0000
,
0001
1000
0100
0010
,
0001
0000
1000
0000
0001
0000
0000
0001
,
0000
0000
0001
0000
1000
0000
0000
1000
,
0000
0000
1000
0000
0001
0000
0000
0001
,
0000
0000
0001
0000
0010
0000
0000
0010
,
0000
0100
0000
0100
0000
0010
0000
0010
,
0000
0100
0000
1000
0000
0001
0000
1000
,
0001
0000
0000
0000
,
0000
0000
0000
0000
,
0100
0001
0010
0100
,
1000
0010
0001
0010
,
1000
0001
0100
0001
,
0010
0001
0100
0010
,
1000
0100
0010
0100
,
1000
0000
0000
1000
0000
0000
1000
0000
,
0010
1000
0001
1000
,
0100
0000
0010
0000
0001
0000
0000
0100
,
0000
0001
0100
0001
,
0010
0001
1000
0001
,
0100
1000
0100
0001
,
1000
0001
0010
0001
,
0000
0110
0000
0100
,
1000
0000
0000
1000
0000
0000
1000
0000
,
1001
0000
0100
0001
,
1001
0000
0000
1001
0000
0000
0000
0000
,
0010
0000
0001
0010
0001
0001
0001
0000
,
1000
0000
0000
0000
0010
0000
0000
0100
0000
0000
0000
0000
0100
0000
0100
0000
,
0100
0000
0001
0000
0000
1000
0001
1000
,
0000
0000
0000
0000
0010
0000
0000
0100
0000
0000
0000
0000
0010
0000
0010
0000
,
0000
0010
1000
0000
0001
0010
0100
0000
,
2000
3002
0023
0230
,
0310
0000
0000
0000
0001
0000
0000
0001
0000
0000
0000
0000
0001
0000
1000
0000
,
0000
1001
0110
1001
0000
0000
0000
0000
,
0022
0000
0000
0000
0033
0000
0000
2002
,
0000
0000
3003
0000
,
1010
0000
0000
0000
0001
0000
0000
1001
,
0000
0000
1000
1000
,
2200
0000
0000
0000
3300
0000
0000
0220
,
0000
0000
0330
0000
,
0022
0000
0000
0000
0033
0000
0000
1001
,
0000
0000
0000
0100
0000
0000
0001
0000
,
0010
0001
0100
0000
,
0010
1000
0100
0000
,
0020
0000
0000
0000
0031
0000
0000
2000
,
0000
0000
3020
0000
,
0030
0220
0000
0330
,
0101
0000
0001
1000
,
0100
0110
1001
0220
,
0000
0000
0000
0000
,
0330
0000
0000
0000
;

//---------------dance-single - leeium-bSP----------------
#NOTES:
     dance-single:
     leeium:
     Beginner:
     5:
     0.164086,0.283470,0.088354,0.080991,0.003681,156,144,12,11,0,0,0.164086,0.283470,0.088354,0.080991,0.003681,156,144,12,11,0,0:
0000
0000
0000
0000
,
0000
0000
0000
0000
,
0000
0000
0000
0000
,
0000
0000
0000
0000
,
0000
0000
0000
0000
,
0000
0000
0000
0000
,
0000
0000
0000
0000
,
0000
0000
0000
0000
,
0010
0000
0010
0000
,
0100
0000
0000
0100
0000
0000
0000
0000
,
0000
0000
0000
0000
,
0010
0000
0000
0010
0000
0000
0000
0000
,
0000
0000
0000
0000
,
1000
0000
0000
1000
0000
0000
0000
0000
,
0000
0000
0000
0000
,
0001
0000
0000
0001
0000
0000
0000
0000
,
1001
0000
0110
0000
,
1001
0000
0000
0000
,
0000
0000
0000
0000
,
0000
0000
0000
0000
,
0000
0000
0000
0000
,
0010
0000
1000
0000
,
0001
0001
0001
0000
,
0010
0000
0001
0000
,
1000
1000
1000
0000
,
0100
0000
1000
0000
,
0010
0010
0010
0000
,
0100
0000
0001
0000
,
0010
0010
0100
0000
,
1001
0000
0000
0000
,
0100
0000
0000
0000
,
0010
0000
0000
0000
,
0001
0000
0000
0000
,
0100
0100
0010
0010
,
1000
1000
0001
0001
,
0002
0000
0000
0000
,
0003
0000
0000
0000
,
0010
0000
0010
0000
,
0100
0100
0100
0100
,
0100
0000
0010
0000
,
0001
0001
0001
0001
,
0001
0000
1000
0000
,
0010
0000
0000
0010
0000
0000
0010
0000
,
0010
0000
0010
0000
,
0100
0100
0010
0010
,
0000
0110
0000
0000
,
1000
1000
1000
0000
,
1000
0000
0100
0000
,
0010
0010
0010
0010
,
0000
0110
0000
0000
,
0001
0001
0001
0001
,
0001
0000
1000
0000
,
0010
0000
0000
0010
0000
0000
0000
0000
,
0110
0000
0100
0000
0000
0100
0100
0000
,
0001
0000
0000
0000
0001
0000
0000
0001
0000
0000
0000
0000
1000
0000
0000
0000
,
0100
0000
0100
0000
0000
0010
0010
0010
,
0000
0001
0000
0010
,
0000
0001
0000
0000
0000
1000
0000
0000
,
0100
0010
0100
0100
,
0110
0000
1001
0000
,
0000
0001
0001
0001
0000
0000
0000
0000
,
0002
0000
0000
0000
0003
0000
0000
2000
,
0000
0000
3000
0000
,
0010
0000
0000
0000
0100
0000
0000
0200
,
0000
0300
0100
0100
,
0020
0000
0000
0000
0030
0000
0000
2000
,
0000
0000
3000
0000
,
0002
0000
0000
0000
0003
0000
0000
0010
,
0000
0000
0000
0010
0000
0000
0100
0000
,
0010
0010
0010
0000
,
0100
0100
0100
0000
,
1000
0000
0000
0000
0001
0000
0000
0001
,
0000
0000
0100
0100
,
0100
0020
0000
0030
,
0200
0000
0000
0300
,
0000
1001
1001
2002
,
0000
0000
0000
0000
,
3003
0000
0000
0000
;

//---------------dance-double - leeium-BDP----------------
#NOTES:
     dance-double:
     leeium:
     Easy:
     7:
     0.203004,0.340164,0.125168,0.176708,0.014726,193,176,17,24,0,0,0.203004,0.340164,0.125168,0.176708,0.014726,193,176,17,24,0,0:
00000000
00000000
00000000
00000000
,
00000000
00000000
00000000
00000000
,
00000000
00000000
00000000
00000000
,
00000000
00000000
00000000
00000000
,
00000000
00000000
00000000
00000000
,
00000000
00000000
00000000
00000000
,
00000000
00000000
00000000
00000000
,
00000000
00000000
00000000
00000000
,
00011000
00000000
00011000
00000000
,
00010000
00000000
00000000
00020000
00000000
00000000
00000000
00000000
,
00030000
00000000
00001000
00000000
,
00001000
00000000
00000000
00002000
00000000
00000000
00000000
00000000
,
00003000
00000000
00000000
00000100
,
00000100
00000000
00000000
00000200
00000000
00000000
00000000
00000000
,
00000300
00000000
00000010
00000000
,
00000100
00000000
00000000
00000200
00000000
00000000
00000300
00000000
,
00000010
00000000
00001001
00000000
,
00000220
00000000
00000000
00000000
,
00000330
00000000
00000000
00000000
,
00000000
00000000
00000000
00000000
,
00000000
00000000
00000000
00000000
,
00000010
00000000
00000100
00000000
,
00000001
00000010
00000100
00001000
,
00010000
00000000
00100000
00000000
,
00010000
10000000
01000000
00100000
,
00010000
00000000
00000000
00010000
00000000
00000000
00000000
00000000
10000000
00000000
00000000
10000000
00000000
00000000
00000000
00000000
,
00010000
00100000
00010000
00001000
,
00000010
00000000
00000000
00000010
00000000
00000000
00000000
00000000
00000100
00000000
00000000
00000100
00000000
00000000
00000000
00000000
,
00000001
00000010
00000100
00001000
,
00000100
00000000
00000000
00000000
00000100
00000000
00000000
00000100
,
00000000
00000000
00000000
00000000
00001000
00000000
00000000
00001000
,
00000000
00000000
00000000
00000000
00010000
00000000
00000000
00010000
,
00000000
00000000
00000000
00000000
00100000
00000000
00000000
00100000
,
00000000
00010000
00000000
00100000
00000000
00010000
00000000
00100000
,
00000000
00001000
00000000
00010000
00000000
00001000
00000000
00010000
,
00000000
00000000
00000000
00000000
,
00000000
00000000
00000000
00000000
,
00000100
00000001
00000010
00000100
,
00001000
00000100
00001000
00000100
,
00000010
00000001
00001000
00000001
,
00000100
00000001
00000010
00000100
,
00001000
00000100
00000000
00000100
,
00001000
00000000
00000000
00001000
00000000
00000000
00001000
00000000
,
00000100
00000100
00000000
00000100
,
00000000
00000000
00010000
00000000
00000000
00000000
00000000
00001000
,
00000000
00001000
00000000
00010000
,
00001000
00010000
00000000
00010000
,
01000000
00000000
00100000
00000000
,
00010000
00100000
00010000
10000000
,
00000000
01100000
00000000
01000000
,
00010000
00000000
00000000
00010000
00000000
00000000
00010000
00000000
,
10010000
00000000
01000000
00010000
,
10010000
00000000
00000000
10010000
00000000
00000000
00000000
00000000
,
00100000
00000000
00010000
00100000
00010000
00010000
00010000
00000000
,
10000000
00000000
00010000
00000000
00100000
00000000
00010000
00010000
,
00010000
00000000
00001000
00000000
00000000
00000100
00001000
00000100
,
00000000
00000000
00000010
00000000
00000100
00000000
00000001
00000001
,
00000000
00000010
00000100
00000000
00000000
00000100
00001000
00000000
,
00002000
00023000
00032000
00013000
,
00011000
00000000
00010000
00000000
00100000
00000000
00010000
00001000
,
00000000
00001000
00000100
00000001
00000000
00000000
00000000
00000000
,
00000022
00000000
00000000
00000000
00000033
00000000
00000000
00002002
,
00000000
00000000
00003003
00000000
,
00000010
00000000
00000000
00000000
00001000
00000000
00000000
00010000
,
00000000
00000000
00100000
01000000
,
02200000
00000000
00000000
00000000
03300000
00000000
00000000
02020000
,
00000000
00000000
03030000
00000000
,
00220000
00000000
00000000
00000000
00330000
00000000
00000000
10010000
,
00000000
00000000
00000000
01000000
00000000
00000000
00010000
00000000
,
00100000
00010000
00001000
00000000
,
00010000
00001000
00000100
00000000
,
00000020
00000000
00000000
00000000
00001030
00000000
00000000
00002000
,
00000000
00003000
00020000
00000000
,
00030000
00011000
00000000
00000000
,
00110000
00000000
00010000
10000000
,
01000000
00100000
00020000
00002000
,
00000000
00000000
00000000
00000000
,
00033000
00000000
00000000
00000000
;

//---------------dance-double - leeium-DDP----------------
#NOTES:
     dance-double:
     leeium:
     Medium:
     10:
     0.376557,0.595286,0.220885,0.176708,0.139894,358,328,30,24,0,0,0.376557,0.595286,0.220885,0.176708,0.139894,358,328,30,24,0,0:
00000000
00000000
00000000
00000000
,
00000000
00000000
00000000
00000000
,
00000000
00000000
00000000
00000000
,
00000000
00000000
00000000
00000000
,
00000000
00000000
00000000
00000000
,
00000000
00000000
00000000
00000000
,
00000000
00000000
00000000
00000000
,
00000000
00000000
00000000
00000000
,
00001010
00000000
00001001
00000000
,
00001000
00000010
00000100
00000002
00000000
00000000
00000000
00000000
,
00000003
00000000
00000001
00000000
00000000
00000001
00000000
00000000
,
00001000
00000100
00001000
00000200
00000000
00000000
00000000
00000000
,
00000300
00000000
00010000
00000000
00000000
00010000
00000000
00000000
,
00001000
00010000
00001000
00020000
00000000
00000000
00000000
00000000
,
00030000
00000000
00001000
00000000
00000000
00001000
00000000
00000000
,
01000000
00010000
00100000
00020000
00000000
00000000
00030000
00000000
,
01100000
00000000
10100000
00000000
,
22000000
00000000
00000000
00000000
,
33000000
00000000
00000000
00000000
,
00000000
00000000
00000000
00000000
,
00000000
00000000
00000000
00000000
,
10000000
01000000
10000000
01000000
00000000
00000000
00000000
00000000
01000000
00100000
01000000
00100000
00000000
00000000
00000000
00000000
,
01100000
00000000
00000000
00000000
00110000
00000000
00000000
00000000
10010000
00000000
00000000
00100000
00000000
00000000
00010000
00000000
,
00100000
00010000
00100000
00010000
00000000
00000000
00000000
00000000
00010000
00100000
00010000
00100000
00000000
00000000
00000000
00000000
,
00001000
00000000
00000000
00001000
00000000
00000000
00010000
00000000
00000010
00000000
00000000
00010000
00000000
00000000
00001000
00000000
,
00010000
00001000
00010000
00001000
00000000
00000000
00000000
00000000
00001000
00000100
00001000
00000100
00000000
00000000
00000000
00000000
,
00001010
00000000
00000000
00000000
00001001
00000000
00000000
00000000
00000011
00000000
00000000
00000010
00000000
00000000
00000001
00000000
,
00000100
00000001
00000100
00000001
00000000
00000000
00000000
00000000
00000001
00001000
00000001
00001000
00000000
00000000
00000000
00000000
,
00000100
00000000
00000000
00000100
00000000
00000000
00001000
00000000
00000100
00000000
00000000
00010000
00000000
00000000
00001000
00000000
,
00010000
00010000
00010000
00010000
,
00001000
00000000
00001000
00000000
00001000
00000000
00001000
00000100
,
00001000
00001000
00001000
00001000
,
00010000
00000000
00010000
00000000
00010000
00000000
00010000
01000000
,
00010000
01000000
00010000
00000000
00001000
00010000
00001000
00000000
,
00010000
00000100
00010000
00000100
00001000
00000010
00000100
00000001
,
00000020
00000000
00000000
00000000
,
00000030
00000000
00000000
00000000
,
00000100
00000000
00001000
00000000
00000001
00001000
00000001
00001000
,
00000010
00001000
00000100
00000100
00000100
00000000
00000100
00000100
,
00010000
00000000
00011000
00000000
00010000
00001000
00010000
00001000
,
00010000
00000000
00010000
00010000
00001000
00010000
00001000
00000000
,
01000000
00000000
00010000
00000000
00100000
01000000
10000000
00000000
,
10000000
00000000
00010000
10000000
00000000
00010000
00010000
00010000
,
00100000
00000000
00010000
00100000
00010000
00100000
00010000
00000000
,
01000000
00000000
00110000
00000000
00010000
00000000
00010000
00100000
,
00000000
00000000
00010000
00000000
00100000
01000000
01000000
01000000
,
00100000
01000000
00100000
00000000
01000000
00100000
00000000
00100000
,
00010000
00000000
00100000
00000000
00100000
00001000
00000000
00001000
,
00010000
00000000
00001000
00010000
00001000
00010000
00001000
00010000
,
00000100
00000000
00000010
00000000
00000000
00000001
00000100
00000000
,
00000010
00000000
00000100
00000010
00000000
00000100
00000100
00000100
,
00000010
00000000
00001000
00000001
00001000
00000100
00000010
00000000
,
00001100
00000000
00002000
00000002
00000000
00000000
00003003
00000000
,
00000100
00000000
00000001
00000000
00000100
00000010
00000100
00000010
00000100
00000000
00000010
00000000
00001000
00001000
00002000
00000000
,
00003100
00000000
00010000
00000000
00001000
00000000
00000000
00020000
00000000
00000000
00000000
00030000
00001000
00000000
00010000
00000000
,
00100000
00000000
00010000
00000000
00100000
01000000
00200000
00000000
00000000
00000000
01300000
00000000
01000000
00010000
01000000
00010000
,
00000000
00000000
00000000
00000000
10000000
00000000
00000000
00000000
00100000
00000000
00100000
00000000
00100000
00000000
02000000
00000000
00000000
00000000
00000000
00000000
03100000
00000000
00100000
00000000
10000000
00000000
00000000
10000000
00000000
00000000
10000000
00000000
,
00000000
10010000
01000000
00000000
00100000
10010000
01000000
00000000
,
00100000
00010000
00000000
00000000
00010000
00001000
00000000
00000000
00011000
00000000
00000000
00000000
00010000
00000000
00001000
00000000
,
00000010
00000000
00001000
00000000
00000010
00000000
00000100
00000000
00000001
00000000
00000010
00000000
00000010
00000001
00000010
00000001
,
00000000
00000011
00001001
00000202
00000000
00000000
00000303
00000000
,
00001002
00000000
00000000
00000000
00001003
00000100
00001000
00000200
,
00000000
00000000
00000000
00000000
00001300
00000010
00001000
00000010
,
00002000
00000000
00003000
00000000
00011000
00000000
00000000
00210000
,
00000000
00000000
00310000
10000000
,
01200000
00000000
00000000
00000000
01300000
00010000
00000000
02010000
,
00000000
00000000
00000000
00000000
03010000
00100000
00010000
00100000
,
00020000
00000000
00000000
00000000
00031000
00000000
00000000
00010000
,
00000000
00000000
00000000
00110000
00000000
00000000
01010000
00000000
,
00010000
00000000
00010000
00000000
00100000
00010000
00100000
00010000
,
00000000
00100000
00000000
00001000
00000000
00001000
00010000
00001000
,
00010000
00000000
00010000
00000000
00001000
00000000
00001000
00010000
,
00000000
00000100
00000000
00010000
00000000
00010000
00000010
00001000
,
00000010
00000000
00001000
00000000
00000100
00001000
00000100
00000010
,
00000000
00000010
00000000
00000100
00000000
00000100
00001000
00000001
,
00000100
00001100
00010100
00022000
,
00000000
00000000
00000000
00000000
,
00033000
00000000
00000000
00000000
;

//---------------dance-double - leeium-EDP----------------
#NOTES:
     dance-double:
     leeium:
     Hard:
     15:
     0.485948,0.935450,0.206160,0.404957,0.371824,462,434,28,55,0,0,0.485948,0.935450,0.206160,0.404957,0.371824,462,434,28,55,0,0:
00000000
00000000
00000000
00000000
,
00000000
00000000
00000000
00000000
,
00000000
00000000
00000000
00000000
,
00000000
00000000
00000000
00000000
,
00000000
00000000
00000000
00000000
,
00000000
00000000
00000000
00000000
,
00000000
00000000
00000000
00000000
,
00000000
00000000
00000000
00000000
,
00001010
00000000
00000000
00000000
00000001
00000010
00000000
00000001
,
00001000
00000010
00000100
00000002
00000000
00000000
00000013
00000000
,
00000100
00000000
00000010
00000100
00000000
00001000
00000000
00000100
,
00001000
00000100
00010000
00002000
00000000
00000000
00013000
00000000
,
00001000
00000000
00100000
00010000
00000000
10000000
00000000
00010000
,
01000000
00100000
10000000
00020000
00000000
00000000
00130000
00000000
,
00010000
00000000
00100000
00010000
00000000
10000000
00000000
00010000
,
10000000
00100000
01000000
00010000
01000000
00100000
01000000
00001000
,
00010000
00001000
00011000
00001000
,
00002200
00000000
00000000
00000000
,
00000000
00000000
00000000
00000000
,
00000000
00000000
00000000
00000000
,
00000000
00000000
00003300
00000000
,
00000100
00000010
00000100
00000010
00000000
00000000
00000000
00000000
00000010
00001000
00000010
00001000
00000000
00000000
00000000
00000000
,
00010100
00000000
00000000
00000000
00011000
00000000
00000000
00000000
00101000
00000000
00000000
00010000
00000000
00000000
00001000
00000000
,
01000000
00010000
01000000
00010000
00000000
00000000
00000000
00000000
00010000
00100000
00010000
00100000
00000000
00000000
00000000
00000000
,
00010000
00000000
00000000
00010000
00000000
10000000
01000000
10000000
00010000
00000000
00000000
00100000
00000000
01000000
00000000
00100000
,
01000000
00000000
10000000
00000000
00010000
01000000
00010000
01000000
00000000
00100000
00000000
01000000
00000000
01000000
00010000
00100000
,
00010000
00000000
00100000
00000000
00001000
00000000
00001000
00010000
00000000
00000010
00000000
00010000
00000000
00010000
00001000
00010000
,
00000100
00000000
00001000
00000000
00000010
00001000
00000001
00001000
00000000
00000010
00000000
00001000
00000000
00000100
00001000
00000001
,
00001000
00000000
00000010
00000000
00001000
00000000
00000010
00000100
00000000
00000001
00000000
00001000
00000000
00000100
00000000
00000010
,
00000001
00000000
00000001
00000000
00000001
00000000
00000001
00000010
,
00000100
00000000
00000100
00000000
00000100
00000000
00000100
00001000
,
00010000
00000000
00010000
00000000
00010000
00000000
00010000
00100000
,
01000000
00000000
01000000
00000000
01000000
00000000
01000000
10000000
,
00100000
10000000
00100000
01000000
00010000
10000000
00010000
00100000
,
00010000
10000000
00010000
00000000
01000000
00010000
01000000
00000000
00001000
01000000
00001000
00000000
00010000
00001000
00010000
00001000
,
00020000
00000000
00000000
00000000
,
00030000
00000000
00000000
00000000
,
00001000
00000000
00000020
00000000
00000031
00000100
00000100
00000010
,
00001000
00000100
00000010
00000010
00000100
00001000
00000010
00000010
,
00002000
00000000
00010000
00000000
00003100
00010000
00010000
00001000
,
00010000
00000000
00010000
00001000
01000000
00001000
01000000
00010000
,
00200000
00000000
02300000
00000000
13000000
01000000
00100000
00010000
,
01000000
00000000
00010000
02000000
00000000
03010000
00100000
00100000
,
00020000
00000000
10030000
00100000
10000000
00010000
00200000
00000000
,
00310000
00000000
00110000
00000000
00001000
00000000
00110000
00010000
,
00000000
00000000
00000000
00000000
10020000
00000000
00000000
00000000
10030000
00000000
00010000
10000000
00010000
10000000
00010000
10000000
,
00100000
10000000
02000000
00000000
13000000
02000000
00000000
03100000
,
00010000
00000000
00110000
00000000
00100000
00002000
00000000
00013000
,
00000100
00000000
00000100
00010000
00001000
00010000
00000200
00000000
,
00001300
00000010
00001000
00000010
00001000
00000000
00000000
00000000
00000000
00000000
00000010
00000000
00000200
00000000
00000000
00000000
,
00000310
00000000
00000001
00000020
00000000
00000130
00000001
00000001
,
00000010
00000000
00000001
00001000
00000001
00001000
00000100
00000000
,
00001100
00000000
00020000
00002000
00000000
00000000
00033000
00000000
,
00011000
00000000
00001000
00000000
00000100
00000010
00000100
00000001
00000010
00000100
00000020
00000000
00000130
00000100
00000200
00000000
,
00002300
00000000
00003020
00000000
00000130
00001000
00000000
00001000
00200000
00000000
00300000
00010000
01000000
00010000
01000000
00100000
,
20000000
00000000
00100000
00000000
30010000
01000000
00020000
00000000
00130000
00000000
00010000
01000000
00100000
01000000
00010000
00100000
,
00000000
00000000
00000000
00000000
00020000
00000000
00000000
00000000
10030000
00000000
01000000
00000000
10000000
00000000
00200000
00000000
00000000
00000000
00000000
00000000
01300000
00000000
00010000
00000000
00200000
00000000
00000000
00000000
00310000
00100000
00001000
00010000
,
00000000
00012000
00203000
00000000
00310000
00021000
00030020
00000000
,
00001030
00000000
00000100
00010000
00002000
00000000
00013000
00001000
00200000
00000000
00000000
00310000
01000000
00010000
00100000
01000000
,
10000000
00000000
00000000
00000000
00000000
00000000
00010000
00000000
00000000
00000000
00000000
00000000
10000000
00000000
00000000
00000000
00000000
00000000
00010000
00000000
00000000
00000000
00000000
00000000
10000000
00000000
00000000
00000000
00000000
00000000
00010000
00000000
00000000
00000000
00000000
00000000
10000000
00000000
00000000
00000000
00000000
00000000
00010000
00000000
00000000
00000000
00000000
00000000
10000000
00000000
00000000
00000000
00000000
00000000
00000000
00000000
00000000
00000000
00000000
00000000
00000000
00000000
00000000
00000000
00010000
00000000
00000000
00000000
00000000
00000000
00000000
00000000
00000000
00000000
00000000
00000000
00000000
00000000
00000000
00000000
10000000
00000000
00000000
00000000
00000000
00000000
00000000
00000000
00000000
00000000
00000000
00000000
00000000
00000000
00000000
00000000
00100000
00000000
00000000
00000000
00000000
00000000
00000000
00000000
00000000
00000000
00000000
00000000
01000000
00000000
00000000
00000000
00000000
00000000
00000000
00000000
00000000
00000000
00000000
00000000
00100000
00000000
00000000
00000000
00000000
00000000
00000000
00000000
00000000
00000000
00000000
00000000
00200000
00000000
00000000
00000000
00000000
00000000
00000000
00000000
00000000
00000000
00000000
00000000
00000000
00000000
00000000
00000000
00000000
00000000
00000000
00000000
00000000
00000000
00000000
00000000
01300000
00000000
00000000
00000000
00000000
00000000
00000000
00000000
00000000
00000000
00000000
00000000
00010000
00000000
00000000
00000000
00000000
00000000
00000000
00000000
00000000
00000000
00000000
00000000
01000000
00000000
00000000
00000000
00000000
00000000
00000000
00000000
00000000
00000000
00000000
00000000
,
00100000
00110000
00101000
00021000
00000000
00000000
00000000
00000000
,
02030000
00000000
00000000
00000000
00000000
00000000
00000000
00000000
03100000
00010000
00100000
00010000
10000000
01000000
20000000
00000000
,
00000000
00000000
00000000
00000000
00000000
00000000
00000000
00000000
30100000
00000000
01000000
00000000
00100000
01000000
00010000
00000000
,
02020000
00000000
03030000
00000000
01000000
00001000
00010000
00012000
,
00000000
00000000
00000010
00013000
,
00010020
00000000
00000000
00000000
00000000
00000000
00000000
00000000
00001030
00000001
00001000
00000001
00001000
00000000
00001200
00000000
,
00000000
00000000
00000000
00000000
00000000
00000000
00000000
00000000
00000310
00000000
00000001
00000000
00001000
00000100
00001000
00000000
,
00001002
00000000
00000000
00000000
00000000
00000000
00000000
00000000
00000000
00000000
00000000
00000000
00000013
00000000
00000100
00000000
00010000
00000000
00001000
00000000
00000000
00021000
00000000
00000000
,
00000000
00000000
00000000
00000010
00000000
00000000
00031000
00000000
,
00010000
00000000
00012000
00000000
00103000
00010000
01000000
00010000
,
00000000
00110000
00000000
10000000
00100000
00010000
00100000
00001000
,
00010000
00000000
00000000
00000000
00001000
00000000
00000000
00000000
00010000
00000000
00000000
00000000
00001000
00000000
00000000
00010000
00000000
00000000
00001000
00000000
00000000
00010000
00000000
00000000
00000010
00000000
00000000
00000000
00000000
00000000
00001000
00000000
00000000
00000000
00000000
00000000
00000010
00000000
00000000
00000000
00000000
00000000
00000200
00000000
00000000
00000000
00000000
00000000
,
00000000
00000001
00000000
00000310
00001000
00000100
00010000
00001000
,
00010000
00000000
00001000
00000000
00100000
00000000
00020000
00000000
00000000
00000000
00000000
00000000
00130000
00000000
00000000
00010000
00000000
00000000
10000000
00000000
00000000
00100000
00000000
00000000
,
02000000
00000000
00010000
00000000
00000000
00000000
03100000
00000000
10000000
00000000
00010000
10000000
01000000
10000000
00100000
01000000
,
00010000
00110000
00101000
00022000
,
00000000
00000000
00000000
00000000
,
00033000
00000000
00000000
00000000
;
