#VERSION:0.83;
#TITLE:Euphoria;
#ARTIST:Masayoshi Iimori;
#TAGS:DMCA;
#CREDIT:TREKKIE TRAX;
#BANNER:Euphoria.png;
#BACKGROUND:Euphoria-bg.png;
#JACKET:Euphoria-jacket.png;
#MUSIC:Euphoria.ogg;
#SAMPLESTART:40.57;
#SAMPLELENGTH:15;
#BPMS:0=150;

//---------------dance-single - RGTM-bSP----------------
#NOTEDATA:;
#CHARTNAME:RGTM-bSP;
#STEPSTYPE:dance-single;
#DESCRIPTION:RGTM-bSP;
#DIFFICULTY:Beginner;
#METER:3;
#RADARVALUES:0.085916,0.182326,0.050722,0.123181,0,83,76,7,17,0,0,0,0,0,0.085916,0.182326,0.050722,0.123181,0,83,76,7,17,0,0,0,0,0;
#CREDIT:RGTM;
#NOTES:
0000
0000
0000
0000
,
0000
0000
0000
0000
,
0000
0000
0000
0000
,
0000
0000
0000
0000
,
0000
0000
0000
0000
,
0000
0000
0000
0000
,
0000
0000
0000
0000
,
0000
0000
0000
0000
,
0000
0000
0000
0000
,
0000
0000
0000
0000
,
2000
0000
0000
0000
,
0000
0000
3000
0000
,
2000
0000
0000
0000
,
0000
0000
3000
0000
,
0002
0000
0000
0000
,
0000
0000
0003
0000
,
0002
0000
0000
0000
,
0000
0000
0003
0000
,
1000
0000
0000
0000
,
0001
0000
0000
0000
,
1000
0000
0000
0000
,
0001
0000
0000
0000
,
0100
0000
0100
0000
,
0010
0000
0010
0000
,
0100
0000
0010
0000
,
1000
0000
0000
0000
,
1001
0000
0000
0002
,
0000
0000
0000
0003
,
0000
0000
0001
0000
,
0010
0000
0100
0000
,
1000
0000
0000
2000
,
0000
0000
0000
3000
,
0000
0000
0010
0000
,
0010
0000
0000
0000
,
1001
0000
0000
0002
,
0000
0000
0000
0003
,
0000
0000
0001
0000
,
0100
0000
0010
0000
,
1000
0000
0000
2000
,
0000
0000
0000
3000
,
0000
0000
0010
0000
,
0000
0000
0010
0000
,
1000
0000
0000
0000
,
0001
0000
0000
0000
,
1000
0000
0000
0000
,
0001
0000
0000
0000
,
0010
0000
0010
0000
,
0100
0000
0100
0000
,
0010
0000
0100
0000
,
1000
0000
0000
0010
,
0010
0000
0200
0000
,
0300
0000
0001
0000
,
0000
0000
0110
0000
,
0000
0000
1001
0000
,
1000
0000
0020
0000
,
0030
0000
0110
0000
,
0000
0000
1000
0000
,
0000
0000
0001
0000
,
0100
0200
0000
0000
,
0300
0000
0010
0000
,
0000
0000
1001
0000
,
0000
0000
0110
0000
,
0000
0000
1000
0000
,
0000
0000
1000
0000
,
0001
0000
0001
0001
,
0000
0001
0002
0003
,
2000
0000
0000
0000
,
0000
0000
3000
0000
,
2000
0000
0000
0000
,
0000
0000
3000
0000
,
0002
0000
0000
0000
,
0000
0000
0003
0000
,
0002
0000
0000
0000
,
0000
0000
0003
0000
,
0010
0000
0000
0000
,
0000
0000
0000
0000
,
0100
0000
0000
0000
,
0000
0000
0000
0000
,
1000
0000
0000
0000
,
0000
0000
0000
0000
,
0001
0000
0000
0000
,
0000
0000
0000
0000
,
2000
0000
0000
0000
,
0000
0000
0000
0000
0000
0000
0000
3000
;

//---------------dance-single - RGTM-BSP----------------
#NOTEDATA:;
#CHARTNAME:RGTM-BSP;
#STEPSTYPE:dance-single;
#DESCRIPTION:RGTM-BSP;
#DIFFICULTY:Easy;
#METER:9;
#RADARVALUES:0.374719,0.486204,0.202887,0.210133,0,362,334,28,29,0,0,0,0,0,0.374719,0.486204,0.202887,0.210133,0,362,334,28,29,0,0,0,0,0;
#CREDIT:RGTM;
#NOTES:
0000
0000
0000
0000
,
0000
0000
0000
0000
,
0000
0000
0000
0000
,
0000
0000
0000
0000
,
0000
0000
0000
0000
,
0000
0000
0000
0000
,
1000
0000
0010
0000
,
0100
0000
0001
0000
,
0010
0000
0100
0000
,
1000
0000
0000
0000
1000
0100
0010
0001
,
0201
0001
0010
0010
,
1000
1000
0310
1000
,
1200
1000
0010
0010
,
0001
0001
1300
0001
,
0021
0001
0100
0100
,
1000
1000
0031
1000
,
1020
1000
0100
0001
,
0100
2030
3001
0000
,
0001
1000
0000
1000
0000
1000
0001
1000
,
0000
0001
0000
0001
0000
0001
1000
0001
,
0000
1000
0000
1000
0000
1000
0001
1000
,
0000
0001
0000
0001
0000
0001
1000
0001
,
1000
1000
0100
0100
,
0010
0010
0001
0001
,
0100
0010
0100
0010
1000
0001
1000
0001
,
0010
0010
0000
0100
,
0110
0010
1001
2000
,
0000
0000
3002
0000
1000
0000
1003
0001
,
0100
0000
0000
0100
0010
0000
0100
0000
,
0001
1000
0100
0010
,
0110
0000
0100
0000
1001
0000
0001
1000
,
0001
0000
0001
0000
1001
0000
1000
0001
,
0100
0010
1000
0001
,
0010
0000
0100
1000
0001
0100
0010
0000
,
0110
0010
1001
2000
,
0000
0000
0010
0000
3002
0000
1003
0001
,
0010
0000
0000
0010
0100
0000
1000
0000
,
1000
0000
0001
0000
1000
0010
0000
0010
,
0100
0000
0010
0000
1001
0000
0002
1003
,
0002
1003
0002
1003
0002
1003
0001
0000
,
1000
0000
0010
0000
,
0100
0000
0001
0000
,
1000
0001
0000
0001
0000
0001
1000
0001
,
0000
1000
0000
1000
0000
1000
0001
1000
,
0000
0001
0000
0001
0000
0001
1000
0001
,
0000
1000
0000
1000
0000
1000
0001
1000
,
0001
0001
0010
0010
,
0100
0100
1000
1000
,
0010
0100
0010
0100
0001
1000
0001
1000
,
0100
0000
0010
0100
0010
0000
0110
0000
,
1001
0000
0001
0000
0100
0010
0100
0010
,
0200
0000
0301
1000
0001
1000
0001
0010
,
0200
0310
0110
0010
,
1001
0000
0000
0000
0001
0000
0000
0000
0110
0000
0000
0000
2000
0000
0000
3000
,
0002
0000
1003
0000
0100
0100
0010
0010
,
0200
0000
1300
0001
1000
0001
1000
0010
,
0100
0010
1000
0001
,
0010
0000
0100
0000
1000
0001
1000
0000
,
2001
0000
3010
0100
0010
0010
0100
0100
,
0002
0000
1003
0100
0000
0010
0001
0010
,
0002
0003
0100
0000
0110
0000
0100
0000
,
1001
0000
0000
0000
1000
0000
0000
0000
0110
0000
0000
0000
0002
0000
0000
0003
,
1000
0010
0110
0010
,
0010
0010
0110
0010
,
0110
0000
0010
0100
0010
0000
0110
0000
,
0010
0100
0010
0000
1001
0000
1000
0100
,
0120
0100
0032
1000
,
0013
0001
0100
0000
0010
1000
0100
0000
,
1000
0010
0100
0000
0001
0100
0010
1000
,
0002
0000
0000
0023
0000
0000
0230
0000
,
1300
0100
1000
0000
0100
0010
0100
0000
,
0010
0001
0010
0000
0001
1000
0001
0000
,
1000
0010
0100
0001
1000
0100
0010
0001
,
0200
0000
0300
0000
,
0110
0000
0001
0000
,
1000
0000
0010
0000
,
0100
0000
0001
0000
,
1000
0000
0100
0000
,
1000
0000
0010
0000
,
0100
0000
0001
0000
,
1000
0000
0100
0000
,
0010
0000
0001
0000
,
2000
0000
0000
0000
,
0000
0000
0000
0000
0000
0000
0000
3000
;

//---------------dance-single - RGTM-DSP----------------
#NOTEDATA:;
#CHARTNAME:RGTM-DSP;
#STEPSTYPE:dance-single;
#DESCRIPTION:RGTM-DSP;
#DIFFICULTY:Medium;
#METER:12;
#RADARVALUES:0.529990,0.759693,0.260854,0.492725,0.159411,512,476,36,68,0,0,0,0,0,0.529990,0.759693,0.260854,0.492725,0.159411,512,476,36,68,0,0,0,0,0;
#CREDIT:RGTM;
#NOTES:
0000
0000
0000
0000
,
0000
0000
0000
0000
,
1002
0000
0000
0000
,
0000
0000
2003
0000
,
3002
0000
0000
0000
,
0000
0000
0023
0000
,
0230
0000
0010
0000
,
0001
0000
2300
0000
,
3020
0000
1000
0000
,
0100
0000
0030
0000
0110
0100
0001
1000
,
1200
1000
0010
0010
,
0001
0000
0001
0000
1300
0100
0010
0001
,
0201
0001
0010
0010
,
1000
0000
1000
0000
0301
0010
0100
1000
,
1020
1000
0100
0100
,
0001
0000
0001
0000
1030
0010
0100
0001
,
0021
0001
0100
0100
,
1000
0000
2030
0000
3010
0100
1000
0000
,
0001
0000
2000
0000
3100
0000
2000
0000
3001
0000
2000
0000
3010
0000
1000
0001
,
1000
0000
0002
0000
0103
0000
0002
0000
0013
0000
0001
1000
0000
1000
0001
0000
,
1000
0000
0200
0000
0310
0000
0200
0000
1300
0000
0020
0000
0130
0000
0001
1000
,
0001
0000
0020
0000
0130
0000
0020
0000
0031
0000
0100
0010
0000
0010
1000
0000
,
0001
0010
0001
0010
0100
1000
0100
1000
,
0001
0100
0001
0100
0010
1000
0010
1000
,
0001
1000
0001
1000
0001
1000
0001
1000
0001
1000
0001
1000
0001
1000
0001
1000
,
0010
0100
0010
0200
0000
0000
0310
0000
,
0210
0000
0310
1000
1001
0001
0010
0200
,
0000
0000
1300
0200
0010
0000
1300
0010
,
0100
0000
0001
1000
1002
0000
1003
0100
,
0100
0000
0000
0010
0000
0000
0001
0000
0100
0000
0010
0000
2000
0000
0000
0000
,
3002
0000
0013
0000
0110
0000
0100
1000
,
2000
3000
2000
3000
2001
3000
1000
0010
,
0100
0000
0000
0000
0001
0000
0010
0000
0100
0000
1000
0000
0010
0000
0100
0010
,
0100
0000
0000
0000
0001
0000
0000
0001
1000
0000
0100
0000
0010
0000
0100
0000
,
0120
0000
0000
0000
0031
0000
1000
0000
1001
0000
0001
0000
2000
0000
0000
3200
,
0000
0000
0320
0000
0000
0032
0000
0000
2003
0000
0000
0000
3010
0000
0100
0000
,
0001
0000
0010
0100
0110
0000
0100
1000
,
0001
0100
0000
0010
1000
0002
0103
0002
,
1003
0000
0200
0300
0110
0000
0010
0001
,
0001
0001
0001
0001
1001
0001
2000
0000
,
3010
0000
0100
0000
,
0001
0000
0000
0000
1000
0100
0010
0001
,
1000
0000
0002
0000
0013
0000
0002
0000
1003
0000
0002
0000
0103
0000
0001
1000
,
0001
0000
2000
0000
3010
0000
2000
0000
3100
0000
1000
0001
0000
0001
1000
0000
,
0001
0000
0020
0000
0130
0000
0020
0000
0031
0000
0200
0000
0310
0000
1000
0001
,
1000
0000
0200
0000
0310
0000
0200
0000
1300
0000
0010
0100
0000
0100
0001
0000
,
1000
0100
1000
0100
0010
0001
0010
0001
,
1000
0010
1000
0010
0100
0001
0100
0001
,
1000
0001
1000
0001
1000
0001
1000
0001
1000
0001
1000
0001
1000
0001
1000
0001
,
0010
0100
0010
0100
1000
0000
0110
0000
,
1002
0000
0103
0000
0110
0100
0010
0100
,
0002
0000
0013
0010
0100
0100
1000
0001
,
0100
0010
1010
1000
,
1100
0000
0000
0000
0100
0000
0000
0000
0110
0000
0000
0000
0002
0000
0000
0003
,
1000
0000
0010
0000
0110
0010
0100
0010
,
2000
0000
3100
0100
0010
0010
0001
1000
,
0010
0000
0100
0001
1000
0000
0100
0010
,
0001
0000
1000
0010
0100
0010
1000
0001
,
2001
0000
3100
0010
0100
0010
0100
0010
,
0002
0000
0000
0000
0103
0000
0001
0100
0001
0000
1000
0001
1000
0001
1000
0000
,
0200
0300
0010
0000
0011
0000
0001
0000
,
0101
0000
0000
0000
0100
0000
0000
0000
0110
0000
0000
0000
0020
0000
0000
0030
,
2000
3100
0110
0100
,
0100
0100
0110
0100
,
0110
0000
0100
0010
0110
0000
0110
0000
,
0100
0010
0110
0000
1002
0000
0103
0010
,
0120
0100
2030
0010
,
3001
0010
0100
1000
0001
0100
0010
1000
,
0100
0010
0001
1000
0010
0100
0001
1000
,
0200
0000
0000
0320
0000
0000
0032
0000
,
1003
0100
0010
0001
0010
0100
1000
0001
,
1000
0010
0100
0001
0100
0010
1000
0001
,
0010
0100
0010
0100
0010
0100
0010
0100
0010
0100
0010
0100
0010
0100
0010
0100
,
0020
0000
0030
0000
,
0110
0000
0000
0000
1000
0100
0001
0100
,
1000
0000
0000
0000
0001
0100
1000
0100
,
0001
0000
0010
0000
,
0100
0000
0000
0000
1000
0010
0001
0010
,
1000
0000
0100
0000
,
0010
0000
0000
0000
0001
0100
1000
0100
,
0001
0000
0010
0000
,
0100
0000
0000
0000
1000
0010
0001
0010
,
1000
0000
0000
0000
,
0000
0000
0000
0000
0000
0001
0010
1000
;

//---------------dance-single - RGTM-ESP----------------
#NOTEDATA:;
#CHARTNAME:RGTM-ESP;
#STEPSTYPE:dance-single;
#DESCRIPTION:RGTM-ESP;
#DIFFICULTY:Hard;
#METER:15;
#RADARVALUES:0.603485,0.820469,0.326068,0.463741,0.449249,583,538,45,64,0,0,0,0,0,0.603485,0.820469,0.326068,0.463741,0.449249,583,538,45,64,0,0,0,0,0;
#CREDIT:RGTM;
#NOTES:
0000
0000
0000
0000
,
0000
0000
0000
0000
,
2001
0000
0000
0000
,
0000
0000
3002
0000
,
2003
0000
0000
0000
,
0000
0000
3020
0000
,
0230
0000
0010
0000
,
1000
0000
0302
0000
,
0023
0000
0001
0000
,
0100
0000
0030
0000
0110
0100
1000
0001
,
0201
0001
0010
0010
,
1000
0000
1000
0000
0301
0100
0100
1000
,
1200
1000
0010
0010
,
0001
0000
0001
0000
1300
0100
0100
0001
,
0021
0001
0100
0100
,
1000
0000
1000
0000
0031
0100
0100
1000
,
1020
1000
0100
0100
,
0001
0000
0032
0000
0013
0100
0100
1000
,
1001
0000
0000
0000
0000
0000
0001
0000
0000
0100
0000
0000
0001
0000
0000
0000
0000
0000
0001
0000
0000
1000
0000
0000
0001
0000
0000
0000
0000
0000
0001
0000
0000
0010
0000
0000
0001
0000
0000
0000
0000
0000
1000
0000
0001
0000
1000
0000
,
0001
0000
1000
0100
1000
0000
1000
0001
1000
0000
1000
0010
0000
0010
0100
0001
,
1000
0000
0000
0000
0000
0000
0001
0000
0000
0010
0000
0000
0001
0000
0000
0000
0000
0000
0001
0000
0000
1000
0000
0000
0001
0000
0000
0000
0000
0000
0001
0000
0000
0100
0000
0000
0001
0000
0000
0000
0000
0000
1000
0000
0001
0000
1000
0000
,
0001
0000
1000
0010
1000
0000
1000
0001
1000
0000
1000
0100
0000
0100
0010
0001
,
0000
1000
0000
0010
0000
0100
0000
0001
0000
0010
0000
0100
0000
1000
0000
0001
,
0000
1000
0000
0100
0000
0010
0000
0001
0000
0100
0000
0010
0000
1000
0000
0001
,
0010
0100
1000
0100
0010
0001
1000
0001
0100
0010
1000
0010
0100
0001
1000
0001
,
0010
0100
0010
0200
0000
0000
0310
0000
,
0210
0000
1300
0001
0101
0100
2000
0000
,
0000
0000
3001
2000
0100
0100
3002
0023
,
0230
0000
0310
1000
2001
0000
3100
0100
,
0100
0000
0010
0001
0000
0000
0100
0010
1000
0001
1000
0001
0020
0000
0000
0000
,
0230
0000
0300
0000
2000
0000
0000
3000
1010
0000
0000
0000
0010
0000
0001
0000
,
0002
0013
0002
1003
0002
0013
1000
0200
,
0310
0000
0000
0000
0000
0000
0000
0000
0000
0000
0000
0000
0100
0000
0000
0000
0000
0000
1000
0000
0000
0000
0000
0000
0001
0000
0000
0000
0000
0000
1000
0000
0000
0100
0000
0000
0010
0000
0000
0000
0000
0000
0001
0000
0100
0000
0001
0000
,
0100
0000
0000
0000
0010
1000
0100
0010
0001
0100
0020
0000
2030
0000
3100
0000
,
0120
0000
0000
0000
0000
0000
0000
0000
0000
0000
0000
0000
0031
0000
0000
0000
0000
0000
0100
0000
0000
0000
0000
0000
0110
0000
0000
0000
0000
0000
0010
0000
1000
0000
0010
0000
2000
0000
0000
0000
0000
0000
0000
0000
0000
3200
0000
0000
,
0000
0000
0302
0000
1003
0020
0000
0000
0032
0000
1000
0000
0203
0000
0320
0000
,
1030
0000
0100
0010
0011
1000
0002
0100
,
1003
0001
0010
0000
0100
0000
0010
0000
0001
0000
0200
0000
1300
0000
0200
0000
,
0310
0000
0210
0000
0301
0000
0010
1000
,
1000
1000
1010
1000
1001
1000
0020
0000
,
0031
0000
0100
0000
,
0010
0000
0000
0000
1000
0100
0100
0001
,
1001
0000
0000
0000
0000
0000
1000
0000
0000
0100
0000
0000
0010
0000
0000
0000
0000
0000
0010
0000
0000
0100
0000
0000
1000
0000
0000
0000
0000
0000
1000
0000
0000
0100
0000
0000
0010
0000
0000
0000
0000
0000
0001
0000
1000
0000
0001
0000
,
1000
0000
0001
0100
0010
0000
0010
0100
0001
0000
0001
0100
0000
0010
1000
0100
,
0010
0000
0000
0000
0000
0000
0001
0000
0000
0010
0000
0000
0100
0000
0000
0000
0000
0000
0100
0000
0000
0010
0000
0000
0001
0000
0000
0000
0000
0000
0001
0000
0000
0010
0000
0000
0100
0000
0000
0000
0000
0000
1000
0000
0001
0000
1000
0000
,
0001
0000
1000
0010
0100
0000
0100
0010
1000
0000
1000
0010
0000
0010
0100
0001
,
0000
1000
0000
0100
0000
0010
0000
0001
0000
0100
0000
0010
0000
1000
0000
0001
,
0000
1000
0000
0010
0000
0100
0000
0001
0000
0010
0000
0100
0000
1000
0000
0001
,
0100
0010
1000
0010
0100
0001
1000
0001
0010
0100
1000
0100
0010
0001
1000
0001
,
0100
0000
0010
0000
0100
0000
0010
0000
2000
0000
0000
3000
0110
0000
0000
0000
,
1002
0000
0203
0300
0110
0100
0100
0100
,
0002
0000
0000
0000
0013
0100
0010
0100
1000
0100
1000
0100
0010
0000
0001
0000
,
2001
3010
0110
0010
,
0011
0000
0000
0000
0010
0000
0000
0000
1010
0000
0000
0000
2000
0000
0000
3000
,
1200
0000
0310
0000
0110
0010
0010
0010
,
0002
0000
0000
0000
0103
0010
0100
0010
0100
0001
0100
0001
0100
0000
0010
0000
,
2010
3000
0001
0010
0110
0100
0001
0100
,
1000
0010
0001
0010
0110
0100
0100
1000
,
2001
0000
3010
0010
0110
0010
0010
0010
,
1002
0000
0000
0000
0013
0100
1000
0100
0020
0000
0031
0100
0010
0100
0010
0100
,
0002
0003
0010
0000
0110
0000
0010
0000
,
1010
0000
0000
0000
0010
0000
0000
0000
0011
0000
0000
0000
0002
0000
0000
0003
,
2000
3010
0110
0010
,
0010
0010
0110
0010
,
0110
0000
0010
0100
0110
0000
0110
0000
,
0010
0100
0110
0000
2001
0000
3100
0010
,
0210
0001
2300
0100
,
3010
1000
0100
0010
1000
0010
0001
0100
,
1000
0100
0010
1000
0100
0010
0001
0100
,
2000
0000
0001
3200
0010
0000
0302
0100
,
0103
0001
0010
0100
1000
0001
1000
0010
,
0100
0001
1000
0100
0010
0001
1000
0010
,
0100
0010
1000
0001
0010
0100
0010
0001
1000
0010
0100
0001
0010
0100
1000
0001
,
0200
0000
0300
0000
,
0110
0000
0000
0000
1000
0000
0100
0100
,
0001
0000
0000
0000
1000
0100
0100
0001
,
0010
0000
0100
0000
,
1000
0000
0000
0000
0010
0100
0100
1000
,
0001
0000
0100
0000
,
0010
0000
0000
0000
1000
0100
0100
0001
,
1000
0000
0100
0000
,
0010
0000
0000
0000
0001
0100
0100
1000
,
0001
0000
0000
0000
,
0000
0000
0000
0000
0000
0100
0100
1000
;

//---------------dance-double - RGTM-BDP----------------
#NOTEDATA:;
#CHARTNAME:RGTM-BDP;
#STEPSTYPE:dance-double;
#DESCRIPTION:RGTM-BDP;
#DIFFICULTY:Easy;
#METER:9;
#RADARVALUES:0.368509,0.455816,0.173903,0.202887,0,356,332,24,28,0,0,0,0,0,0.368509,0.455816,0.173903,0.202887,0,356,332,24,28,0,0,0,0,0;
#CREDIT:RGTM;
#NOTES:
00000000
00000000
00000000
00000000
,
00000000
00000000
00000000
00000000
,
00000000
00000000
00000000
00000000
,
00000000
00000000
00000000
00000000
,
00000000
00000000
00000000
00000000
,
00000000
00000000
00000000
00000000
,
00010000
00000000
00001000
00000000
,
00010000
00000000
00000100
00000000
,
00000010
00000000
00000100
00000000
,
00001000
00000000
00000000
00000000
00000001
00000010
00000100
00001000
,
00001002
00001000
00000100
00000100
,
00000010
00000010
00001003
00000100
,
00020100
00000100
00001000
00001000
,
00100000
00100000
00031000
01000000
,
20010000
00010000
00100000
00100000
,
01000000
01000000
30010000
00100000
,
00102000
00100000
00010000
00010000
,
00000100
00003200
00000310
00000000
,
00000001
00000000
00000010
00000000
00000100
00000000
00010000
00001000
,
00010000
00000000
00100000
00000000
01000000
00010000
01000000
00010000
,
10000000
00000000
01000000
00000000
00100000
00000000
00001000
00010000
,
00001000
00000000
00000100
00000000
00000010
00001000
00000010
00001000
,
00000001
00000001
00000010
00000010
,
00001000
00001000
00010000
00010000
,
00100000
01000000
00100000
01000000
00010000
10000000
00010000
10000000
,
01000000
01000000
00000000
01100000
,
01000000
10000000
10010000
00020000
,
00000000
00000000
00100000
00000000
00001000
00000000
00130000
00010000
,
01000000
00000000
00000000
01000000
00001000
00000000
00010000
00000000
,
00000100
00000000
00000010
00000100
00000010
00000000
00000001
00000000
,
00000100
00000010
00001001
00002000
,
00010000
00000000
00010000
00000000
00000100
00000000
00003010
00001000
,
00000100
00010000
00001000
00010000
,
01000000
00000000
00100000
00010000
00000000
00010000
01000000
00000000
,
00100000
10000000
10010000
00020000
,
00000000
00000000
01000000
00000000
00001000
00000000
01030000
00010000
,
00100000
00000000
00000000
00100000
00001000
00000000
00010000
00000000
,
00000010
00000100
00000010
00000000
00000100
00000001
00000100
00000001
,
00000010
00000000
00000100
00000000
00001001
00000000
00002000
00003001
,
00002000
00003001
00002000
00003001
00002000
00003001
00001000
00000000
,
00000010
00000000
00010000
00000000
,
00001000
00000000
01000000
00100000
,
10000000
00000000
00100000
00000000
01000000
00000000
00001000
00010000
,
00001000
00000000
00000010
00000000
00000100
00001000
00000100
00001000
,
00000001
00000000
00000100
00000000
00000010
00000000
00010000
00001000
,
00010000
00000000
01000000
00000000
00100000
00010000
00100000
00010000
,
10000000
10000000
00100000
00100000
,
00010000
00010000
00001000
00001000
,
00000010
00000100
00000010
00000100
00001000
00000001
00001000
00000001
,
00000100
00000100
00000010
00000110
,
00001002
00000000
00000103
00000000
00001000
00010000
00001000
00000000
,
00020000
00000000
01030000
00100000
01000000
00100000
01000000
00000000
,
10000000
00100000
01100000
01000000
,
01001000
00000000
00000000
00000000
00001000
00000000
00000000
00000000
00011000
00000000
00000000
00000000
02000000
00000000
00000000
03000000
,
10000000
00000000
00100000
00000000
00010000
00001000
00010000
00000000
,
00002000
00000000
00003010
00000100
00000010
00000100
00000010
00000000
,
00000001
00000100
00001000
00010000
,
01000000
00000000
10000000
00000000
00010000
10000000
00010000
00000000
,
20010000
00000000
30100000
00100000
01000000
01000000
00010000
00010000
,
00200000
00000000
00301000
00010000
00000000
00010000
00001000
00010000
,
00000200
00000300
00000010
00000000
00000011
00000000
00000001
00000000
,
00000101
00000000
00000000
00000000
00000100
00000000
00000000
00000000
00000110
00000000
00000000
00000000
00000020
00000000
00000000
00000030
,
00010000
00001000
00011000
00001000
,
00001000
00001000
00011000
00001000
,
00011000
00000000
00001000
00010000
00001000
00000000
00011000
00000000
,
00001000
00010000
00001000
00000000
00021000
00000000
00031000
00010000
,
00002000
01000000
02003000
00100000
,
03100000
10000000
01000000
00000000
00100000
00010000
01000000
00000000
,
00010000
10000000
01000000
00000000
00100000
00010000
01000000
00000000
,
00002000
00000000
00000000
00023000
00000000
00000000
00030200
00000000
,
00000310
00000001
00000010
00000000
00000001
00000100
00000001
00000000
,
00000100
00000010
00000100
00000000
00000010
00010000
00000010
00000000
,
00010000
00001000
00010000
00001000
00010000
00001000
00010000
00001000
,
00020000
00000000
00030000
00000000
,
01100000
00000000
10000000
00000000
,
01000000
00000000
00100000
00000000
,
00010000
00000000
01000000
00000000
,
00001000
00000000
00010000
00000000
,
00001000
00000000
00000100
00000000
,
00000010
00000000
00001000
00000000
,
00000001
00000000
00000010
00000000
,
00000100
00000000
00010000
00000000
,
00002000
00000000
00000000
00000000
,
00000000
00000000
00000000
00000000
00000000
00000000
00000000
00003000
;

//---------------dance-double - RGTM-DDP----------------
#NOTEDATA:;
#CHARTNAME:RGTM-DDP;
#STEPSTYPE:dance-double;
#DESCRIPTION:RGTM-DDP;
#DIFFICULTY:Medium;
#METER:12;
#RADARVALUES:0.502041,0.638142,0.268100,0.485479,0.115935,485,448,37,67,0,0,0,0,0,0.502041,0.638142,0.268100,0.485479,0.115935,485,448,37,67,0,0,0,0,0;
#CREDIT:RGTM;
#NOTES:
00000000
00000000
00000000
00000000
,
00000000
00000000
00000000
00000000
,
20010000
00000000
00000000
00000000
,
00000000
00000000
30020000
00000000
,
20030000
00000000
00000000
00000000
,
00000000
00000000
30200000
00000000
,
02300000
00000000
10000000
00000000
,
00100000
00000000
03002000
00000000
,
01000000
00000000
00010000
00000000
,
00003010
00000000
00000000
00000000
00000110
00000100
00001000
00000001
,
00000201
00000001
00000010
00000010
,
00001000
00000000
00001000
00000000
00000310
00000100
00001000
00010000
,
00021000
00001000
00100000
00100000
,
10000000
00000000
10000000
00000000
00130000
01000000
00010000
10000000
,
10200000
10000000
01000000
01000000
,
00010000
00000000
00010000
00000000
01300000
00010000
00100000
00001000
,
00012000
00010000
00000010
00000010
,
00000001
00000000
00000001
00000000
00003010
00001000
00010000
00000000
,
00001000
00000000
00000020
00000000
00001030
00000000
00020000
00000000
00031000
00000000
00000020
00000000
00000031
00000000
00001000
00000001
,
00001000
00000000
00000002
00000000
00000103
00000000
00002000
00000000
00003100
00000000
00000010
00010000
00000000
00010000
00001000
00000000
,
00010000
00000000
00200000
00000000
00310000
00000000
00002000
00000000
00013000
00000000
00200000
00000000
10300000
00000000
00010000
10000000
,
00010000
00000000
20000000
00000000
31000000
00000000
00020000
00000000
01030000
00000000
00100000
00001000
00000000
00001000
00010000
00000000
,
00001000
00001000
00010000
00010000
00000100
00000100
00000010
00000010
,
00000001
00000001
00000100
00000100
00000010
00000010
00010000
00010000
,
00001000
00010000
00001000
00000000
00010000
00001000
00010000
00000000
00001000
01000000
00001000
00000000
01000000
00001000
01000000
00000000
,
00100000
01000000
00100000
02000000
00000000
00000000
03100000
00000000
,
01200000
00000000
01300000
00010000
10010000
10000000
01000000
00020000
,
00000000
00001000
01030000
00020000
00001000
00000000
01030000
00100000
,
00001000
00000000
00010000
00000010
00000210
00000000
00000301
00000010
,
00000100
00000000
00000000
00010000
00000000
00000000
00001000
00000000
00001000
00000000
01000000
00000000
00200000
00000000
00000000
00000000
,
20300000
00000000
31000000
00000000
01100000
00000000
00100000
00010000
,
00020000
00030000
00020000
00030000
00021000
00030000
00010000
00100000
,
01000000
00000000
00000000
00000000
00100000
00000000
00010000
00000000
10000000
00000000
00100000
00000000
01000000
00000000
00001000
00010000
,
00001000
00000000
00000000
00000000
00000010
00000000
00000000
00000010
00000001
00000000
00001000
00000000
00000010
00000000
00000100
00000000
,
00000120
00000000
00000000
00000000
00000130
00000000
00000001
00000000
00001001
00000000
00001000
00000000
00000002
00000000
00000000
00000203
,
00000000
00000000
00002300
00000000
00000000
00023000
00000000
00000000
00032000
00000000
00000000
00000000
00003100
00000000
00000010
00000000
,
00010000
00000000
00001000
00100000
01100000
00000000
01000000
10000000
,
00100000
01000000
00000000
01000000
00010000
00002000
00003010
00002000
,
00013000
00000000
00000010
00000000
00001001
00000000
00000001
00001000
,
00001000
00001000
00001010
00001000
00011000
00001000
00000200
00000000
,
00000310
00000000
00001000
00000000
,
00010000
00000000
00000000
00000000
00100000
01000000
00001000
00000000
,
00010000
00000000
02000000
00000000
03010000
00000000
00002000
00000000
00013000
00000000
02000000
00000000
13000000
00000000
00010000
10000000
,
00010000
00000000
20000000
00000000
30100000
00000000
00020000
00000000
00130000
00000000
01000000
00001000
00000000
00001000
00010000
00000000
,
00001000
00000000
00000200
00000000
00001300
00000000
00020000
00000000
00031000
00000000
00000200
00000000
00000301
00000000
00001000
00000001
,
00001000
00000000
00000002
00000000
00000013
00000000
00002000
00000000
00003010
00000000
00000100
00010000
00000000
00010000
00001000
00000000
,
00010000
00010000
00001000
00001000
00100000
00100000
01000000
01000000
,
10000000
10000000
00100000
00100000
01000000
01000000
00001000
00001000
,
00010000
00001000
00010000
00000000
00001000
00010000
00001000
00000000
00010000
00000010
00010000
00000000
00000010
00010000
00000010
00000000
,
00000100
00000010
00000100
00000010
00001000
00000000
00000110
00000000
,
00001002
00000000
00000103
00000000
00000110
00000010
00000100
00000010
,
00020000
00000000
00031000
00001000
00010000
00010000
00001000
00100000
,
02000000
13000000
10100000
00100000
,
00110000
00000000
00000000
00000000
00010000
00000000
00000000
00000000
00011000
00000000
00000000
00000000
00002000
00000000
00000000
00003000
,
00200000
00000000
01300000
00000000
01100000
00100000
01000000
00100000
,
00002000
00000000
00013000
00010000
00001000
00001000
00010000
00000010
,
00000100
00000000
00000001
00000010
00001000
00000000
00010000
00100000
,
10000000
00000000
01000000
00010000
00001000
00010000
01000000
10000000
,
20010000
00000000
30100000
01000000
00100000
01000000
00100000
01000000
,
00002000
00000000
00000000
00000000
00013000
00000000
00001000
00010000
00000000
00000000
00000100
00010000
00000100
00010000
00000100
00000000
,
00000020
00000030
00000001
00000000
00000101
00000000
00000100
00000000
,
00001100
00000000
00000000
00000000
00001000
00000000
00000000
00000000
00011000
00000000
00000000
00000000
00020000
00000000
00000000
00030000
,
02000000
13000000
10010000
10000000
,
10000000
10000000
10010000
10000000
,
10010000
00000000
10000000
00010000
10010000
00000000
10010000
00000000
,
10000000
00010000
10010000
00000000
02010000
00000000
03100000
00010000
,
00012000
00010000
00003200
00001000
,
00000310
00001000
00000100
00000010
00000001
00000010
00000100
00010000
,
00001000
00010000
01000000
00100000
00010000
01000000
00100000
10000000
,
00020000
00000000
00000000
00230000
00000000
00000000
02300000
00000000
,
13000000
01000000
10000000
01000000
00100000
00010000
00100000
00010000
,
10000000
00100000
10000000
00100000
01000000
00001000
01000000
00001000
,
00010000
00001000
00010000
00000000
00001000
00010000
00001000
00000000
00010000
00001000
00010000
00000000
00001000
00010000
00001000
00000000
,
00020000
00000000
00030000
00000000
,
00000110
00000000
00000001
00000000
,
00010000
00000000
10000000
00000000
,
00100000
00000000
10000000
00000000
,
00001000
00000000
00000001
00000000
,
00000100
00000000
00001000
00000000
,
10000000
00000000
01000000
00000000
,
00100000
00000000
00010000
00000000
,
00000001
00000000
00000010
00000000
,
00000100
00000000
00000000
00000000
,
00000000
00000000
00000000
00000000
00000000
00010000
00001000
00010000
;

//---------------dance-double - RGTM-EDP----------------
#NOTEDATA:;
#CHARTNAME:RGTM-EDP;
#STEPSTYPE:dance-double;
#DESCRIPTION:RGTM-EDP;
#DIFFICULTY:Hard;
#METER:15;
#RADARVALUES:0.594168,0.759693,0.311576,0.427511,0.420265,574,531,43,59,0,0,0,0,0,0.594168,0.759693,0.311576,0.427511,0.420265,574,531,43,59,0,0,0,0,0;
#CREDIT:RGTM;
#NOTES:
// measure 0
00000000
00000000
00000000
00000000
,  // measure 1
00000000
00000000
00000000
00000000
,  // measure 2
00001002
00000000
00000000
00000000
,  // measure 3
00000000
00000000
00002003
00000000
,  // measure 4
00003002
00000000
00000000
00000000
,  // measure 5
00000000
00000000
00000023
00000000
,  // measure 6
00000230
00000000
00000001
00000000
,  // measure 7
00000010
00000000
00020300
00000000
,  // measure 8
00000100
00000000
00001000
00000000
,  // measure 9
00130000
00000000
00000000
00000000
01100000
01000000
00010000
10000000
,  // measure 10
12000000
10000000
00100000
00100000
,  // measure 11
00010000
00000000
00010000
00000000
03100000
01000000
01000000
00001000
,  // measure 12
00012000
00010000
00000010
00000010
,  // measure 13
00000001
00000000
00000001
00000000
00003010
00000100
00000100
00000001
,  // measure 14
00000021
00000001
00000100
00000100
,  // measure 15
00001000
00000000
00001000
00000000
00000130
00001000
00001000
00010000
,  // measure 16
00021000
00001000
00100000
00100000
,  // measure 17
10000000
00000000
10000000
00000000
00130000
00010000
00010000
10000000
,  // measure 18
10010000
00000000
10000000
00010000
10000000
00000000
10000000
01000000
10000000
00000000
10000000
00010000
10000000
00000000
00200000
00000000
,  // measure 19
00310000
00000000
00001000
00010000
00001000
00000000
00001000
00100000
00001000
00000000
00001000
00010000
00000000
00010000
00000100
00000010
,  // measure 20
00000001
00000000
00001000
00000001
00001000
00000000
00001000
00000100
00001000
00000000
00001000
00000001
00001000
00000000
00000020
00000000
,  // measure 21
00010030
00000000
00001000
00010000
00001000
00000000
00001000
00100000
00001000
00000000
00001000
00010000
00000000
00010000
01000000
00100000
,  // measure 22
00000000
00010000
00000000
01000000
00000000
00100000
00000000
10000000
00000000
01000000
00000000
00100000
00000000
00001000
00000000
00010000
,  // measure 23
00000000
00001000
00000000
00000010
00000000
00000100
00000000
00001000
00000000
00000010
00000000
00000100
00000000
00000001
00000000
00001000
,  // measure 24
00000001
00000100
00000001
00000100
00000010
00001000
00000010
00001000
00000100
00010000
00000100
00010000
00001000
00010000
00001000
00010000
,  // measure 25
00001000
01000000
00001000
02000000
00000000
00000000
03100000
00000000
,  // measure 26
01200000
00000000
01300000
00010000
10010000
10000000
01000000
00002000
,  // measure 27
00000000
00000000
01003000
00020000
00001000
00001000
00230000
00302000
,  // measure 28
00003010
00000000
00000001
00000100
00000120
00000000
00001030
00001000
,  // measure 29
00001000
00000000
00000100
00000010
00000000
00000000
00000100
00010000
00001000
00010000
00001000
00010000
00200000
00000000
00000000
00000000
,  // measure 30
20300000
00000000
31000000
00000000
01100000
00000000
01000000
00001000
,  // measure 31
00002000
00003100
00020000
01030000
00002000
00003100
00020000
00032000
,  // measure 32
00103000
00000000
00000000
00000000
00000000
00000000
00000000
00000000
00000000
00000000
00000000
00000000
00010000
00000000
00000000
00000000
00000000
00000000
01000000
00000000
00000000
00000000
00000000
00000000
00100000
00000000
00000000
00000000
00000000
00000000
10000000
00000000
00000000
01000000
00000000
00000000
00100000
00000000
00000000
00000000
00000000
00000000
00001000
00000000
00010000
00000000
00001000
00000000
,  // measure 33
00010000
00000000
00000000
00000000
00000010
00001000
00000100
00000010
00000001
00000100
00000010
00000000
00001000
00000000
00000100
00000000
,  // measure 34
00000120
00000000
00000000
00000000
00000000
00000000
00000000
00000000
00000000
00000000
00000000
00000000
00000031
00000000
00000000
00000000
00000000
00000000
00000100
00000000
00000000
00000000
00000000
00000000
00000110
00000000
00000000
00000000
00000000
00000000
00000010
00000000
00001000
00000000
00000010
00000000
00002000
00000000
00000000
00000000
00000000
00000000
00000000
00000000
00000000
00023000
00000000
00000000
,  // measure 35
00000000
00000000
00032000
00000000
00003100
00000020
00000000
00000000
00002030
00000000
00000010
00000000
00023000
00000000
00230000
00000000
,  // measure 36
01300000
00000000
00100000
10000000
10010000
00000000
00010000
00100000
,  // measure 37
01000000
10000000
00100000
00000000
10000000
00000000
01000000
00000000
00010000
00000000
00002000
00000000
00013000
00000000
00200000
00000000
,  // measure 38
00310000
00000000
00000000
00000000
00000200
00000000
00000000
00000300
00000110
00000000
00000000
00000000
00000010
00000000
00001000
00000000
,  // measure 39
00001000
00001000
00001010
00001000
00011000
00001000
00000020
00000000
,  // measure 40
00000031
00000000
00001000
00000000
,  // measure 41
00010000
00000000
00000000
00000000
00001000
00000100
00000100
00000001
,  // measure 42
00001001
00000000
00000001
00001000
00000001
00000000
00000001
00000010
00000001
00000000
00000001
00001000
00000001
00000000
00000200
00000000
,  // measure 43
00001300
00000000
00010000
00001000
00010000
00000000
00010000
00000100
00010000
00000000
00010000
00001000
00000000
00001000
00100000
01000000
,  // measure 44
10000000
00000000
00010000
10000000
00010000
00000000
00010000
00100000
00010000
00000000
00010000
10000000
00010000
00000000
02000000
00000000
,  // measure 45
03001000
00000000
00010000
00001000
00010000
00000000
00010000
00000100
00010000
00000000
00010000
00001000
00000000
00001000
00000010
00000100
,  // measure 46
00000000
00001000
00000000
00000010
00000000
00000100
00000000
00000001
00000000
00000010
00000000
00000100
00000000
00010000
00000000
00001000
,  // measure 47
00000000
00010000
00000000
01000000
00000000
00100000
00000000
00010000
00000000
01000000
00000000
00100000
00000000
10000000
00000000
00010000
,  // measure 48
10000000
00100000
10000000
00100000
01000000
00010000
01000000
00010000
00100000
00001000
00100000
00001000
00010000
00001000
00010000
00001000
,  // measure 49
00010000
00000100
00010000
00000100
00000010
00000000
00000110
00000000
,  // measure 50
00001002
00000000
00000103
00000000
00000110
00000010
00000010
00000010
,  // measure 51
00020000
00000000
00000000
00000000
00031000
00010000
00001000
00010000
00001000
01000000
00001000
01000000
00100000
00000000
10000000
00000000
,  // measure 52
02000000
03010000
00011000
00010000
,  // measure 53
10010000
00000000
00000000
00000000
00010000
00000000
00000000
00000000
00011000
00000000
00000000
00000000
00002000
00000000
00000000
00003000
,  // measure 54
02000000
00000000
03100000
00000000
01100000
00100000
00100000
00100000
,  // measure 55
20000000
00000000
00000000
00000000
31000000
00100000
01000000
00100000
00001000
00100000
00001000
00100000
01000000
00000000
00010000
00000000
,  // measure 56
00012000
00003000
00010000
00000010
00000110
00000100
00001000
00000100
,  // measure 57
00000010
00010000
00001000
00100000
01100000
01000000
01000000
00010000
,  // measure 58
20010000
00000000
30100000
00100000
01100000
00100000
00100000
00100000
,  // measure 59
10020000
00000000
00000000
00000000
00130000
01000000
10000000
01000000
00200000
00000000
00301000
00100000
00001000
00010000
00001000
00010000
,  // measure 60
00000020
00000030
00001000
00000000
00011000
00000000
00001000
00000000
,  // measure 61
00001001
00000000
00000000
00000000
00001000
00000000
00000000
00000000
00011000
00000000
00000000
00000000
00020000
00000000
00000000
00030000
,  // measure 62
00200000
00310000
10010000
00010000
,  // measure 63
00010000
00010000
10010000
00010000
,  // measure 64
10010000
00000000
00010000
10000000
10010000
00000000
10010000
00000000
,  // measure 65
00010000
10000000
10010000
00000000
10200000
00000000
00310000
00001000
,  // measure 66
00021000
00001000
00030200
00010000
,  // measure 67
00000310
00000001
00000100
00000010
00000001
00000010
00000100
00001000
,  // measure 68
00010000
00001000
00000100
00000010
00010000
00001000
00100000
00010000
,  // measure 69
20000000
00000000
00010000
30200000
10000000
00000000
01000000
01000000
,  // measure 70
01300000
00100000
10000000
01000000
00100000
00010000
00100000
01000000
,  // measure 71
10000000
00100000
00010000
00001000
00010000
01000000
00010000
00001000
,  // measure 72
00000010
00000100
00000010
00000001
00001000
00000001
00000100
00000010
00000100
00000001
00001000
00000001
00000010
00000100
00010000
00001000
,  // measure 73
00020000
00000000
00030000
00000000
,  // measure 74
01100000
00000000
00000000
00000000
10000000
01000000
01000000
00010000
,  // measure 75
00100000
00000000
00000000
00000000
01000000
00010000
00010000
00100000
,  // measure 76
00001000
00000000
00000100
00000000
,  // measure 77
00000010
00000000
00000000
00000000
00001000
00000100
00000100
00000001
,  // measure 78
00000010
00000000
00000100
00000000
,  // measure 79
00001000
00000000
00000000
00000000
00000010
00001000
00001000
00010000
,  // measure 80
00100000
00000000
01000000
00000000
,  // measure 81
00010000
00000000
00000000
00000000
00100000
01000000
01000000
00010000
,  // measure 82
10000000
00000000
00000000
00000000
,  // measure 83
00000000
00000000
00000000
00000000
00000000
00010000
00010000
00001000
;
