#VERSION:0.83;
#TITLE:エンドルフィン(XX-Special);
#ARTIST:U1 overground;
#TITLETRANSLIT:Endorphin(XX-Special);
#BANNER:Endorphin(XX-Special).png;
#BACKGROUND:Endorphin(XX-Special)-bg.png;
#JACKET:Endorphin(XX-Special)-jacket.png;
#MUSIC:Endorphin(XX-Special).ogg;
#OFFSET:-0.001;
#SAMPLESTART:39;
#SAMPLELENGTH:15;
#SELECTABLE:YES;
#BPMS:0=160;
#WARPS:8=12,21=11,32.5=11.5,44.5=11.5,56.5=11.5,68.5=11.5,81=11,92.5=11.5,104.5=11.5,116.5=11.5,128.5=11.5,141=11,175=9,243.875=32,276.25=12,372=12;
#SPEEDS:0=1=0=0,149.5=0.5=0=0,152=1=12=0,182=0.010=0=0,184=0.3=1=0,185=1=1=0,186=0.75=0.25=0,186.25=1=0.25=0,186.5=0.75=0.25=0,186.75=1=0.25=0,187=0.6=0.167=0,187.167=1=0.167=0,187.333=0.6=0.167=0,187.5=1=0.167=0,187.667=0.167=0.167=0,187.833=1=0.167=0,191=0.6=0.25=0,191.25=1=0.25=0,194=0.75=0.25=0,194.25=1=0.25=0,194.5=0.75=0.25=0,194.75=1=0.25=0,195=0.6=0.167=0,195.167=1=0.167=0,195.333=0.6=0.167=0,195.5=1=0.167=0,195.667=0.6=0.167=0,195.833=1=0.167=0,198=0.6=0.167=0,198.167=1=0.167=0,198.333=0.6=0.167=0,198.5=1=0.167=0,198.667=0.6=0.167=0,198.833=1=0.167=0,199=1=0.5=0,201.5=0.6=0.25=0,201.75=1=0.25=0,203=0.6=0.167=0,203.167=1=0.167=0,203.333=0.6=0.167=0,203.5=1=0.167=0,203.667=0.6=0.167=0,203.833=1=0.167=0,207=0.6=0.25=0,207.25=1=0.25=0,211=1.5=0.25=0,211.25=1=0.25=0,215=0.6=0.25=0,215.25=1=0.25=0,218=0.75=0.25=0,218.25=1=0.25=0,218.5=0.75=0.25=0,218.75=1=0.25=0,219=0.6=0.167=0,219.167=1=0.167=0,219.333=0.6=0.167=0,219.5=1=0.167=0,219.667=0.6=0.167=0,219.833=1=0.167=0,223=0.6=0.25=0,223.25=1=0.25=0,225=1.2=0.25=0,225.25=1=0.25=0,226=0.8=0.125=0,226.125=1=0.125=0,226.25=0.8=0.125=0,226.375=1=0.125=0,226.5=0.8=0.125=0,226.625=1=0.125=0,226.75=0.8=0.125=0,226.875=1=0.125=0,227=0.8=0.125=0,227.125=1=0.125=0,227.25=0.8=0.125=0,227.375=1=0.125=0,227.5=0.8=0.125=0,227.625=1=0.125=0,227.75=0.8=0.125=0,227.875=1=0.125=0,233.5=0.6=0.25=0,233.75=1=0.25=0,239=0.6=0.25=0,239.25=1=0.25=0,243=1.5=0.25=0,243.25=1=0.25=0,247=0.6=0.167=0,247.167=1=0.167=0,247.333=0.6=0.167=0,247.5=1=0.167=0,247.667=0.6=0.167=0,247.833=1=0.167=0,291=0.6=0.167=0,291.167=1=0.167=0,291.333=0.6=0.167=0,291.5=1=0.167=0,291.667=0.6=0.167=0,291.833=1=0.167=0,309.25=4=0.25=0,309.5=1=0.25=0,310=0.75=0.25=0,310.25=1=0.25=0,310.5=0.75=0.25=0,310.75=1=0.25=0,311=0.6=0.167=0,311.167=1=0.167=0,311.333=0.6=0.167=0,311.5=1=0.167=0,311.667=0.6=0.167=0,311.833=1=0.167=0,315=0.6=0.25=0,315.25=1=0.25=0,318.167=1=0.167=0,318.333=0.6=0.167=0,318.5=1=0.167=0,318.667=0.6=0.167=0,318.833=1=0.167=0,319=0.6=0.167=0,319.167=1=0.167=0,319.333=0.6=0.167=0,319.5=1=0.167=0,319.667=0.6=0.167=0,319.833=1=0.167=0,320=0.6=0.167=0,320.167=1=0.167=0,320.333=0.6=0.167=0,320.5=1=0.167=0,320.667=0.6=0.167=0,320.833=1=0.167=0,325.5=0.6=0.25=0,325.75=1=0.25=0,334=0.6=0.25=0,334.25=1=0.25=0,335=0.6=0.25=0,335.25=1=0.25=0,336=0.6=0.25=0,336.25=1=0.25=0,337=0.6=0.25=0,337.25=1=0.25=0,338=0.6=0.25=0,338.25=1=0.25=0,339=0.350=4=0,343=1=30=0,386=0.75=0.25=0,386.25=1=0.25=0,386.5=0.75=0.25=0,386.75=1=0.25=0,387=0.6=0.167=0,387.167=1=0.167=0,387.333=0.6=0.167=0,387.5=1=0.167=0,387.667=0.6=0.167=0,387.833=1=0.167=0,388=0.6=0.167=0,388.167=1=0.167=0,388.333=0.6=0.167=0,388.5=1=0.167=0,388.667=0.6=0.167=0,388.833=1=0.167=0,389.667=1.2=0.333=0,390=1=0.333=0,390.667=1.2=0.333=0,391=1=0.333=0,394=0.75=0.25=0,394.25=1=0.25=0,394.5=0.75=0.25=0,394.75=1=0.25=0,395=0.6=0.167=0,395.167=1=0.167=0,395.333=0.6=0.167=0,395.5=1=0.167=0,395.667=0.6=0.167=0,395.833=1=0.167=0,397=0.6=0.167=0,397.167=1=0.167=0,397.333=0.6=0.167=0,397.5=1=0.167=0,397.667=0.6=0.167=0,397.833=1=0.167=0,399=0.6=0.167=0,399.167=1=0.167=0,399.333=0.6=0.167=0,399.5=1=0.167=0,399.667=0.6=0.167=0,399.833=1=0.167=0,402=0.75=0.25=0,402.25=1=0.25=0,402.5=0.75=0.25=0,402.75=1=0.25=0,403=0.6=0.167=0,403.167=1=0.167=0,403.333=0.6=0.167=0,403.5=1=0.167=0,403.667=0.6=0.167=0,403.833=1=0.167=0,405.667=1.2=0.333=0,406=1=0.333=0,406.667=1.2=0.333=0,407=1=0.333=0,410=0.75=0.25=0,410.25=1=0.25=0,410.5=0.75=0.25=0,410.75=1=0.25=0,411=0.6=0.167=0,411.167=1=0.167=0,411.333=0.6=0.167=0,411.5=1=0.167=0,411.667=0.6=0.167=0,411.833=1=0.167=0,415=0.6=0.167=0,415.167=1=0.167=0,415.333=0.6=0.167=0,415.5=1=0.167=0,415.667=0.6=0.167=0,415.833=1=0.167=0,417=0.75=0.25=0,417.25=1=0.25=0,417.5=0.75=0.25=0,417.75=1=0.25=0,418=0.6=0.167=0,418.167=1=0.167=0,418.333=0.6=0.167=0,418.5=1=0.167=0,418.667=0.6=0.167=0,418.833=1=0.167=0,419=0.6=0.167=0,419.167=1=0.167=0,419.333=0.6=0.167=0,419.5=1=0.167=0,419.667=0.6=0.167=0,419.833=1=0.167=0,420.667=1.2=0.333=0,421=1=0.333=0,421.667=1.2=0.333=0,422=1=0.333=0,422.667=1.2=0.333=0,423=1=0.333=0,426=1.2=0.333=0,426.333=1=0.333=0,427=1.2=0.333=0,427.333=1=0.333=0,428=1.2=0.333=0,428.333=1=0.333=0,434=0.75=0.25=0,434.25=1=0.25=0,434.5=0.75=0.25=0,434.75=1=0.25=0,435=0.6=0.167=0,435.167=1=0.167=0,435.333=0.6=0.167=0,435.5=1=0.167=0,435.667=0.6=0.167=0,435.833=1=0.167=0,436=0.6=0.167=0,436.167=1=0.167=0,436.333=0.6=0.167=0,436.5=1=0.167=0,436.667=0.6=0.167=0,436.833=1=0.167=0,437.667=1.2=0.333=0,438=1=0.333=0,438.667=1.2=0.333=0,439=1=0.333=0,442=0.75=0.25=0,442.25=1=0.25=0,442.5=0.75=0.25=0,442.75=1=0.25=0,443=0.6=0.167=0,443.167=1=0.167=0,443.333=0.6=0.167=0,443.5=1=0.167=0,443.667=0.6=0.167=0,443.833=1=0.167=0,445=0.6=0.167=0,445.167=1=0.167=0,445.333=0.6=0.167=0,445.5=1=0.167=0,445.667=0.6=0.167=0,445.833=1=0.167=0,447=0.6=0.167=0,447.167=1=0.167=0,447.333=0.6=0.167=0,447.5=1=0.167=0,447.667=0.6=0.167=0,447.833=1=0.167=0,481.5=0.5=8=0;
#SCROLLS:0=1,18=0,22=0.5,30=0,34=0.5,42=0,46=0.5,49=100,54=0,58=0.5,61=100,66=0,69=0.5,72=100,78=0,82=0.5,85=100,90=0,93=0.5,96=100,102=0,105=0.5,109=100,114=0,117=0.5,121=100,126=0,129=0.5,134=100,138=0,142=0.5,149=100,150=1,176=100,180=1,266=100,283=1,373=100,382=0,385.5=1,474=2,474.333=0,474.667=2,475=0,475.333=2,475.667=0,476=2,476.333=0,476.667=2,477=0,477.333=2,477.667=0,478=2,478.333=0,478.667=2,479=0,479.333=2,479.667=0,480=2,480.25=0,480.5=2,480.75=0,481=2,481.25=0,481.5=1;

//---------------dance-single - NewbStepper-CSP----------------
#NOTEDATA:;
#CHARTNAME:NewbStepper-CSP;
#STEPSTYPE:dance-single;
#DESCRIPTION:NewbStepper-CSP;
#DIFFICULTY:Challenge;
#METER:18;
#CREDIT:NewbStepper;
#NOTES:
0000
0000
0000
0000
,
0000
0000
0000
0000
,
0000
0000
0000
0000
,
0000
0000
0000
0000
,
0000
0000
0000
0000
,
0000
0000
0000
1000
,
0000
0000
0000
0000
,
0000
0000
0000
0000
,
0000
0000
0000
0001
,
0000
0000
0000
0000
,
0000
0000
0000
0000
,
0000
0000
0000
1000
,
0000
0000
0000
0000
,
0000
0000
0000
0000
,
0000
0000
0000
0001
,
0000
0000
0000
0000
,
0000
0000
0000
0000
,
0000
0000
1000
0000
,
0000
0000
0000
0000
,
0000
0000
0000
0000
,
0000
0000
0000
0000
0000
0000
0000
0000
0000
0000
0000
0000
1000
0100
1000
0000
,
0000
0000
0000
0000
,
0000
0000
0000
0000
,
0000
0000
0000
0000
0000
0000
0000
0000
1000
0100
1000
0100
0000
0000
0000
0000
,
0000
0000
0000
0000
,
0000
0000
0000
0000
,
0000
0000
0000
0000
0000
0000
0000
0000
1000
0100
1000
0100
1000
0000
0000
0000
,
0000
0000
0000
0000
,
0000
0000
0000
0000
,
0000
0000
0000
0000
0000
0000
0000
0000
1000
0100
1000
0100
1000
0100
1000
0000
,
0000
0000
0000
0000
,
0000
0000
0000
0000
,
0000
0000
0000
0000
0000
0000
0000
0000
1000
0100
1000
0100
1000
0100
1000
0100
,
0010
0000
0000
0000
,
0000
0000
0000
0000
,
0000
0000
0000
0000
0000
0000
0000
0000
0000
0000
0000
0000
1000
0100
1000
0100
,
1000
0100
1000
0100
0010
0001
0010
0000
0000
0000
0000
0000
0000
0000
0000
0000
,
0000
0000
0000
0000
,
0000
0000
0000
0000
1000
0100
1000
0100
1000
0100
1000
0100
0010
0001
0010
0001
,
0010
0001
0010
0001
1000
0010
0100
0001
1000
0010
0100
0001
1000
0100
0010
0001
,
0100
0010
1000
0100
0010
0001
0010
0000
1000
0000
0010
0000
0001
0000
0100
0000
,
1000
0100
0001
0000
0010
0001
0100
0000
1000
0000
0001
0010
1000
0000
0100
0000
,
1000
0010
0100
0000
1000
0000
0100
0000
0001
0000
0010
0000
0001
0000
0100
0000
,
1000
0100
1000
0100
0010
0100
0010
0100
0001
0100
0001
1000
0200
0000
0000
0000
0000
0000
0300
0000
0000
0000
0000
0000
,
0000
0000
0000
0000
,
0000
0000
0000
0000
,
0000
0000
0000
0000
0000
0000
0000
0000
0000
0000
0000
0000
0000
0000
0000
0000
0000
0000
0000
0000
0000
0000
0000
0000
2002
0000
0000
0000
0000
0000
0000
0000
0000
3000
0000
0000
1000
0000
0000
0000
1000
0000
0000
0000
1003
0000
0000
0000
,
0001
0000
0101
0000
0110
0000
0000
0000
0010
1000
0100
0010
0002
0000
0003
0000
,
0100
0000
0000
0000
0000
0000
0010
0000
0000
1000
0000
0000
0010
0000
0000
0000
0000
0000
0000
0000
0000
0000
0000
0000
0220
0000
0000
0000
0000
0000
0300
0000
0000
0000
0000
0000
0001
0000
0000
0000
0001
0000
0000
0000
0031
0000
0000
0000
,
0010
0000
0000
1000
0000
0000
0100
0000
0000
0010
0000
0000
0001
0000
0000
0000
0000
0000
0200
0000
0000
0000
0000
0000
1000
0000
0000
0000
1000
0000
0000
0000
1300
0000
0000
0000
0100
0000
0000
0000
0000
0000
0001
0000
0100
0000
0001
0000
,
0020
0000
0000
0000
0000
0000
2030
0000
0000
0000
0000
0000
3002
0000
0000
0000
0000
0000
0103
0000
0000
0000
0000
0000
1000
0000
0000
0001
0000
0000
1000
0000
0100
0000
0010
0000
0001
0000
0000
0000
0001
0000
0000
0000
0001
0000
0000
0000
,
0100
0000
0000
0000
0000
0000
1000
0000
0000
0100
0000
0000
0001
0000
0000
0000
0000
0000
0000
0000
0000
0000
0000
0000
0010
0000
0000
0000
0001
0000
0000
0000
0100
0000
0000
0000
0020
0000
0000
0000
0000
0000
0030
0000
0000
0000
0000
0000
,
0100
0000
1000
0100
0001
0000
0000
0000
0012
0000
0000
0000
2003
0000
3001
0100
,
0010
0000
0000
0000
0000
0000
1000
0000
0000
0100
0000
0000
0010
0000
0000
0001
0000
0000
0000
0000
0000
0000
0000
0000
0100
0000
0000
0000
0010
0000
0000
0000
1000
0000
0000
0000
0200
0000
0000
0000
0000
0000
0300
0000
0000
0000
0000
0000
,
0002
0000
0000
0000
0000
0000
0203
0000
0000
0000
0000
0000
2300
0000
0000
0000
0000
0000
3010
0000
0000
0000
0000
0000
2002
0000
0000
0000
0000
0000
0000
0000
0000
0003
0000
0000
0001
0000
0000
0000
0001
0000
0000
0000
3001
0000
0000
0000
,
1000
0000
0100
0010
0110
0000
0000
0000
0010
0001
0100
0010
2000
0000
3000
0000
,
0100
0000
0010
0000
2002
0000
3003
0000
1000
1000
1000
1000
0001
0001
0001
0001
,
0100
0000
0000
0010
0000
0000
1010
0000
1000
0000
0100
0000
0001
0000
1000
0000
0010
0000
0001
0000
0000
1000
0100
1000
,
0020
0000
0032
0000
2003
0000
3100
0000
0001
0000
1000
0100
1000
0010
0100
0001
,
0010
0000
0000
0100
0000
0000
0001
0000
0000
0100
0000
0000
1000
0000
0000
0000
0000
0000
0000
0000
0000
0000
0000
0000
0010
0000
0000
0000
1000
0000
0000
0000
0100
0000
0000
0000
0020
0000
0000
0000
0000
0000
0030
0000
0000
0000
0000
0000
,
0100
0000
0001
0100
1000
0000
0000
0000
1010
0000
1000
0000
1001
0000
0001
0100
,
0000
0000
0000
0000
0000
0000
1000
0000
0000
0100
0000
0000
0001
0000
0000
0010
0000
0000
0000
0000
0000
0000
0000
0000
0001
0000
0000
0000
1000
0000
0000
0000
0100
0000
0000
0000
0010
0000
0000
0000
0010
0000
0000
0000
0010
0000
0000
0000
,
0001
0000
1000
0100
0010
0000
0001
0000
1000
0000
0100
1000
0100
0001
0100
0000
,
0010
0001
0100
1000
0100
0001
0010
0000
0100
0000
1000
0010
0100
1000
0001
0010
,
1000
0100
0010
1000
0001
0100
1000
0100
0010
0000
1000
0010
0001
0000
1000
0100
,
0001
0000
0100
0010
0001
0100
0010
1000
0100
0001
0100
1000
0001
0100
0010
0001
,
1000
0100
0010
1000
0001
0100
0000
0000
0000
0000
0000
0000
0000
0000
0000
0000
,
0000
0000
0000
0000
,
0000
0000
0000
0000
,
0000
0000
0000
0000
,
0000
0000
0000
0000
,
0000
0000
0000
0100
1000
0000
0000
0000
1010
0000
1000
0000
1001
0000
0001
0100
,
0000
0000
0000
0000
0000
0000
1000
0000
0000
0100
0000
0000
0001
0000
0000
0010
0000
0000
0000
0000
0000
0000
0000
0000
0001
0000
0000
0000
1000
0000
0000
0000
0100
0000
0000
0000
0010
0000
0000
0000
0010
0000
0000
0000
0010
0000
0000
0000
,
0001
0000
1000
0100
0010
0000
0001
0000
1000
0000
0100
1000
0100
0001
0100
0000
,
0010
0001
0100
1000
0100
0001
0010
0000
0100
0000
1000
0010
0100
1000
0001
0010
,
1000
0100
0010
1000
0001
0100
1000
0100
0010
0000
1000
0010
0001
0000
1000
0100
,
0001
0000
0100
0010
0001
0100
0010
1000
0100
0001
0100
1000
0001
0100
0010
0001
,
1000
0000
0000
0100
0000
0000
0010
0000
0000
1000
0000
0000
0001
0000
0000
0100
0000
0000
0000
0000
0000
0000
0000
0000
2002
0000
0000
0000
0000
0000
0000
0000
0000
0003
0000
0000
0001
0000
0000
0000
0001
0000
0000
0000
3001
0000
0000
0000
,
1000
0000
1100
0000
0110
0000
0000
0000
0010
0001
0100
0010
2000
0000
3000
0000
,
0100
0000
0000
0000
0000
0000
0010
0000
0000
0001
0000
0000
0010
0000
0000
0000
0000
0000
0000
0000
0000
0000
0000
0000
0100
0000
0000
0000
0100
0000
0000
0000
0100
0000
0000
0000
1000
0000
0000
0000
1000
0000
0000
0000
1000
0000
0000
0000
,
0001
0000
0000
0000
0001
0000
0000
0000
0001
0000
0000
0000
0100
0000
0000
0010
0000
0000
1000
0000
0000
0100
0000
0000
0010
0000
0000
0000
0000
0000
1000
0000
0000
0001
0000
0000
0100
0000
0000
0010
0000
0000
0001
0000
0100
0000
0001
0000
,
0200
0000
2300
0000
3002
0000
0013
0000
1000
0000
0010
1000
0010
0001
0010
0000
,
0100
0001
0010
1000
0010
0001
0100
0000
0010
0000
1000
0010
0100
1000
0100
0010
,
1000
0100
0010
0100
1000
0010
0100
0001
0010
0020
1030
0000
0010
0020
0031
0000
,
0010
0020
1030
0000
0010
0020
0031
0000
0010
0020
0130
0000
0002
0000
0000
0000
,
2003
0000
0000
0000
3010
0000
0000
0000
1001
0000
0000
0000
0001
0100
0001
0100
,
0001
0100
0001
0100
0010
1000
0010
1000
0010
1000
0010
1000
0001
0010
0001
0010
,
0001
0010
0001
0010
0100
1000
0100
1000
0100
1000
0100
1000
0001
0100
0001
0100
,
0010
1000
0010
1000
0001
0010
0001
0010
0100
1000
0100
1000
0001
0100
0010
1000
,
0001
0100
0010
1000
0001
0010
0100
1000
0001
0010
0100
1000
0001
0100
0010
1000
,
0100
0010
0001
1000
0010
0100
0001
0010
0100
1000
0001
0100
0010
0100
1000
0100
,
0001
0100
0010
0001
0010
0100
0010
1000
0100
0010
0100
0001
0100
1000
0100
0010
,
1000
0010
0001
0100
0010
1000
0100
0001
0100
1000
0010
0001
0010
1000
0100
0010
,
0000
0000
0000
0000
,
0000
0000
0000
0000
,
0000
0000
0000
0000
,
0000
0000
0000
0000
0000
0000
0000
0000
0000
0000
0000
0000
0000
0000
0000
0000
0000
0000
0000
0000
0000
0000
0000
0000
2002
0000
0000
0000
0000
0000
0000
0000
0000
3003
0000
0000
0010
0000
0000
0000
0010
0000
0000
0000
0010
0000
0000
0000
,
0010
0010
0010
1001
1000
0001
0101
0010
1000
1100
0010
0001
,
0100
0000
0000
0000
0000
0000
0010
0000
0000
1000
0000
0000
0010
0000
0000
0000
0000
0000
0000
0000
0000
0000
0000
0000
0220
0000
0000
0000
0000
0000
0300
0000
0000
0000
0000
0000
0001
0000
0000
0000
0001
0000
0000
0000
0031
0000
0000
0000
,
0020
2030
3200
0001
0001
0301
0200
2300
3020
0001
0001
0031
,
0010
0000
0000
0000
0000
0000
1000
0000
0000
0000
0000
0000
0100
0000
0000
0000
0010
0000
0000
0000
0001
0000
0000
0000
2002
0000
0000
0000
0000
0000
0000
0000
0000
0003
0000
0000
0001
0000
0000
0000
0001
0000
0000
0000
3001
0000
0000
0000
,
0010
0100
0010
0100
0010
0100
0010
0000
0001
0000
1000
0000
1010
0000
0100
0000
0001
0000
0011
0000
0100
0000
1000
0000
,
0010
0000
0000
0000
0000
0000
0100
0000
0000
0001
0000
0000
0100
0000
0000
0000
0000
0000
0000
0000
0000
0000
0000
0000
2002
0000
0000
0000
0000
0000
0000
0000
0000
3003
0000
0000
0100
0000
0000
0000
0100
0000
0000
0000
0100
0000
0000
0000
,
0010
0000
0000
0100
0000
0000
1001
0000
0000
0000
0000
0000
0001
0000
0100
0000
0001
0000
0010
0000
0010
0000
0010
0000
,
0100
0000
0000
0000
0000
0000
0110
0000
0000
0000
0000
0000
2002
0000
0000
0000
0000
0000
0000
0000
0000
3003
0000
0000
0100
0000
0000
0000
0100
0000
0000
0000
0100
0000
0000
0000
0100
0000
0000
0000
0100
0000
0000
0000
0100
0000
0000
0000
,
1001
1000
0001
0011
0100
1000
1010
0100
0001
1001
1000
0100
,
0010
0000
0000
0000
0000
0000
0001
0000
0000
1000
0000
0000
0001
0000
0000
0000
0000
0000
0000
0000
0000
0000
0000
0000
1000
0000
0000
0000
1100
0000
0000
0000
0010
0000
0000
0000
0001
0000
0000
0000
0101
0000
0000
0000
0010
0000
0000
0000
,
0100
0000
0000
0000
0110
0000
0000
0000
0010
0000
0000
0000
1000
0000
0000
0100
0000
0000
0010
0000
0000
0001
0000
0000
2000
0000
0000
0000
3200
0000
0000
0000
0302
0000
0000
0000
1003
0000
0000
0010
0000
0000
0100
0000
0000
0010
0000
0000
,
0001
0000
0000
0000
0000
0000
0100
0000
0000
0000
0000
0000
0010
0000
0000
0000
1000
0000
0000
0000
0001
0000
0000
0000
2002
0000
0000
0000
0000
0000
0000
0000
0000
3003
0000
0000
0010
0000
0000
0000
0010
0000
0000
0000
0010
0000
0000
0000
,
0010
0010
0010
1001
0001
1000
1100
0010
0001
0101
0010
1000
,
0100
0000
0000
0000
0000
0000
0010
0000
0000
0001
0000
0000
0010
0000
0000
0000
0000
0000
0000
0000
0000
0000
0000
0000
0220
0000
0000
0000
0000
0000
0300
0000
0000
0000
0000
0000
1000
0000
0000
0000
1000
0000
0000
0000
1030
0000
0000
0000
,
0020
0032
0203
1000
1000
1300
0200
0302
0023
1000
1000
1030
,
0010
0000
0000
0000
0000
0000
0001
0000
0000
0000
0000
0000
0100
0000
0000
0000
0010
0000
0000
0000
1000
0000
0000
0000
0001
0000
0000
0000
0000
0000
0100
0000
0000
0001
0000
0000
0100
0000
0000
1000
0000
0000
0100
0000
0000
0000
0000
0000
,
0010
1000
0100
0001
0100
1000
0010
0000
0100
0000
0001
0010
0100
0001
1000
0010
,
0001
0100
0010
0001
1000
0100
0001
0100
0010
0000
0001
0010
1000
0000
0001
0100
,
1000
0000
0100
0010
1000
0100
0010
0001
0100
1000
0100
0001
1000
0100
0010
1000
,
0001
0000
0000
0100
0000
0000
0010
0000
0000
0001
0000
0000
1000
0000
0000
0100
0000
0000
1000
0000
0000
0001
0000
0000
0100
0000
0001
0000
0100
0000
0001
0000
0100
0000
0010
0000
1000
0000
0000
0100
0000
0000
0010
0000
0000
0001
0000
0000
,
1000
0000
0100
0000
1000
0000
0100
0000
1000
0000
0001
0000
0100
0000
0000
0010
0000
0000
1000
0000
0000
0100
0000
0000
0010
0000
0001
0000
0010
0000
0001
0000
0010
0000
0100
0000
1000
0000
0000
0001
0000
0000
0100
0000
0000
0010
0000
0000
,
1000
0010
1000
0010
0100
0001
0100
0001
0010
0100
1000
0010
0100
0000
0000
0000
0101
0000
0000
0000
1100
0000
0000
0000
,
0101
0000
0110
0000
1010
0000
0011
0000
0101
0000
1100
0000
,
0110
0011
1100
2002
0000
0000
0000
0000
,
0000
0000
0000
0000
,
0000
0000
0000
3003
0000
0000
0000
0000
;

//---------------dance-double - NewbStepper-CDP----------------
#NOTEDATA:;
#CHARTNAME:NewbStepper-CDP;
#STEPSTYPE:dance-double;
#DESCRIPTION:NewbStepper-CDP;
#DIFFICULTY:Challenge;
#METER:18;
#NOTES:
00000000
00000000
00000000
00000000
,
00000000
00000000
00000000
00000000
,
00000000
00000000
00000000
00000000
,
00000000
00000000
00000000
00000000
,
00000000
00000000
00000000
00000000
,
00000000
00000000
00000000
10000000
,
00000000
00000000
00000000
00000000
,
00000000
00000000
00000000
00000000
,
00000000
00000000
00000000
00000001
,
00000000
00000000
00000000
00000000
,
00000000
00000000
00000000
00000000
,
00000000
00000000
00000000
10000000
,
00000000
00000000
00000000
00000000
,
00000000
00000000
00000000
00000000
,
00000000
00000000
00000000
00000001
,
00000000
00000000
00000000
00000000
,
00000000
00000000
00000000
00000000
,
00000000
00000000
00010000
00000000
,
00000000
00000000
00000000
00000000
,
00000000
00000000
00000000
00000000
,
00000000
00000000
00000000
00000000
00000000
00000000
00000000
00000000
00000000
00000000
00000000
00000000
00010000
00001000
00010000
00000000
,
00000000
00000000
00000000
00000000
,
00000000
00000000
00000000
00000000
,
00000000
00000000
00000000
00000000
00000000
00000000
00000000
00000000
00010000
00001000
00010000
00001000
00000000
00000000
00000000
00000000
,
00000000
00000000
00000000
00000000
,
00000000
00000000
00000000
00000000
,
00000000
00000000
00000000
00000000
00000000
00000000
00000000
00000000
00010000
00001000
00010000
00001000
00010000
00000000
00000000
00000000
,
00000000
00000000
00000000
00000000
,
00000000
00000000
00000000
00000000
,
00000000
00000000
00000000
00000000
00000000
00000000
00000000
00000000
00010000
00001000
00010000
00001000
00010000
00001000
00010000
00000000
,
00000000
00000000
00000000
00000000
,
00000000
00000000
00000000
00000000
,
00000000
00000000
00000000
00000000
00000000
00000000
00000000
00000000
00010000
00001000
00010000
00001000
00010000
00001000
00010000
00001000
,
00100000
00000000
00000000
00000000
,
00000000
00000000
00000000
00000000
,
00000000
00000000
00000000
00000000
00000000
00000000
00000000
00000000
00000000
00000000
00000000
00000000
00010000
00001000
00010000
00001000
,
00010000
00001000
00010000
00001000
00100000
00010000
00100000
00000000
00000000
00000000
00000000
00000000
00000000
00000000
00000000
00000000
,
00000000
00000000
00000000
00000000
,
00000000
00000000
00000000
00000000
00010000
00001000
00010000
00001000
00010000
00001000
00010000
00001000
00100000
00010000
00100000
00010000
,
00100000
00010000
00100000
00010000
10000000
00100000
01000000
00010000
10000000
00100000
01000000
00010000
00100000
00001000
00010000
00000100
,
00001000
00000010
00000100
00000001
00000010
00000001
00000010
00000000
00001000
00000000
00000010
00000000
00000001
00000000
00000100
00000000
,
00001000
00010000
00001000
00000000
00100000
00010000
01000000
00000000
10000000
00000000
00010000
00100000
10000000
00000000
01000000
00000000
,
10000000
00100000
01000000
00000000
10000000
00000000
01000000
00000000
00010000
00000000
00100000
00000000
00001000
00000000
00010000
00000000
,
00000100
00001000
00000100
00001000
00000001
00000100
00000010
00000100
00000010
00000100
00000001
00001000
00000200
00000000
00000000
00000000
00000000
00000000
00000300
00000000
00000000
00000000
00000000
00000000
,
00000000
00000000
00000000
00000000
,
00000000
00000000
00000000
00000000
,
00000000
00000000
00000000
00000000
00000000
00000000
00002002
00000000
00003000
00001000
00001000
00001003
,
00000001
00000000
00000100
00000000
00001100
00000000
00000000
00000000
00010000
00001000
00100000
00010000
20000000
00000000
30000000
00000000
,
01000000
00000000
00000000
00000000
00000000
00000000
00100000
00000000
00000000
00010000
00000000
00000000
00100000
00000000
00000000
00000000
00000000
00000000
00000000
00000000
00000000
00000000
00000000
00000000
02200000
00000000
00000000
00000000
00000000
00000000
03000000
00000000
00000000
00000000
00000000
00000000
10000000
00000000
00000000
00000000
10000000
00000000
00000000
00000000
10300000
00000000
00000000
00000000
,
00100000
00000000
00000000
00010000
00000000
00000000
01000000
00000000
00000000
00001000
00000000
00000000
00010000
00000000
00000000
00000000
00000000
00000000
00000200
00000000
00000000
00000000
00000000
00000000
00000010
00000000
00000000
00000000
00000010
00000000
00000000
00000000
00000310
00000000
00000000
00000000
00000100
00000000
00000000
00000000
00000000
00000000
00001000
00000000
00000100
00000000
00001000
00000000
,
00000020
00000000
00000000
00000000
00000000
00000000
00000032
00000000
00000000
00000000
00000000
00000000
00002003
00000000
00000000
00000000
00000000
00000000
00003100
00000000
00000000
00000000
00000000
00000000
00000001
00000000
00000000
00001000
00000000
00000000
00000001
00000000
00000100
00000000
00000010
00000000
00010000
00000000
00000000
00000000
00010000
00000000
00000000
00000000
00010000
00000000
00000000
00000000
,
00001000
00000000
00000000
00000000
00000000
00000000
00010000
00000000
00000000
01000000
00000000
00000000
10000000
00000000
00000000
00000000
00000000
00000000
00000000
00000000
00000000
00000000
00000000
00000000
00100000
00000000
00000000
00000000
10000000
00000000
00000000
00000000
01000000
00000000
00000000
00000000
00200000
00000000
00000000
00000000
00000000
00000000
00300000
00000000
00000000
00000000
00000000
00000000
,
01000000
00000000
00010000
01000000
10000000
00000000
00000000
00000000
20100000
00000000
00000000
00000000
30020000
00000000
01030000
00100000
,
00010000
00000000
00000000
00000000
00000000
00000000
00001000
00000000
00000000
00010000
00000000
00000000
00000100
00000000
00000000
00001000
00000000
00000000
00000000
00000000
00000000
00000000
00000000
00000000
00000100
00000000
00000000
00000000
00000010
00000000
00000000
00000000
00000001
00000000
00000000
00000000
00000200
00000000
00000000
00000000
00000000
00000000
00000300
00000000
00000000
00000000
00000000
00000000
,
00000002
00000000
00000000
00002003
00000000
00000000
00023000
00000000
00000000
10030000
00000000
00000000
20020000
00000000
00000000
00030000
00000000
00000000
00010000
00000000
00010000
00000000
30010000
00000000
,
10000000
00000000
01000000
00000000
01010000
00000000
00000000
00000000
00001000
00010000
00000010
00001000
00000002
00000000
00000003
00000000
,
00000100
00000000
00000010
00000000
00002002
00000000
00003003
00000000
00000001
00000001
00000001
00000001
00001000
00001000
00001000
00001000
,
00000100
00000000
00000000
00010000
00000000
00000000
00011000
00000000
00001000
00000000
00100000
00000000
01000000
00000000
00010000
00000000
00001000
00000000
00100000
00000000
00000000
00010000
01000000
00010000
,
00200000
00000000
20300000
00000000
30020000
00000000
01030000
00000000
10000000
00000000
00010000
01000000
00010000
00100000
00001000
00010000
,
00000010
00000000
00000000
00010000
00000000
00000000
00001000
00000000
00000000
00000100
00000000
00000000
00000001
00000000
00000000
00000000
00000000
00000000
00000000
00000000
00000000
00000000
00000000
00000000
00000010
00000000
00000000
00000000
00000001
00000000
00000000
00000000
00000100
00000000
00000000
00000000
00000020
00000000
00000000
00000000
00000000
00000000
00000030
00000000
00000000
00000000
00000000
00000000
,
00000100
00000000
00001000
00000100
00000001
00000000
00000000
00000000
00000011
00000000
00000001
00000000
00001001
00000000
00001000
00000100
,
00000000
00000000
00000000
00000000
00000000
00000000
00000001
00000000
00000000
00000100
00000000
00000000
00001000
00000000
00000000
00000010
00000000
00000000
00000000
00000000
00000000
00000000
00000000
00000000
00010000
00000000
00000000
00000000
00001000
00000000
00000000
00000000
00010000
00000000
00000000
00000000
00100000
00000000
00000000
00000000
00100000
00000000
00000000
00000000
00100000
00000000
00000000
00000000
,
10000000
00000000
00010000
01000000
00100000
00000000
10000000
00000000
01000000
00000000
00010000
00001000
01000000
00001000
00010000
00000000
,
00000100
00010000
00001000
00000100
00000010
00001000
00000001
00000100
00000010
00000001
00000010
00000000
00001000
00000000
00000100
00000010
,
00001000
00010000
00000010
00000100
00001000
00010000
00001000
01000000
00100000
00000000
00010000
00100000
10000000
00000000
00010000
01000000
,
10000000
00000000
01000000
00100000
10000000
01000000
00010000
00001000
01000000
00100000
00010000
00001000
00010000
00000010
00001000
00000001
,
00000100
00001000
00010000
01000000
10000000
00100000
00000000
00000000
00000000
00000000
00000000
00000000
00000000
00000000
00000000
00000000
,
00000000
00000000
00000000
00000000
,
00000000
00000000
00000000
00000000
,
00000000
00000000
00000000
00000000
,
00000000
00000000
00000000
00000000
,
00000000
00000000
00000000
00000100
00000001
00000000
00000000
00000000
00000011
00000000
00000001
00000000
00001001
00000000
00001000
00000100
,
00000000
00000000
00000000
00000000
00000000
00000000
00000001
00000000
00000000
00000100
00000000
00000000
00001000
00000000
00000000
00000010
00000000
00000000
00000000
00000000
00000000
00000000
00000000
00000000
00010000
00000000
00000000
00000000
00001000
00000000
00000000
00000000
00010000
00000000
00000000
00000000
00100000
00000000
00000000
00000000
00100000
00000000
00000000
00000000
00100000
00000000
00000000
00000000
,
10000000
00000000
00010000
01000000
00100000
00000000
10000000
00000000
01000000
00000000
00010000
00001000
01000000
00001000
00010000
00000000
,
00000100
00010000
00001000
00000100
00000010
00001000
00000001
00000100
00000010
00000001
00000010
00000000
00001000
00000000
00000100
00000010
,
00001000
00010000
00000010
00000100
00001000
00010000
00001000
01000000
00100000
00000000
00010000
00100000
10000000
00000000
00010000
01000000
,
10000000
00000000
01000000
00100000
10000000
01000000
00010000
00001000
01000000
00100000
00010000
00001000
00010000
00000010
00001000
00000001
,
00000100
00000000
00000000
00001000
00000000
00000000
00010000
00000000
00000000
01000000
00000000
00000000
10000000
00000000
00000000
00100000
00000000
00000000
00000000
00000000
00000000
00000000
00000000
00000000
20020000
00000000
00000000
00000000
00000000
00000000
00000000
00000000
00030000
00000000
00000000
00000000
00010000
00000000
00000000
00000000
00010000
00000000
00000000
00000000
30010000
00000000
00000000
00000000
,
10000000
00000000
01000000
00000000
01010000
00000000
00000000
00000000
00001000
00010000
00000010
00001000
00000002
00000000
00000003
00000000
,
00000100
00000000
00000000
00000000
00000000
00000000
00000010
00000000
00000000
00001000
00000000
00000000
00000010
00000000
00000000
00000000
00000000
00000000
00000000
00000000
00000000
00000000
00000000
00000000
00000100
00000000
00000000
00000000
00000100
00000000
00000000
00000000
00000100
00000000
00000000
00000000
00000001
00000000
00000000
00000000
00000001
00000000
00000000
00000000
00000001
00000000
00000000
00000000
,
00001000
00000000
00000000
00000000
00001000
00000000
00000000
00000000
00001000
00000000
00000000
00000000
00000100
00000000
00000000
00010000
00000000
00000000
00001000
00000000
00000000
00100000
00000000
00000000
00010000
00000000
00000000
00000000
00000000
00000000
01000000
00000000
00000000
00001000
00000000
00000000
00010000
00000000
00000000
00100000
00000000
00000000
01000000
00000000
00010000
00000000
01000000
00000000
,
00200000
00000000
20300000
00000000
30020000
00000000
01030000
00000000
00100000
00000000
00010000
00001000
00100000
00001000
00010000
00000000
,
00000010
00010000
00001000
00000010
00000100
00001000
00000001
00000010
00000100
00000001
00000100
00000000
00001000
00000000
00000010
00000100
,
00001000
00010000
00000100
00000010
00001000
00010000
00001000
00100000
01000000
02000000
03010000
00000000
01000000
02000000
13000000
00000000
,
01000000
02000000
03010000
00000000
01000000
02000000
13000000
00000000
01000000
01000000
00100000
00000000
20000000
00000000
00000000
00000000
,
30020000
00000000
00000000
00000000
00130000
00000000
00000000
00000000
10010000
00000000
00000000
00000000
00010000
00000000
10000000
01000000
,
10000000
00000000
01000000
10000000
01000000
00000000
00010000
01000000
00010000
00000000
01000000
00010000
01000000
00000000
00001000
00010000
,
00001000
00000000
00010000
00001000
00010000
00000000
00001000
00000010
00001000
00000000
00000010
00001000
00000010
00000000
00000001
00000010
,
00000001
00000000
00000100
00000001
00000100
00000000
00001000
00000100
00001000
00000000
00010000
00001000
00010000
00000000
00100000
00010000
,
00100000
00000000
10000000
00100000
10000000
00100000
01000000
00010000
00100000
00001000
00010000
00000100
00001000
00000010
00000100
00000001
,
00001000
00000001
00000100
00000010
00001000
00000001
00000100
00000010
00001000
00000100
00010000
00001000
00100000
00010000
01000000
00100000
,
10000000
00010000
01000000
00100000
00010000
00001000
00100000
00010000
00100000
00001000
00010000
00001000
00000010
00000100
00000010
00000001
,
00000100
00000010
00001000
00000100
00010000
00001000
00000100
00001000
00010000
01000000
00010000
00001000
00000010
00001000
00010000
00001000
,
00000000
00000000
00000000
00000000
,
00000000
00000000
00000000
00000000
,
00000000
00000000
00000000
00000000
,
00000000
00000000
00000000
00000000
00000000
00000000
00021000
00000000
00000000
00030010
00000010
00000010
,
00000010
00000010
00000010
00001001
00000001
00001000
00001100
00000100
00010000
00011000
00001000
00010000
,
00100000
00000000
00000000
00000000
00000000
00000000
10000000
00000000
00000000
01000000
00000000
00000000
00100000
00000000
00000000
00000000
00000000
00000000
00000000
00000000
00000000
00000000
00000000
00000000
02200000
00000000
00000000
00000000
00000000
00000000
03000000
00000000
00000000
00000000
00000000
00000000
10000000
00000000
00000000
00000000
10000000
00000000
00000000
00000000
10300000
00000000
00000000
00000000
,
00200000
00320000
02030000
00001000
00001000
03001000
00020000
00030200
00000320
00001030
00001000
00001000
,
00010000
00000000
00000000
00000010
00000000
00000000
00000100
00000000
00001000
00000000
00010000
00000000
00022000
00000000
00000000
00000000
00030000
00000000
00010000
00000000
00010000
00000000
00013000
00000000
,
00000010
00010000
00000010
00010000
00000010
00010000
00000010
00000000
00001000
00000000
00000100
00000000
00001100
00000000
00001000
00000000
00000001
00000000
00000101
00000000
00000100
00000000
00001000
00000000
,
00010000
00000000
00000000
00000000
00000000
00000000
00100000
00000000
00000000
01000000
00000000
00000000
00100000
00000000
00000000
00000000
00000000
00000000
00000000
00000000
00000000
00000000
00000000
00000000
20020000
00000000
00000000
00000000
00000000
00000000
00000000
00000000
30030000
00000000
00000000
00000000
01000000
00000000
00000000
00000000
01000000
00000000
00000000
00000000
01000000
00000000
00000000
00000000
,
00100000
00000000
00000000
01000000
00000000
00000000
10010000
00000000
00000000
00000000
00000000
00000000
10000000
00000000
01000000
00000000
10000000
00000000
00010000
00000000
00010000
00000000
00010000
00000000
,
00100000
00000000
00000000
00001000
00000000
00000000
00021000
00000000
00000000
00000000
00000000
00000000
00030100
00000000
00000100
00000000
00000100
00000000
00000100
00000000
00000100
00000000
00000100
00000000
,
00001001
00000001
00001000
00001010
00000010
00010000
00011000
00001000
00010000
01010000
01000000
00100000
,
00010000
00000000
00000000
00000000
00000000
00000000
10000000
00000000
00000000
00100000
00000000
00000000
01000000
00000000
00000000
00000000
00000000
00000000
00000000
00000000
00000000
00000000
00000000
00000000
10010000
00000000
00000000
00000000
00010000
00000000
00000000
00000000
00100000
00000000
00000000
00000000
00101000
00000000
00000000
00000000
00001000
00000000
00000000
00000000
00010000
00000000
00000000
00000000
,
00010100
00000000
00000000
00000000
00000100
00000000
00000000
00000000
00001000
00000000
00000000
00000000
00000001
00000000
00000000
00000100
00000000
00000000
00000010
00000000
00000000
00001000
00000000
00000000
00000002
00000000
00000000
00000000
00000203
00000000
00000000
00000000
00002300
00000000
00000000
00000000
00013000
00000000
00000000
00100000
00000000
00000000
01000000
00000000
00000000
00100000
00000000
00000000
,
10000000
00000000
00000000
01000000
00000000
00000000
00100000
00000000
00001000
00000000
00010000
00000000
00012000
00000000
00000000
00000000
00000000
00000000
00103000
00000000
00100000
00000000
00100000
00000000
,
00100000
00100000
00100000
10010000
10000000
00010000
01010000
01000000
00001000
00011000
00010000
00001000
,
00000010
00000000
00000000
00000000
00000000
00000000
00000001
00000000
00000000
00000100
00000000
00000000
00000010
00000000
00000000
00000000
00000000
00000000
00000000
00000000
00000000
00000000
00000000
00000000
00000220
00000000
00000000
00000000
00000000
00000000
00000300
00000000
00000000
00000000
00000000
00000000
00000001
00000000
00000000
00000000
00000001
00000000
00000000
00000000
00000031
00000000
00000000
00000000
,
00000020
00002030
00003200
00010000
00010000
00010300
00002000
02003000
03200000
00310000
00010000
00010000
,
00001000
00000000
00000000
00000000
00000000
00000000
00100000
00000000
00000000
00000000
00000000
00000000
01000000
00000000
00000000
00000000
00010000
00000000
00000000
00000000
00001000
00000000
00000000
00000000
00000100
00000000
00000000
00000000
00000000
00000000
00001000
00000000
00000000
00010000
00000000
00000000
00000100
00000000
00000000
00010000
00000000
00000000
00001000
00000000
00000000
00000000
00000000
00000000
,
01000000
00001000
00010000
01000000
00100000
00010000
10000000
01000000
00100000
10000000
00100000
00000000
00010000
00000000
01000000
00100000
,
00010000
00001000
00100000
01000000
00010000
00001000
00010000
00000100
00000010
00000000
00001000
00000010
00000001
00000000
00001000
00000100
,
00000001
00000000
00000100
00000010
00000001
00000100
00001000
00010000
00000100
00000010
00001000
00010000
00001000
00100000
00010000
10000000
,
01000000
00000000
00000000
00010000
00000000
00000000
00001000
00000000
00000000
00000100
00000000
00000000
00000001
00000000
00000000
00000010
00000000
00000000
00000001
00000000
00000000
00001000
00000000
00000000
00000010
00000000
00001000
00000000
00000010
00000000
00001000
00000000
00000010
00000000
00001000
00000000
00000001
00000000
00000000
00000100
00000000
00000000
00000010
00000000
00000000
00001000
00000000
00000000
,
00000100
00000000
00010000
00000000
00000100
00000000
00010000
00000000
00000100
00000000
00010000
00000000
00001000
00000000
00000000
00100000
00000000
00000000
00010000
00000000
00000000
10000000
00000000
00000000
00100000
00000000
10000000
00000000
00100000
00000000
10000000
00000000
00100000
00000000
10000000
00000000
00010000
00000000
00000000
01000000
00000000
00000000
00100000
00000000
00000000
00010000
00000000
00000000
,
00001000
00010000
00001000
00010000
00000100
00001000
00000100
00010000
00001000
00010000
00000010
00001000
00000010
00000000
00000000
00000000
00000110
00000000
00000000
00000000
00000011
00000000
00000000
00000000
,
00000110
00000000
00001100
00000000
00011000
00000000
01010000
00000000
11000000
00000000
10010000
00000000
,
01010000
01100000
10100000
20020000
00000000
00000000
00000000
00000000
,
00000000
00000000
00000000
00000000
,
00000000
00000000
00000000
30030000
00000000
00000000
00000000
00000000
;
