#TITLE:Endless Summer;
#ARTIST:P*Light;
#BANNER:Endless Summer.png;
#BACKGROUND:Endless Summer-bg.png;
#MUSIC:Endless Summer.ogg;
#OFFSET:-0.606;
#SAMPLESTART:56.837;
#SAMPLELENGTH:15;
#BPMS:0=175;

//---------------dance-single - NewbStepper-ESP----------------
#NOTES:
     dance-single:
     NewbStepper:
     Hard:
     14:
     0.616269,0.875312,0.302577,0.190191,0.276642,499,464,35,22,0,0,0.616269,0.875312,0.302577,0.190191,0.276642,499,464,35,22,0,0:
// measure 0
0000
0000
0000
0000
,  // measure 1
0000
0000
0000
0000
,  // measure 2
0000
0000
0000
0000
,  // measure 3
0000
0000
0000
0000
,  // measure 4
0000
0000
0000
0000
,  // measure 5
0020
0000
0000
1000
0000
0000
0001
0000
,  // measure 6
2030
0000
0000
0100
0000
0000
0010
0000
,  // measure 7
3002
0000
0000
0100
0000
0000
0010
0000
,  // measure 8
2000
0000
0000
3003
,  // measure 9
1001
0000
0010
0001
0010
0000
0100
1000
,  // measure 10
0000
0020
0000
0000
0030
0000
1000
0000
,  // measure 11
0100
0010
0001
0200
,  // measure 12
0000
0000
0300
0000
,  // measure 13
0001
1000
0001
0100
1000
0100
0001
0010
,  // measure 14
0000
0000
0100
1000
0000
0010
0100
0010
,  // measure 15
2000
0000
0000
0000
,  // measure 16
0002
0000
0000
3003
,  // measure 17
1001
0000
0010
1000
0010
0000
0100
0100
,  // measure 18
0001
0020
0000
0000
0030
0000
0001
0000
,  // measure 19
0100
0010
1000
0200
,  // measure 20
0000
0300
0000
0000
,  // measure 21
0000
1000
0000
0010
0100
1000
0100
0001
,  // measure 22
0000
0010
0001
0100
0000
0010
1000
0100
,  // measure 23
0020
0000
0000
0030
,  // measure 24
0200
0000
0000
0300
,  // measure 25
0011
0011
0101
0101
,  // measure 26
1100
1100
1010
1010
,  // measure 27
0110
1001
0101
1100
,  // measure 28
0110
1010
0101
0110
,  // measure 29
1000
0000
0001
0010
1000
0000
0110
0000
,  // measure 30
0001
0000
1000
0010
0001
0000
0110
0000
,  // measure 31
0001
0000
1000
0001
1000
0001
0010
0100
,  // measure 32
0010
0000
1000
0010
0001
0000
0100
0000
,  // measure 33
0101
0000
0010
1000
0100
0000
0001
0100
,  // measure 34
1000
0100
0001
0100
0020
0000
0001
0001
,  // measure 35
0031
0000
1000
0010
0001
0000
0110
0000
,  // measure 36
1000
0000
0001
0010
1000
0000
0110
0000
,  // measure 37
1000
0001
0010
0100
1000
0010
0100
0001
,  // measure 38
0100
0010
0100
1000
0100
0001
0010
0100
,  // measure 39
1000
0001
1000
0001
1000
0001
1000
0001
1000
0001
1000
0001
1000
0001
1000
0001
,  // measure 40
0020
0000
0000
0000
0130
0000
0000
0000
1000
0001
1000
0001
1000
0000
0000
0000
,  // measure 41
0001
0000
0000
0010
0000
0000
1000
0000
0000
0010
0000
0000
0001
0000
0100
0000
,  // measure 42
0010
0000
0000
1000
0000
0000
0100
0000
0000
0010
0000
0000
0001
0000
0100
0000
,  // measure 43
1000
0000
0000
0001
0000
0000
0010
0000
0000
0001
0000
0000
1000
0000
0100
0000
,  // measure 44
0001
0000
0000
1000
0000
0000
0100
0000
0000
0010
0000
0000
1001
0000
0000
0000
,  // measure 45
1000
0000
0000
0010
0000
0000
0001
0000
0000
0010
0000
0000
1000
0000
0100
0000
,  // measure 46
0010
0000
0000
0001
0000
0000
0100
0000
0000
0010
0000
0000
1000
0000
0100
0000
,  // measure 47
0001
0000
0000
1000
0000
0000
0010
0000
0000
1000
0000
0000
0001
0000
0100
0000
,  // measure 48
1000
0000
0000
0001
0000
0000
0100
0000
0000
0010
0000
0000
1001
0000
0000
0000
,  // measure 49
0010
0000
0100
0010
0000
1000
0010
0000
0100
0010
0000
0000
1000
0000
0001
0000
,  // measure 50
0010
0000
0100
0010
0000
0001
0010
0000
0100
0010
0000
0000
0001
0000
1000
0000
,  // measure 51
0100
0000
0010
0100
0000
1000
0100
0000
0010
0100
0000
0000
1000
0000
0001
0000
,  // measure 52
0100
0000
0010
0100
0000
0001
0100
0000
0010
0100
0000
0000
0001
0000
1000
0000
,  // measure 53
0001
0001
0100
0100
0010
0010
1000
1000
,  // measure 54
0001
0001
0010
0010
0100
0100
1000
1000
,  // measure 55
0001
0100
1000
0100
0001
0010
1000
0010
,  // measure 56
0001
1000
0001
1000
0001
1000
0001
1000
0001
1000
0001
1000
0010
0000
0000
0000
,  // measure 57
1000
0100
0001
0100
0010
0001
1000
0010
,  // measure 58
0001
1000
0100
0001
0010
0100
1000
0000
,  // measure 59
0001
0100
1000
0100
0001
0010
1000
0001
,  // measure 60
1000
0010
0100
1000
0010
0100
0001
0000
,  // measure 61
1020
0000
0001
0000
0100
0100
0130
0000
,  // measure 62
0201
0000
1000
0000
0010
0010
0310
0000
,  // measure 63
1000
0001
0100
0010
0001
1000
0100
0001
,  // measure 64
0010
1000
0001
0100
0010
0001
1001
0000
,  // measure 65
0001
0100
1000
0100
0010
1000
0001
0010
,  // measure 66
1000
0001
0100
1000
0010
0100
0001
0000
,  // measure 67
0021
0000
1000
0000
0100
0100
0130
0000
,  // measure 68
1200
0000
0001
0000
0010
0010
0310
0000
,  // measure 69
0001
0001
1000
1000
0010
0010
0100
0100
,  // measure 70
0001
0001
0010
0010
0100
0100
1000
1000
,  // measure 71
0010
0100
0010
0100
0010
0100
0010
0100
0010
0100
0010
0100
0010
0100
0010
0100
,  // measure 72
0002
0000
0000
0000
1003
0000
0000
0000
0001
1000
0001
1000
0100
0000
0000
0000
,  // measure 73
0011
1000
0100
0000
1010
0001
0100
0000
,  // measure 74
0020
0000
1000
0000
0100
0100
0130
0000
,  // measure 75
1010
0001
0100
0000
0011
1000
0100
0000
,  // measure 76
0020
0000
0001
0000
0100
0100
0130
0000
,  // measure 77
1000
1000
0001
0001
0010
0010
0100
0100
,  // measure 78
1000
1000
0010
0010
0100
0100
0001
0001
,  // measure 79
0010
0100
0010
0100
0010
0100
0010
0100
0010
0100
0010
0100
0010
0100
0010
0100
,  // measure 80
2000
0000
0000
0000
3001
0000
0000
0000
1000
0001
1000
0001
0100
0000
0000
0000
,  // measure 81
1001
0000
0000
0000
;

//---------------dance-single - NewbStepper-DSP----------------
#NOTES:
     dance-single:
     NewbStepper:
     Medium:
     9:
     0.401378,0.525187,0.233417,0.164256,0,325,298,27,19,0,0,0.401378,0.525187,0.233417,0.164256,0,325,298,27,19,0,0:
0000
0000
0000
0000
,
0000
0000
0000
0000
,
0000
0000
0000
0000
,
0000
0000
0000
0000
,
0000
0000
0000
0000
,
0002
0000
0000
0000
,
2003
0000
0000
0000
,
3020
0000
0000
0000
,
0200
0000
0000
0330
,
1002
0100
0000
0100
,
2003
0100
0000
3100
,
0010
0001
0100
0020
,
0000
0000
0030
0000
,
1000
0000
0001
0001
0000
0100
0100
0000
,
0010
0000
1000
1000
0000
0001
0001
0000
,
0020
0000
0000
0000
,
0200
0000
0000
0330
,
1000
0001
0010
0000
,
0001
1000
0010
0000
,
1000
0100
0001
0010
,
2000
0000
0000
3000
,
0000
0001
0000
0100
0010
0100
0000
0001
,
1000
0000
0100
0010
0000
0100
0010
0200
,
0000
0000
0000
0000
,
0020
0000
0000
0330
,
1001
0010
0010
0010
,
1001
0100
0100
0100
,
0101
0001
0011
0010
,
0110
0100
1100
1000
,
1001
0010
0001
0201
,
0000
0310
1000
1200
,
0000
0000
0310
0000
0000
0001
0100
0001
,
1000
0000
1100
0000
0010
0000
0001
0100
,
0001
0010
1000
0100
,
0001
0010
1000
0100
,
1001
0000
0010
0000
0001
0100
0010
0000
,
1001
0000
0010
0000
1000
0100
0010
0000
,
0001
1000
0001
0000
0100
0010
0100
0000
,
1000
0001
1000
0000
0100
0010
0100
0000
,
2002
0000
0000
3003
,
0000
0000
0000
0000
,
0010
0000
0001
0000
0100
0010
0100
0000
,
0010
0000
1000
0000
0100
0010
0100
0000
,
1000
1010
0100
0001
,
0010
0011
0100
1000
,
0010
0000
1000
0000
0100
0010
0100
0000
,
0010
0000
0001
0000
0100
0010
0100
0000
,
0001
0011
0100
1000
,
0010
1010
0100
0001
,
1000
1000
1000
1000
,
0001
0001
0001
0001
,
0100
0100
0100
0100
,
0010
0010
0010
0010
,
1000
0010
1000
0010
1000
0000
0100
0000
,
0010
0001
0010
0001
0010
0000
0100
0000
,
1000
0001
1000
0001
1000
0001
1000
0001
,
0200
0000
0000
0300
,
0010
0000
1000
0000
0100
0001
0100
0000
,
0010
0000
0001
0000
0100
1000
0100
0000
,
0010
0000
1000
0000
0100
0001
0100
0000
,
0010
0000
0001
0000
0100
1000
0100
0000
,
1001
0010
1000
1200
,
0000
0310
0001
0201
,
0000
0000
0310
0000
0000
1000
0100
1000
,
0001
0000
0101
0000
0010
0000
1000
0100
,
1000
0010
0001
0100
,
1000
0010
0001
0100
,
1001
0000
0010
0000
1000
0100
0010
0000
,
1001
0000
0010
0000
0001
0100
0010
0000
,
1000
0001
1000
0000
0100
0010
0100
0000
,
0001
1000
0001
0000
0100
0010
0100
0000
,
1000
0001
1000
0001
1000
0001
1000
0001
,
0100
0000
0000
0000
,
0011
0100
0100
0100
,
1000
0010
0010
0010
,
1100
0001
0001
0001
,
1000
1000
1000
1000
,
0001
0010
0001
0010
0001
0000
0100
0000
,
0010
1000
0010
1000
0010
0000
0100
0000
,
0001
1000
0001
1000
0001
1000
0001
1000
,
0100
0000
0000
0000
,
1001
0000
0000
0000
;

//---------------dance-single - NewbStepper-BSP----------------
#NOTES:
     dance-single:
     NewbStepper:
     Easy:
     6:
     0.242062,0.350125,0.086451,0.146966,0,196,186,10,17,0,0,0.242062,0.350125,0.086451,0.146966,0,196,186,10,17,0,0:
0000
0000
0000
0000
,
0000
0000
0000
0000
,
0000
0000
0000
0000
,
0000
0000
0000
0000
,
0000
0000
0000
0000
,
2000
0000
0000
0000
,
0000
0000
0000
0000
,
0000
0000
0000
0000
,
3000
0000
0000
0000
,
2002
0000
0000
0000
,
0000
0000
3000
0000
,
0200
0000
0000
0000
,
0000
0000
0303
0000
,
2002
0000
0000
0000
,
0000
0000
0003
0000
,
0200
0000
0000
0000
,
0000
3300
0000
0000
,
0020
0000
0000
0000
,
0032
0000
0000
0000
,
0203
0000
0000
0000
,
0000
0000
0300
0000
,
0020
0000
0000
0000
,
2030
0000
0000
0000
,
3200
0000
0000
0000
,
0000
0000
0300
0000
,
0010
0001
0100
0000
,
0010
1000
0100
0000
,
0010
0001
0010
0000
,
0100
1000
0100
0000
,
0010
0000
1001
0000
,
0010
0000
1001
0000
,
0100
1000
0010
0001
,
0010
1000
0100
0000
,
1001
0001
1000
0000
,
0010
1000
0100
0010
,
1001
1000
0001
0000
,
0010
0001
0100
0000
,
0010
1000
0100
0001
,
0100
1000
0010
0100
,
0002
0000
0000
0003
,
0000
0000
0000
0000
,
1000
0100
1000
1000
,
0001
0100
0001
0001
,
1000
0010
0100
0010
,
0001
0010
0100
0000
,
0001
0100
0001
0001
,
1000
0100
1000
1000
,
0001
0010
0100
0010
,
1000
0010
0100
0000
,
1000
0001
0010
0010
,
1000
0001
0100
0100
,
1000
0100
0010
0001
,
0100
0100
0010
1000
,
0001
1000
0010
0010
,
0001
1000
0100
0100
,
0001
0100
0010
1000
,
0200
0000
0000
0300
,
0010
0001
0100
0000
,
0010
1000
0100
0000
,
0010
0001
0010
0000
,
0100
1000
0100
0000
,
0010
0000
1001
0000
,
0010
0000
1001
0000
,
0100
1000
0010
0001
,
0010
1000
0100
0000
,
1001
0001
1000
0000
,
0010
1000
0100
0010
,
1001
1000
0001
0000
,
0010
0001
0100
0000
,
0010
1000
0100
0001
,
0100
1000
0010
0100
,
0002
0000
0000
0003
,
0000
0000
0000
0000
,
1000
0001
1000
1000
,
0001
1000
0001
0001
,
0100
0010
0100
0100
,
0010
0010
1000
0001
,
0010
0001
0100
1000
,
0100
0001
0010
0100
,
2000
0000
0000
3000
,
0000
0000
0000
0000
,
0001
0000
0000
0000
;

//---------------dance-single - NewbStepper-bSP----------------
#NOTES:
     dance-single:
     NewbStepper:
     Beginner:
     2:
     0.108681,0.245087,0.025935,0.086451,0,88,85,3,10,0,0,0.108681,0.245087,0.025935,0.086451,0,88,85,3,10,0,0:
0000
0000
0000
0000
,
0000
0000
0000
0000
,
0000
0000
0000
0000
,
0000
0000
0000
0000
,
0000
0000
0000
0000
,
0001
0000
0000
0000
,
0000
0000
0000
0000
,
1000
0000
0000
0000
,
0100
0000
0000
0000
,
0010
0000
0000
0000
,
0000
0000
0000
0000
,
1000
0000
0000
0000
,
0000
0000
0000
0000
,
0001
0000
0000
0000
,
0000
0000
0000
0000
,
0100
0000
0000
0000
,
0000
0000
0000
0000
,
0010
0000
0000
0000
,
0000
0000
0000
0000
,
0001
0000
0000
0000
,
0000
0000
0000
0000
,
1000
0000
0000
0000
,
0000
0000
0000
0000
,
0100
0000
0000
0000
,
0000
0000
0000
0000
,
1000
0000
0000
0000
,
1000
0000
0000
0000
,
0001
0000
0000
0000
,
0001
0000
0000
0000
,
0100
0000
0100
0000
,
0010
0000
0010
0000
,
1000
0000
0000
0000
,
0001
0000
0000
0000
,
1000
0000
1000
0000
,
0001
0000
0001
0000
,
0100
0000
0100
0000
,
0010
0000
0010
0000
,
2000
0000
3000
0000
,
0002
0000
0003
0000
,
0200
0000
0000
0300
,
0000
0000
0000
0000
,
0001
0000
0000
0000
,
1000
0000
0000
0000
,
0010
0000
0000
0000
,
0100
0000
0000
0000
,
1000
0000
0000
0000
,
0001
0000
0000
0000
,
0010
0000
0000
0000
,
0100
0000
0000
0000
,
0001
0000
0001
0000
,
0001
0000
0000
0000
,
1000
0000
1000
0000
,
1000
0000
0000
0000
,
0010
0000
0010
0000
,
0010
0000
0000
0000
,
0200
0000
0000
0000
,
0000
0000
0300
0000
,
0001
0000
0001
0000
,
1000
0000
1000
0000
,
0010
0000
0010
0000
,
0100
0000
0100
0000
,
0001
0000
0000
0000
,
0001
0000
0000
0000
,
1000
0000
0000
0000
,
1000
0000
0000
0000
,
1000
0000
1000
0000
,
0010
0000
0010
0000
,
0100
0000
0100
0000
,
0001
0000
0001
0000
,
2000
0000
3000
0000
,
0002
0000
0003
0000
,
0200
0000
0000
0300
,
0000
0000
0000
0000
,
1001
0000
0010
0000
,
0010
0000
0010
0000
,
1001
0000
0100
0000
,
0100
0000
0100
0000
,
0002
0000
0003
0000
,
2000
0000
3000
0000
,
0200
0000
0000
0300
,
0000
0000
0000
0000
,
1001
0000
0000
0000
;

//---------------dance-double - NewbStepper-EDP----------------
#NOTES:
     dance-double:
     NewbStepper:
     Hard:
     14:
     0.615034,0.875312,0.259352,0.172901,0.276642,498,468,30,20,0,0,0.615034,0.875312,0.259352,0.172901,0.276642,498,468,30,20,0,0:
00000000
00000000
00000000
00000000
,
00000000
00000000
00000000
00000000
,
00000000
00000000
00000000
00000000
,
00000000
00000000
00000000
00000000
,
00000000
00000000
00000000
00000000
,
00000020
00000000
00000000
00001000
00000000
00000000
00000001
00000000
,
00002030
00000000
00000000
00000100
00000000
00000000
00000010
00000000
,
00023000
00000000
00000000
00100000
00000000
00000000
10000000
00000000
,
02000000
00000000
00000000
03030000
,
10010000
00000000
00100000
10000000
00100000
00000000
01000000
00010000
,
00000000
00200000
00000000
00000000
00300000
00000000
00001000
00000000
,
00010000
00000100
00000010
00002000
,
00000000
00000000
00003000
00000000
,
00010000
00001000
00010000
00000100
00000001
00000100
00001000
00000010
,
00000000
00000000
00000100
00001000
00000000
00010000
01000000
10000000
,
00020000
00000000
00000000
00000000
,
00032000
00000000
00000000
00003000
,
00001001
00000000
00000010
00000001
00000010
00000000
00000100
00001000
,
00001000
00000020
00000000
00000000
00000030
00000000
00010000
00000000
,
00001000
01000000
00100000
00020000
,
00000000
00000000
00030000
00000000
,
00000000
00001000
00000000
00000010
00000100
00001000
00000100
00000001
,
00000000
00000100
00000010
00001000
00000000
00010000
00100000
01000000
,
00200000
00000000
00000000
00000000
,
20300000
00000000
00000000
30000000
,
10100000
10100000
11000000
11000000
,
01010000
01010000
00011000
00001010
,
00000011
00000011
00000101
00000101
,
00001100
00001100
00011000
00110000
,
00100000
00000000
10000000
01000000
00010000
00000000
00011000
00000000
,
00000010
00000000
00000001
00000100
00001000
00000000
00010000
00000000
,
00000100
00000000
00001000
00000100
00010000
01000000
00010000
00001000
,
00010000
00000000
00001000
00100000
01000000
00000000
00010000
00000000
,
00011000
00000000
00000010
00000001
00000100
00000000
00001000
00010000
,
01000000
00010000
00001000
00010000
00200000
00000000
10000000
10000000
,
10300000
00000000
10000000
00100000
00010000
00000000
00011000
00000000
,
00000100
00000000
00000001
00000010
00001000
00000000
00011000
00000000
,
00100000
00001000
00010000
01000000
00100000
01000000
00010000
00001000
,
00000100
00000010
00000100
00000001
00001000
00000100
00000010
00001000
,
00010000
00001000
00010000
00001000
00010000
00001000
00010000
00001000
00010000
00001000
00010000
00001000
00010000
00001000
00010000
00001000
,
00200000
00000000
00000000
00000000
01300000
00000000
00000000
00000000
10000000
00010000
10000000
00010000
10000000
00000000
00000000
00000000
,
00100000
00000000
00000000
10000000
00000000
00000000
01000000
00000000
00000000
00010000
00000000
00000000
00001000
00000000
00000010
00000000
,
00000001
00000000
00000000
00000100
00000000
00000000
00000010
00000000
00000000
00001000
00000000
00000000
00000001
00000000
00000100
00000000
,
00001000
00000000
00000000
00010000
00000000
00000000
00000010
00000000
00000000
00010000
00000000
00000000
00001000
00000000
00100000
00000000
,
00010000
00000000
00000000
10000000
00000000
00000000
01000000
00000000
00000000
00010000
00000000
00000000
00011000
00000000
00000000
00000000
,
00000010
00000000
00000000
00000001
00000000
00000000
00000100
00000000
00000000
00001000
00000000
00000000
00010000
00000000
00100000
00000000
,
10000000
00000000
00000000
01000000
00000000
00000000
00100000
00000000
00000000
00010000
00000000
00000000
10000000
00000000
01000000
00000000
,
00010000
00000000
00000000
00001000
00000000
00000000
00100000
00000000
00000000
00001000
00000000
00000000
00010000
00000000
00000010
00000000
,
00001000
00000000
00000000
00000001
00000000
00000000
00000100
00000000
00000000
00001000
00000000
00000000
00011000
00000000
00000000
00000000
,
00100000
00000000
01000000
00100000
00000000
10000000
00100000
00000000
01000000
00100000
00000000
00000000
10000000
00000000
01000000
00000000
,
00010000
00000000
00001000
00100000
00000000
00001000
00010000
00000000
00000010
00010000
00000000
00000000
00010000
00000000
00001000
00000000
,
00000010
00000000
00000100
00000010
00000000
00000001
00000010
00000000
00000100
00000010
00000000
00000000
00000001
00000000
00000100
00000000
,
00001000
00000000
00010000
00000010
00000000
00010000
00001000
00000000
00100000
00001000
00000000
00000000
00010000
00000000
01000000
00000000
,
10000000
10000000
01000000
01000000
00100000
00100000
00010000
00010000
,
01000000
01000000
00001000
00001000
00010000
00010000
00000010
00000010
,
00001000
00000100
00000001
00000100
00001000
00000010
00010000
00001000
,
00100000
00010000
00100000
00010000
00100000
00010000
00100000
00010000
00100000
00010000
00100000
00010000
10000000
00000000
00000000
00000000
,
00010000
01000000
10000000
01000000
00100000
10000000
01000000
00010000
,
00001000
00000100
00000001
00001000
00000010
00000100
00000001
00000000
,
00001000
00000100
00000001
00000100
00000010
00000001
00000100
00001000
,
00010000
01000000
10000000
00100000
01000000
00010000
10000000
00000000
,
00120000
00000000
10000000
00000000
01000000
01000000
01030000
00000000
,
00002010
00000000
00000001
00000000
00000100
00000100
00003100
00000000
,
00010000
00000010
00001000
00000100
00000001
00001000
00000010
00000001
,
00000100
00001000
00010000
01000000
10000000
00100000
01100000
00000000
,
00010000
00001000
00000010
00001000
00100000
00010000
10000000
00100000
,
00010000
00000010
00010000
00001000
00000010
00000001
00000100
00000000
,
00002010
00000000
00000001
00000000
00000100
00000100
00003100
00000000
,
00120000
00000000
10000000
00000000
01000000
01000000
01030000
00000000
,
10000000
10000000
01000000
01000000
00100000
00100000
00010000
00010000
,
00001000
00001000
00000100
00000100
00000010
00000010
00000001
00000001
,
00001000
00000001
00001000
00000001
00001000
00000001
00001000
00000001
00001000
00000001
00001000
00000001
00001000
00000001
00001000
00000001
,
00000020
00000000
00000000
00000000
00000130
00000000
00000000
00000000
00001000
00000001
00001000
00000001
00000100
00000000
00000000
00000000
,
00000001
00000100
00001000
00000000
00010000
01000000
10000000
00000000
,
00100000
10000000
01000000
00100000
00010000
01000000
00100000
00000000
,
10000000
01000000
00010000
00000000
00001000
00000100
00000001
00000000
,
00000010
00000001
00000100
00000010
00001000
00000100
00000010
00000000
,
00000001
00000001
00000100
00000100
00000010
00000010
00001000
00001000
,
00010000
00010000
01000000
01000000
00100000
00100000
10000000
10000000
,
00010000
10000000
00010000
10000000
00010000
10000000
00010000
10000000
00010000
10000000
00010000
10000000
00010000
10000000
00010000
10000000
,
00200000
00000000
00000000
00000000
01300000
00000000
00000000
00000000
00010000
10000000
00010000
10000000
01000000
00000000
00000000
00000000
,
10010000
00000000
00000000
00000000
;

//---------------dance-double - NewbStepper-DDP----------------
#NOTES:
     dance-double:
     NewbStepper:
     Medium:
     9:
     0.392733,0.525187,0.164256,0.164256,0,318,299,19,19,0,0,0.392733,0.525187,0.164256,0.164256,0,318,299,19,19,0,0:
00000000
00000000
00000000
00000000
,
00000000
00000000
00000000
00000000
,
00000000
00000000
00000000
00000000
,
00000000
00000000
00000000
00000000
,
00000000
00000000
00000000
00000000
,
20000000
00000000
00000000
00000000
,
30020000
00000000
00000000
00000000
,
00230000
00000000
00000000
00000000
,
02000000
00000000
00000000
03300000
,
10020000
01000000
00000000
01000000
,
00032000
00000100
00000000
00003100
,
00000010
00000001
00000100
00000020
,
00000000
00000000
00000030
00000000
,
00001000
00000000
00000001
00000001
00000000
00000100
00000100
00000000
,
00000010
00000000
00010000
00010000
00000000
00001000
00001000
00000000
,
00200000
00000000
00000000
00000000
,
02000000
00000000
00000000
03300000
,
10000000
01000000
00010000
00000000
,
00001000
00000100
00000001
00000000
,
00000010
00001000
00010000
00001000
,
00000200
00000000
00000000
00000300
,
00000000
00000001
00000000
00001000
00000100
00001000
00000000
00000010
,
00010000
00000000
01000000
00100000
00000000
01000000
10000000
02000000
,
00000000
00000000
00000000
00000000
,
00200000
00000000
00000000
03300000
,
10010000
10000000
01000000
00010000
,
00011000
00001000
00000100
00000001
,
00000011
00000010
00000110
00000100
,
00001100
00001000
00001010
00000010
,
00001001
00000001
00000100
00002000
,
00000000
00013000
01000000
20000000
,
00000000
00000000
30100000
00000000
00000000
10000000
01000000
10000000
,
00010000
00000000
01010000
00000000
00100000
00000000
00001000
00010000
,
00001000
00000010
00000001
00000100
,
00001000
00010000
00100000
10000000
,
10010000
00000000
00100000
00000000
10000000
01000000
00100000
00000000
,
00011000
00000000
00000010
00000000
00000001
00000100
00000010
00000000
,
00010000
00001000
00010000
00000000
00000100
00001000
00000100
00000000
,
00010000
00001000
00100000
00000000
01000000
10000000
00010000
00000000
,
20020000
00000000
00000000
30030000
,
00000000
00000000
00000000
00000000
,
00100000
00000000
10000000
00000000
01000000
00100000
01000000
00000000
,
00010000
00000000
00001000
00000000
00000100
00000010
00000100
00000000
,
00001000
00010000
00001000
00000010
,
00000001
00000000
00001000
00000000
00000001
00000100
00000001
00000000
,
00000010
00000000
00000001
00000000
00000100
00000010
00000100
00000000
,
00001000
00000000
00010000
00000000
01000000
00100000
01000000
00000000
,
00010000
00001000
00010000
00100000
,
10000000
00000000
00010000
00000000
10000000
01000000
10000000
00000000
,
00100000
00100000
00100000
00100000
,
00010000
00010000
00010000
00010000
,
00001000
00001000
00001000
00001000
,
00000010
00000010
00000010
00000010
,
00000001
00000100
00000001
00000100
00000001
00000000
00000100
00000000
,
00000010
00001000
00000010
00001000
00000010
00000000
00000100
00000000
,
00001000
00010000
00001000
00010000
00001000
00010000
00001000
00010000
,
00200000
00000000
00000000
00300000
,
10010000
00000000
10000000
00000000
00100000
01000000
00100000
00000000
,
00010000
00000000
00001000
00000000
00000010
00000100
00000010
00000000
,
00001000
00010000
00001000
00000100
,
00000001
00000000
00001000
00000000
00000001
00000010
00000001
00000000
,
00001001
00000001
00000100
00002000
,
00000000
00013000
01000000
20000000
,
00000000
00000000
30100000
00000000
00000000
10000000
01000000
10000000
,
00010000
00000000
01010000
00000000
00100000
00000000
00001000
00010000
,
00001000
00000010
00000001
00000100
,
00001000
00010000
00100000
10000000
,
10010000
00000000
00100000
00000000
10000000
01000000
00100000
00000000
,
00011000
00000000
00000010
00000000
00000001
00000100
00000010
00000000
,
00010000
00001000
00010000
00000000
00000100
00001000
00000100
00000000
,
00010000
00001000
00100000
00000000
01000000
10000000
00010000
00000000
,
10000000
00010000
10000000
00010000
10000000
00010000
10000000
00010000
,
01000000
00000000
00000000
00000000
,
00110000
01000000
01000000
01000000
,
00010000
00001000
00001000
00001000
,
00000010
00000100
00000100
00000100
,
00010000
00100000
00100000
00100000
,
10000000
01000000
10000000
01000000
10000000
00000000
01000000
00000000
,
00100000
00010000
00100000
00010000
00100000
00000000
01000000
00000000
,
00010000
00001000
00010000
00001000
00010000
00001000
00010000
00001000
,
00000010
00000000
00000000
00000000
,
00001001
00000000
00000000
00000000
;

//---------------dance-double - NewbStepper-BDP----------------
#NOTES:
     dance-double:
     NewbStepper:
     Easy:
     6:
     0.240827,0.315112,0.077806,0.146966,0,195,186,9,17,0,0,0.240827,0.315112,0.077806,0.146966,0,195,186,9,17,0,0:
00000000
00000000
00000000
00000000
,
00000000
00000000
00000000
00000000
,
00000000
00000000
00000000
00000000
,
00000000
00000000
00000000
00000000
,
00000000
00000000
00000000
00000000
,
20000000
00000000
00000000
00000000
,
00000000
00000000
00000000
00000000
,
00000000
00000000
00000000
00000000
,
30000000
00000000
00000000
00000000
,
20020000
00000000
00000000
00000000
,
00000000
00000000
30000000
00000000
,
02000000
00000000
00000000
00000000
,
00000000
00000000
03030000
00000000
,
00022000
00000000
00000000
00000000
,
00000000
00000000
00030000
00000000
,
00000200
00000000
00000000
00000000
,
00000000
00003300
00000000
00000000
,
00000020
00000000
00000000
00000000
,
00000032
00000000
00000000
00000000
,
00000203
00000000
00000000
00000000
,
00000300
00000000
00000000
00000000
,
00002000
00000000
00000000
00000000
,
00023000
00000000
00000000
00000000
,
02030000
00000000
00000000
00000000
,
00000000
00000000
03000000
00000000
,
00100000
00010000
10000000
00000000
,
00100000
10000000
01000000
00000000
,
00010000
00001000
00010000
00000000
,
00000010
00001000
00000010
00000000
,
00000100
00000000
00001001
00000000
,
00000100
00000000
00001001
00000000
,
00000001
00000010
00001000
00010000
,
00100000
10000000
00010000
00000000
,
10010000
00010000
10000000
00000000
,
00100000
10000000
01000000
00010000
,
00001000
00000100
00000001
00000000
,
00000010
00000001
00000100
00000000
,
00000010
00001000
00000100
00010000
,
00001000
01000000
00100000
10000000
,
00020000
00000000
00000000
00030000
,
00000000
00000000
00000000
00000000
,
10000000
01000000
10000000
10000000
,
01000000
00010000
01000000
01000000
,
00010000
00001000
00000010
00000100
,
00000010
00000001
00000010
00000000
,
00000001
00000100
00000001
00000001
,
00000100
00001000
00000100
00000100
,
00001000
00010000
00100000
01000000
,
00100000
10000000
00100000
00000000
,
10000000
00010000
00100000
00100000
,
00001000
01000000
00010000
00010000
,
00001000
00000100
00000010
00000001
,
00000100
00000100
00000010
00001000
,
00000001
00001000
00000010
00000010
,
00010000
00000100
00001000
00001000
,
00010000
01000000
00100000
10000000
,
02000000
00000000
00000000
03000000
,
00100000
00010000
10000000
00000000
,
00100000
10000000
01000000
00000000
,
00010000
00001000
00010000
00000000
,
00000010
00001000
00000010
00000000
,
00000100
00000000
00001001
00000000
,
00000100
00000000
00001001
00000000
,
00000001
00000010
00001000
00010000
,
00100000
10000000
00010000
00000000
,
10010000
00010000
10000000
00000000
,
00100000
10000000
01000000
00010000
,
00001000
00000100
00000001
00000000
,
00000010
00000001
00000100
00000000
,
00000010
00001000
00000100
00010000
,
00001000
01000000
00100000
10000000
,
00020000
00000000
00000000
00030000
,
00000000
00000000
00000000
00000000
,
10000000
00010000
10000000
10000000
,
01000000
00100000
01000000
01000000
,
00010000
00001000
00010000
00010000
,
00001000
00001000
00000010
00000001
,
00001000
00000010
00000100
00001000
,
00010000
01000000
00010000
00001000
,
00200000
00000000
00000000
00300000
,
00000000
00000000
00000000
00000000
,
10010000
00000000
00000000
00000000
;
