#VERSION:0.83;
#TITLE:Endless Beats ⇔ Endless Parties;
#ARTIST:かめりあ;
#TITLETRANSLIT:Endless Beats Endless Parties;
#ARTISTTRANSLIT:Camellia;
#BANNER:Endless Beats Endless Parties.png;
#BACKGROUND:Endless Beats Endless Parties-bg.png;
#JACKET:Endless Beats Endless Parties-jacket.png;
#MUSIC:Endless Beats Endless Parties.ogg;
#OFFSET:-0.05;
#SAMPLESTART:26.892;
#SAMPLELENGTH:15;
#BPMS:0=152,275=148,276=144,277=140,278=138,279=136,280=134,281=132,282=116;

//---------------dance-single - Talkion-bSP----------------
#NOTEDATA:;
#CHARTNAME:Talkion-bSP;
#STEPSTYPE:dance-single;
#DESCRIPTION:Talkion-bSP;
#DIFFICULTY:Beginner;
#METER:4;
#RADARVALUES:0.167773,0.244806,0.190221,0.057893,0,142,119,23,7,0,0,0,0,0,0.167773,0.244806,0.190221,0.057893,0,142,119,23,7,0,0,0,0,0;
#CREDIT:Talkion;
#NOTES:
0000
0000
0000
0000
,
0000
0000
0000
0000
,
0000
0000
0000
0000
,
0000
0000
0000
0000
,
0000
0000
0000
0000
,
0000
0000
0000
0000
,
0000
0000
0000
0000
,
1001
0000
0110
0000
,
1001
0000
0000
0000
,
1001
0000
0110
0000
,
1001
0000
0000
0000
,
1001
0000
0110
0000
,
1001
0000
0000
0000
,
2000
0000
0000
0000
,
0000
0000
0000
0000
,
3001
0001
0001
0001
,
0000
0000
0000
0000
,
1001
0000
0110
0000
,
0001
0000
0000
0001
0000
0000
0000
0000
,
1001
0000
0110
0000
,
1000
0000
0000
1000
0000
0000
0000
0000
,
1001
0000
0110
0000
,
0001
0000
0000
0001
0000
0000
0000
0000
,
2000
0000
0000
0000
,
3100
0100
0100
0000
,
1000
0000
1000
0000
,
0001
0000
0001
0001
,
0100
0000
0100
0000
,
0010
0000
0010
0010
,
1000
0000
1000
0000
,
0001
0000
0001
0001
,
2000
0000
0000
0000
0000
0000
0000
3001
,
0000
0000
0000
1000
0000
0000
0000
0002
,
0000
0000
0000
0000
,
1003
0000
1000
0000
,
0001
0001
0001
0000
,
1000
1000
1000
0000
,
0001
0001
0001
0000
,
1000
1000
0010
0000
,
0200
0000
0000
0000
,
0000
0000
0000
0300
,
0020
0000
0000
0000
,
1030
0000
0000
0000
,
0001
0000
0001
0000
,
1000
0000
1000
0000
,
0001
0001
0001
0001
,
0000
0000
0000
0000
,
1000
0000
1000
0000
,
0010
0010
0100
0000
,
0001
0000
0001
0000
,
0010
0010
0100
0000
,
0000
1000
1000
0000
,
0010
0010
0100
0000
,
0001
0000
0001
0000
,
1000
1000
1000
0000
,
0001
0000
1001
0000
,
0110
0000
0000
0000
,
1001
0000
0110
0000
,
1001
0000
0000
0000
,
1001
0000
0110
0000
,
1001
0000
0000
0000
,
0001
0000
0001
0000
,
1000
0000
1000
0000
,
0010
0000
0010
0000
,
0100
0000
0100
0000
,
0001
0001
0001
0000
,
1000
1000
1000
0100
,
0020
0000
0000
0000
,
0000
0000
0000
0000
,
0000
0000
0000
0000
,
0000
0000
0000
0000
,
0000
0000
0000
0000
,
0000
0000
0000
0000
,
0000
0000
0000
0000
,
0030
0000
0000
0000
;

//---------------dance-single - Talkion-BSP----------------
#NOTEDATA:;
#CHARTNAME:Talkion-BSP;
#STEPSTYPE:dance-single;
#DESCRIPTION:Talkion-BSP;
#DIFFICULTY:Easy;
#METER:9;
#RADARVALUES:0.339090,0.489612,0.206762,0.314278,0.144733,287,262,25,38,0,0,0,0,0,0.339090,0.489612,0.206762,0.314278,0.144733,287,262,25,38,0,0,0,0,0;
#CREDIT:Talkion;
#NOTES:
0000
0000
0000
0000
,
0000
0000
0000
0000
,
0000
0000
0000
0000
,
0000
0000
0000
0000
,
0000
0000
0000
0000
,
0000
0000
0000
0000
,
0000
0000
0000
0000
,
1001
0000
0000
0000
0000
0000
0000
0000
1000
0000
0000
1000
0000
0000
0000
0000
,
0001
0000
0000
0001
0000
0000
0200
0000
0000
0000
0000
0000
0300
0000
0000
0000
,
1001
0000
0000
0000
0000
0000
0000
0000
0001
0000
0000
0001
0000
0000
0000
0000
,
1000
0000
0000
0100
0000
0000
0020
0000
0000
0000
0000
0000
0030
0000
0000
0000
,
1001
0000
0000
0000
0000
0000
0000
0000
1000
0000
0000
1000
0000
0000
0000
0000
,
0001
0000
0000
0001
0000
0000
0200
0000
0000
0000
0000
0000
0300
0000
0000
0000
,
0010
0010
1000
1000
,
0001
0001
0010
0010
,
2000
3020
0032
0203
,
1300
0000
0000
0110
,
2002
0000
0000
0000
3003
0000
0000
0000
1000
0000
0000
1000
0000
0000
0000
0000
,
0100
0000
0000
0010
0000
0000
1000
0000
0010
0000
0000
0010
0000
0000
0001
0000
,
2002
0000
0000
0000
3003
0000
0000
0000
1000
0000
0000
1000
0000
0000
0000
0000
,
0010
0000
0000
0100
0000
0000
1000
0000
0100
0000
0000
0100
0000
0000
0001
0000
,
2000
0000
0000
0000
3100
0000
0000
0000
1000
0000
0000
1000
0000
0000
0000
0000
,
0001
0000
0000
0100
0000
0000
0010
0000
0000
0000
1000
0000
0010
0000
0100
0000
,
0002
1000
0010
1000
,
0023
0000
0030
0000
0200
0000
0300
0000
1000
0000
0000
1000
0000
0000
1000
0000
,
0001
0001
0100
0100
,
0010
0010
1000
1000
,
0001
0001
0010
0010
,
0100
0100
1000
1000
,
0001
0001
0100
0100
,
0010
0010
0001
0001
,
0020
0000
0100
0000
0100
0000
0130
0002
,
0000
1003
0001
0020
0000
0031
0010
0200
,
0000
1000
1000
1000
,
0310
0001
0000
0001
1000
0000
1000
0000
,
0011
0000
0000
0000
0011
0000
0000
0000
0001
0000
0000
0001
0000
0000
1000
0000
,
1010
0000
0000
0000
1010
0000
0000
0000
1000
0000
0000
1000
0000
0000
0001
0000
,
0011
0000
0000
0000
0011
0000
0000
0000
0001
0000
0000
0001
0000
0000
1000
0000
,
1010
0000
0000
0000
1010
0000
0000
0000
0010
0000
0000
0100
0000
0000
0001
0000
,
2000
0100
0000
0100
,
3002
0100
0000
0100
,
2003
0100
0000
0100
,
3002
0203
2300
3002
,
0013
0000
0010
0100
0010
0000
0010
0000
,
1000
0001
0001
0000
1000
0000
0100
0000
,
0020
2030
3002
0203
,
1300
0000
0000
0110
,
0001
0000
1000
0000
0010
0000
0000
0000
0001
0000
0000
0001
0000
0000
0010
0000
,
1000
0000
0010
0000
0100
0000
0000
0000
0001
0000
0000
0100
0000
0000
0100
0000
,
0001
0000
1000
0000
0100
0000
0000
0000
0001
0000
0000
0001
0000
0000
0100
0000
,
1000
0000
0100
0000
0010
0000
0000
0000
0002
0000
0000
1003
0000
0000
0001
0000
,
0100
0000
0000
0000
0110
0000
0000
0000
0010
0000
0000
1000
0000
0000
1000
0000
,
0001
0000
0010
0000
0100
0000
0000
0000
0001
0000
0000
0001
0000
0000
0100
0000
,
1000
0000
0000
1000
0000
0000
1000
0000
0001
0000
0000
0001
0000
0000
0001
0000
,
0100
0000
0000
0000
0100
0000
0000
0000
0110
0000
0000
0110
0000
0000
0110
0000
,
0000
0000
0000
0000
0000
0000
0000
0000
1001
0000
0000
1001
0000
0000
0000
0000
,
1000
0000
0000
0100
0000
0000
0010
0000
0000
0000
0001
0000
1000
0000
0000
0000
,
1001
0000
0000
0000
0000
0000
0001
0000
0100
0000
0000
0110
0000
0000
0000
0000
,
0010
0000
0000
1000
0000
0000
0200
0000
0000
0000
0000
0000
0300
0000
0000
0000
,
0200
0000
0000
0000
0310
0000
0000
0000
0001
0000
0000
1001
0000
0000
0000
0000
,
1000
0000
0000
0010
0000
0000
0200
0000
0000
0000
0000
0000
0300
0000
0000
0000
,
0001
0001
1000
1000
,
0010
0010
0100
0100
,
0001
0001
1000
1000
,
0100
0100
0010
0010
,
0001
0000
1000
0000
,
0001
0100
0001
0100
0010
0000
1000
0000
,
2001
0000
0000
0000
,
0000
0000
0000
0000
,
3200
0000
0000
0010
0000
0000
0000
1300
,
0001
0000
0000
0100
0000
0000
0010
0000
0000
0000
1000
0000
0002
0000
0000
0000
,
0000
0020
0000
0000
0000
0000
0000
0000
,
0000
0000
0000
0000
,
0000
0000
0000
0000
,
0033
0000
0000
0000
;

//---------------dance-single - Talkion-DSP----------------
#NOTEDATA:;
#CHARTNAME:Talkion-DSP;
#STEPSTYPE:dance-single;
#DESCRIPTION:Talkion-DSP;
#DIFFICULTY:Medium;
#METER:12;
#RADARVALUES:0.493866,0.612015,0.587204,0.405253,0.219168,418,347,71,49,0,0,0,0,0,0.493866,0.612015,0.587204,0.405253,0.219168,418,347,71,49,0,0,0,0,0;
#CREDIT:Talkion;
#NOTES:
0000
0000
0000
0000
,
0000
0000
0000
0000
,
0000
0000
0000
0000
,
0000
0000
0000
0000
,
0000
0000
0000
0000
,
0000
0000
0000
0000
,
0000
0000
0000
0000
,
1002
0000
0000
0000
0003
0000
0000
0000
1010
0000
0000
1010
0000
0000
0000
0000
,
0101
0000
0000
0110
0000
0000
1002
0000
0000
0000
0000
0000
0013
0000
0001
0000
,
2001
0000
0000
0000
3000
0000
0000
0000
0101
0000
0000
0101
0000
0000
0000
0000
,
1010
0000
0000
0110
0000
0000
2001
0000
0000
0000
3100
0000
0010
0000
0001
0000
,
1002
0000
0000
0000
0003
0000
0000
0000
0110
0000
0000
0110
0000
0000
0000
0000
,
1001
0000
0000
1100
0000
0000
0120
0000
0000
0000
0130
0000
0010
0000
0001
0000
,
1000
0000
0000
1000
0000
0000
0010
0000
0100
0000
0000
0100
0000
0000
0020
0000
,
1030
0000
0000
1000
0000
0000
0001
0000
2000
0000
0100
0000
0000
0001
0000
0000
,
3100
0010
0001
1000
0010
0001
0010
0100
,
0000
0001
0001
1000
0010
1000
1001
0000
,
0011
0000
0000
0000
0010
0000
0001
0000
0101
0000
0000
1010
0000
0000
1000
0000
,
1100
0000
0000
0110
0000
0000
0011
0000
0001
0000
0000
1000
0000
0000
0010
0000
,
0110
0000
0000
0000
0100
0000
0001
0000
0011
0000
0000
1100
0000
0000
1000
0000
,
1010
0000
0000
0110
0000
0000
0101
0000
0001
0000
0000
1000
0000
0000
2000
0000
,
0100
0000
0000
0000
3001
0000
1000
0000
1010
0000
0000
0101
0000
0000
0001
0000
,
0011
0000
0000
0110
0000
0000
1100
0000
0000
0000
1000
0000
0001
0000
0100
0000
,
0020
0000
0000
1000
0000
0000
1030
0000
0001
0000
0000
0001
0000
0000
0001
0000
,
0020
0000
0130
0000
0020
0000
0130
0000
0001
0000
0000
0100
0000
0000
1000
0000
,
0001
0001
0100
0100
,
0010
0000
0000
0000
0010
0000
0000
0000
1000
0000
0000
0001
0000
0000
0010
0000
,
0100
0100
1000
1000
,
0001
0000
0000
0000
0001
0000
0000
0000
0100
0000
0000
0010
0000
0000
1000
0000
,
0001
0001
0010
0010
,
0100
0000
0000
0000
0100
0000
0000
0000
1000
0001
0000
0001
0000
0000
1000
0000
,
1020
0000
0100
0000
0001
0000
0130
0020
,
0000
1030
0010
0200
0000
0301
0010
0200
,
0000
0001
0010
2300
,
3001
1000
0000
1000
0010
0000
0010
0000
,
0101
0000
0000
0000
1100
0000
0000
0000
0101
0000
0000
0100
0000
0000
0010
0000
,
1010
0000
0000
0000
0011
0000
0000
0000
1010
0000
0000
0010
0000
0000
0100
0000
,
0101
0000
0000
0000
1100
0000
0000
0000
0101
0000
0000
0100
0000
0000
0010
0000
,
1010
0000
0000
0000
1001
0000
0000
0000
0011
0000
0010
0001
0000
0000
0001
0000
,
2000
0000
0000
0000
0001
0000
0000
0000
0010
0000
0000
0010
0000
0000
0010
0000
,
3002
0000
0000
0000
1000
0000
0000
0000
0010
0000
0000
0010
0000
0000
0010
0000
,
2003
0000
0000
0000
0001
0000
0000
0000
0010
0000
0000
0010
0000
0000
0010
0000
,
3002
0023
2030
3020
,
0031
0000
0000
0001
0000
0000
2000
0000
3010
0000
0000
0000
0010
0000
0002
0000
,
0013
0100
0100
0000
0010
0100
0001
1000
,
0100
0001
0100
1000
0100
0001
1000
0010
,
0000
0001
0001
1000
0010
1000
1001
0000
,
0001
0000
1000
0000
0100
0000
0001
0000
1000
0000
0000
0010
0000
0000
0100
0000
,
0001
0000
0000
0001
0000
0000
0100
0000
1000
0000
0001
0000
0100
0000
0010
0000
,
1000
0000
0001
0000
0010
0000
1000
0000
0001
0000
0000
0100
0000
0000
0010
0000
,
1000
0000
0000
1000
0000
0000
0010
0000
0002
0000
0000
1003
0001
0000
0100
0000
,
0010
0000
0000
0000
1001
0000
0000
0000
1000
0000
0000
0100
0000
0000
0001
0000
,
1000
0000
0000
1000
0000
0000
0010
0000
0100
0000
1000
0000
0001
0000
0100
0000
,
0010
0000
0000
0010
0000
0000
0010
0000
1000
0000
0000
1000
0000
0000
1000
0000
,
0001
0000
0010
0000
1000
0000
0010
0000
0011
0000
0000
1001
0000
0000
1010
0000
,
0020
0000
0000
0000
0000
0000
0000
0000
0130
0000
0000
1001
0000
0000
0001
0000
,
0011
0000
0000
1010
0000
0000
2001
0000
0000
0000
0000
0000
3100
0000
0100
0000
,
0012
0000
0000
0000
0003
0000
1000
0000
1010
0000
0000
0011
0000
0000
0001
0000
,
0101
0000
0000
1100
0000
0000
2001
0000
0000
0000
3100
0000
1000
0000
0001
0000
,
0102
0000
0000
0000
1003
0000
0100
0000
1100
0000
0000
0011
0000
0000
0001
0000
,
0101
0000
0000
1010
0000
0000
2001
0000
0000
0000
3100
0000
0010
0000
0001
0000
,
2000
0000
0010
0000
0001
0000
3100
0020
,
0032
0000
0010
0000
1000
0000
0103
0100
,
0020
0000
0001
0000
0100
0000
1030
0002
,
0023
0000
1000
0000
0100
0000
0031
0001
,
2000
0000
0000
0000
3010
0000
0100
0010
0100
0000
0000
0000
0001
0000
0000
0000
,
1000
0100
0001
1000
0010
0001
1000
0000
,
1002
0000
0000
0000
,
0000
0000
0000
0000
0000
0000
0000
0000
0000
0000
0000
0000
0000
0103
0010
1000
,
0002
0000
0000
0010
0000
0000
0000
1003
,
0020
0000
0000
0230
0000
0000
0302
0000
0000
0000
2003
0000
3200
0000
0320
0000
,
0000
2000
0000
0000
0000
0000
0000
0000
,
0000
0000
0000
0000
,
0000
0000
0000
0000
,
3030
0000
0000
0000
;

//---------------dance-single - Talkion-ESP----------------
#NOTEDATA:;
#CHARTNAME:Talkion-ESP;
#STEPSTYPE:dance-single;
#DESCRIPTION:Talkion-ESP;
#DIFFICULTY:Hard;
#METER:15;
#RADARVALUES:0.682905,0.826221,0.405253,0.463147,0.756749,578,529,49,56,0,0,0,0,0,0.682905,0.826221,0.405253,0.463147,0.756749,578,529,49,56,0,0,0,0,0;
#CREDIT:Talkion;
#NOTES:
0000
0000
0000
0000
,
0000
0000
0000
0000
,
0000
0000
0000
0000
,
0000
0000
0000
0000
,
0000
0000
0000
0000
,
0000
0000
0000
0000
,
0000
0000
0000
0000
,
2001
0000
0000
0000
3000
0000
0010
0100
0001
0000
0000
0011
0000
0000
0010
0100
,
1000
0000
0000
1010
0000
0000
0102
0000
0000
0000
0000
1003
0001
0010
0100
1000
,
0002
0000
0000
0000
0003
0000
0100
0010
1000
0000
0000
1100
0000
0000
0100
1000
,
0010
0000
0000
0110
0000
0000
1002
0000
0000
0000
0010
0000
0013
0000
0001
1000
,
0200
0000
0000
0000
0300
0000
1000
0010
0100
0000
0000
0101
0000
0000
0001
0010
,
0100
0000
0000
1100
0000
0000
1002
0000
0000
0000
0103
0000
0010
0000
1000
0000
,
0001
0000
0000
0001
0010
0000
0001
0000
1000
0000
0000
1000
0010
0000
1000
0000
,
0001
0010
0100
1000
0100
0010
0001
1000
0010
0100
0001
1000
,
0100
0010
1000
0010
0001
1000
0010
0001
0010
0100
0002
2000
,
3003
0000
0000
1010
,
0012
0000
0000
0000
1003
0000
0001
0100
0010
0000
0000
1000
0001
0000
0010
0100
,
1000
0000
0000
0001
0100
0000
0010
0000
1000
0000
0001
1000
0100
1000
0001
0100
,
0020
0000
0000
0000
1030
0000
0001
0010
0100
0000
0000
1000
0001
0000
1000
0010
,
0001
0000
0000
0010
0100
0000
0010
0000
1000
0000
0001
0010
0001
0000
1000
0010
,
0200
0000
0300
0000
1001
0000
1000
0100
0010
0000
0000
0001
1000
0000
0010
0100
,
0001
0000
0000
0100
0010
0000
1000
0000
0001
0000
0010
0000
0100
0000
1000
0000
,
0002
0000
0000
0103
0001
0000
1000
0000
0100
0000
0000
1100
0000
0000
1000
0000
,
0002
0000
0103
0010
2000
0000
3100
0010
1000
0000
0000
1010
0000
0000
0010
0000
,
0001
1000
0010
0100
1000
0001
0010
0100
,
0001
0000
1000
0000
0001
0000
0010
0100
1000
0001
0000
0001
0000
0100
0010
0000
,
1000
0001
0010
0100
0001
1000
0010
0100
,
1000
0000
0001
0000
0100
0000
0010
0100
0010
1000
0000
1000
0000
0001
0010
0000
,
0100
1000
0001
0100
1000
0001
1000
0100
,
0001
0000
1000
0000
0100
0000
0001
0100
0010
0001
0000
1000
0000
0001
0000
0100
,
0020
0000
0000
1030
0001
0000
0010
0000
0200
0000
0000
1300
0001
0000
0100
0000
,
0020
1000
1030
0001
0020
0100
0130
1000
,
0002
0000
0000
0103
0001
0000
1000
0000
0002
0000
0000
0013
0001
0000
2000
0000
,
3010
0000
0100
0010
1000
0000
0002
0000
0010
0000
0000
0000
0013
0000
0000
0000
,
1001
0000
0000
0000
0110
0000
0000
0000
1010
0000
0000
0011
0000
0000
1010
0000
,
1001
0000
0000
0000
0110
0000
0000
0000
1100
0000
0000
0101
0000
0000
1100
0000
,
1001
0000
0000
0000
0110
0000
0000
0000
1010
0000
0000
0101
0000
0000
1010
0000
,
1001
0000
0000
0000
0110
0000
0000
0000
0001
0000
0010
0100
0000
0100
1000
0000
,
0002
0000
0000
0000
0103
0000
0001
0100
0010
0000
1000
0000
0001
0000
0010
0000
,
0200
0000
0000
0000
1300
0000
0100
1000
0001
0000
0100
0000
0010
0000
1000
0000
,
0002
0000
0000
0000
0013
0000
0001
0010
0100
0000
1000
0000
0001
0000
0100
0000
,
2000
3002
0023
2030
,
3001
0000
0000
1000
0100
0000
0020
0000
0031
0000
0000
1000
0010
0000
0200
0000
,
0301
0000
1000
0100
1000
0000
0001
0000
0100
0000
0010
0100
0010
0000
1000
0000
,
0001
0010
0100
1000
0001
0100
0010
1000
0001
0010
0100
1000
0001
0100
0010
0002
,
0000
0000
0003
0110
,
1000
0100
0010
0001
1000
0010
0000
0001
0000
0010
0100
0001
0000
1000
0001
0010
,
0001
1000
0000
0010
0000
0010
0000
0100
1000
0100
0000
0001
0100
0010
1000
0001
,
0010
0100
1000
0001
0100
0010
0000
1000
0000
0001
0010
0100
0000
0001
0100
1000
,
0010
0100
0000
0010
0000
1000
0000
1001
0000
0001
0010
0100
1000
0001
0100
0000
,
0020
0000
0030
0000
1000
0100
0000
0001
0000
0100
0010
0001
0000
1000
0001
0100
,
0001
1000
0000
0100
0000
0100
0000
0010
1000
0010
0000
0001
0010
0100
1000
0001
,
0100
0000
0000
1010
0000
0000
1000
0000
1100
0000
0000
0011
0000
0000
0001
0000
,
1000
0010
0001
0010
0100
1000
0100
0001
1000
0000
0000
1100
0000
0000
0021
0000
,
0200
0000
0000
0000
0330
0000
0001
0100
1000
0000
0000
1001
0000
0000
0001
0100
,
1000
0000
0000
1100
0000
0000
0100
0000
0001
0000
2000
0000
0100
0000
3001
0000
,
0021
0000
0000
0000
0030
0000
1000
0010
0001
0000
0000
1001
0000
0000
1000
0010
,
0001
0000
0000
0011
0000
0000
0010
0000
1000
0000
0001
0010
0100
0000
0010
0100
,
2000
0000
3000
0000
1001
0000
0001
0100
1000
0000
0000
1001
0000
0000
0001
0010
,
1000
0000
0000
1001
0000
0000
0001
0000
0010
0000
0100
0000
1000
0000
0010
0000
,
0001
0000
0010
0100
0010
0000
1000
0010
0100
0000
0010
0100
0001
0000
2000
0000
,
3100
0000
0001
0100
0010
0000
0100
1000
0100
0000
1000
0000
0002
0000
0203
0000
,
1300
0000
0100
0010
0100
0000
0001
0100
0010
0000
0100
0010
1000
0000
0002
0000
,
0013
0000
1000
0010
0100
0000
0010
0100
1000
0001
1000
0010
0200
0000
0320
0000
,
2030
0000
0000
0000
0000
0000
3001
0000
0000
0010
0100
0010
0200
0000
0000
0000
0000
0000
1300
0000
0000
0002
0000
0000
,
1003
0010
0001
0010
1000
0010
0001
0010
0100
0000
0100
0000
1001
0000
0000
0000
,
0021
0000
0000
0000
,
0000
0000
0000
0000
0000
0000
0000
0000
0000
0000
0000
0000
0000
0130
0010
0001
,
0200
0000
0000
1000
0000
0000
0000
0320
,
2030
0000
0000
0000
0000
0000
0000
0000
0000
3002
0000
0000
0000
0000
0000
0000
0000
0000
0023
0000
0000
0000
0000
0000
0000
0000
0000
0000
0000
0000
2030
0000
0000
0000
0000
0000
3010
0000
0001
0000
0010
0000
0002
0000
0000
0000
0000
0000
,
0000
2000
0000
0000
0000
0000
0000
0000
,
0000
0000
0000
0000
,
0000
0000
0000
0000
,
3003
0000
0000
0000
;

//---------------dance-double - Talkion-BDP----------------
#NOTEDATA:;
#CHARTNAME:Talkion-BDP;
#STEPSTYPE:dance-double;
#DESCRIPTION:Talkion-BDP;
#DIFFICULTY:Easy;
#METER:9;
#RADARVALUES:0.307189,0.428411,0.157139,0.322549,0.128192,260,241,19,39,0,0,0,0,0,0.307189,0.428411,0.157139,0.322549,0.128192,260,241,19,39,0,0,0,0,0;
#CREDIT:Talkion;
#NOTES:
00000000
00000000
00000000
00000000
,
00000000
00000000
00000000
00000000
,
00000000
00000000
00000000
00000000
,
00000000
00000000
00000000
00000000
,
00000000
00000000
00000000
00000000
,
00000000
00000000
00000000
00000000
,
00000000
00000000
00000000
00000000
,
00011000
00000000
00000000
00000000
00000000
00000000
00000000
00000000
00010000
00000000
00000000
00010000
00000000
00000000
00000000
00000000
,
00000100
00000000
00000000
00000100
00000000
00000000
00000020
00000000
00000000
00000000
00000000
00000000
00000030
00000000
00000000
00000000
,
00001001
00000000
00000000
00000000
00000000
00000000
00000000
00000000
00000001
00000000
00000000
00000001
00000000
00000000
00000000
00000000
,
00000100
00000000
00000000
00000100
00000000
00000000
00000020
00000000
00000000
00000000
00000000
00000000
00000030
00000000
00000000
00000000
,
00011000
00000000
00000000
00000000
00000000
00000000
00000000
00000000
00001000
00000000
00000000
00001000
00000000
00000000
00000000
00000000
,
01000000
00000000
00000000
01000000
00000000
00000000
00200000
00000000
00000000
00000000
00000000
00000000
00300000
00000000
00000000
00000000
,
10000000
00010000
10000000
00010000
,
00100000
00001000
00100000
00001000
,
00020000
00030020
00000230
00000302
,
00001003
00000000
00000000
00000110
,
00001001
00000000
00000000
00000000
00000001
00000000
00000000
00000000
00000100
00000000
00000000
00000010
00000000
00000000
00000000
00000000
,
00010000
00000000
00000000
00001000
00000000
00000000
02000000
00000000
00000000
00000000
00000000
00000000
03000000
00000000
00000000
00000000
,
10010000
00000000
00000000
00000000
10000000
00000000
00000000
00000000
01000000
00000000
00000000
00100000
00000000
00000000
00000000
00000000
,
00001000
00000000
00000000
00010000
00000000
00000000
00000020
00000000
00000000
00000000
00000000
00000000
00000030
00000000
00000000
00000000
,
00000200
00000000
00000000
00000000
00000301
00000000
00000000
00000000
00001000
00000000
00000000
00000010
00000000
00000000
00000000
00000000
,
00010000
00000000
00000000
00001000
00000000
00000000
00100000
00000000
00000000
00000000
01000000
00000000
10000000
00000000
00010000
00000000
,
20000000
00100000
00010000
00100000
,
30020000
00000000
00030000
00000000
02000000
00000000
03000000
00000000
00001000
00000000
00000000
00010000
00000000
00000000
00001000
00000000
,
00010000
00010000
00000100
00000100
,
00000010
00000010
00000001
00000001
,
00000100
00000100
00000010
00000010
,
00010000
00010000
00001000
00001000
,
00100000
00100000
01000000
01000000
,
10000000
10000000
00100000
00100000
,
02000000
00000000
00000000
00000000
00000000
00000000
00000000
03001000
,
00000000
00010000
00000100
00001000
00000000
00000100
00001000
00000002
,
00000000
00000000
00000000
00000000
,
00000000
00000103
00000000
00000010
00010000
00000000
00010000
00000000
,
00011000
00010100
00011000
00000000
,
00011000
01001000
00011000
00000000
,
00011000
00010100
00011000
00000000
,
00011000
00000000
00000000
00000000
01001000
00000000
00000000
00000000
01000000
00000000
00000000
01000000
00000000
00000000
00010000
00000000
,
20000000
01000000
00000000
31000000
,
00200000
00001000
00000000
00301000
,
00020000
00000010
00000000
00030010
,
00002000
00003020
00000230
00000302
,
00001003
00000000
00000000
00000100
00010000
00000000
00000000
00000100
,
00010000
00001000
00001000
00000000
01000000
00000000
01000000
00010000
,
20000000
32000000
03200000
00302000
,
00013000
00000000
00000000
00011000
,
00001000
00000000
00000000
00000000
01000000
00000000
00000000
00000000
00001000
00000000
00000000
00001000
00000000
00000000
00010000
00000000
,
00000100
00000000
00000000
00000100
00000000
00000000
00000010
00000000
00001000
00000000
00000000
00001000
00000000
00000000
00010000
00000000
,
00010000
00000000
00000000
00000000
00000010
00000000
00000000
00000000
00010000
00000000
00000000
00010000
00000000
00000000
00001000
00000000
,
00100000
00000000
00000000
00100000
00000000
00000000
01000000
00000000
00010000
00000000
00000000
00010000
00000000
00000000
00001000
00000000
,
00002000
00000000
00000000
00000000
01003000
00000000
00000000
00000000
00100000
00000000
00000000
00100000
00000000
00000000
10000000
00000000
,
00010000
00000000
00000000
00010000
00000000
00000000
00100000
00000000
00001000
00000000
00000000
00001000
00000000
00000000
00010000
00000000
,
00020000
00000000
00030200
00000000
,
00000310
00000000
00000100
00000000
00000010
00000000
00000100
00000000
00001000
00000000
00000000
00001000
00000000
00000000
00001000
00000000
,
00000002
00000000
00000000
00000000
00000000
00000000
00000000
00000000
00000103
00000000
00000000
00000010
00000000
00000000
00000000
00000000
,
00010000
00000000
00000000
00100000
00000000
00000000
02000000
00000000
00000000
00000000
00000000
00000000
03010000
00000000
00000000
00000000
,
20010000
00000000
00000000
00000000
00000000
00000000
00000000
00000000
31000000
00000000
00000000
00100000
00000000
00000000
00000000
00000000
,
00001000
00000000
00000000
00000010
00000000
00000000
00000200
00000000
00000000
00000000
00000000
00000000
00001300
00000000
00000000
00000000
,
00000002
00000000
00000000
00000000
00000103
00000000
00000000
00000000
00000010
00000000
00000000
00010000
00000000
00000000
00000000
00000000
,
00001000
00000000
00000000
01000000
00000000
00000000
00200000
00000000
00000000
00000000
00000000
00000000
00300000
00000000
00000000
00000000
,
10000000
10000000
00100000
00100000
,
01000000
01000000
00001000
00001000
,
00010000
00010000
00000010
00000010
,
00000100
00000100
00000001
00000001
,
00001000
00000000
00010000
00000000
,
10000000
00010000
10000000
00010000
00100000
00000000
00001000
00000000
,
00020000
00000000
00000000
00000000
,
00000000
00000000
00000000
00000000
,
00030200
00000000
00000000
00000010
00000000
00000000
00000000
00001300
,
00000001
00000000
00000000
00000100
00000000
00000000
00000010
00000000
00000000
00000000
00010000
00000000
00002000
00000000
00000000
00000000
,
00000000
02000000
00000000
00000000
00000000
00000000
00000000
00000000
,
00000000
00000000
00000000
00000000
,
00000000
00000000
00000000
00000000
,
03003000
00000000
00000000
00000000
;

//---------------dance-double - Talkion-DDP----------------
#NOTEDATA:;
#CHARTNAME:Talkion-DDP;
#STEPSTYPE:dance-double;
#DESCRIPTION:Talkion-DDP;
#DIFFICULTY:Medium;
#METER:12;
#RADARVALUES:0.479688,0.612015,0.529311,0.421794,0.227438,406,342,64,51,0,0,0,0,0,0.479688,0.612015,0.529311,0.421794,0.227438,406,342,64,51,0,0,0,0,0;
#CREDIT:Talkion;
#NOTES:
00000000
00000000
00000000
00000000
,
00000000
00000000
00000000
00000000
,
00000000
00000000
00000000
00000000
,
00000000
00000000
00000000
00000000
,
00000000
00000000
00000000
00000000
,
00000000
00000000
00000000
00000000
,
00000000
00000000
00000000
00000000
,
00012000
00000000
00000000
00000000
00003000
00000000
00000000
00000000
00010010
00000000
00000000
00001001
00000000
00000000
00000000
00000000
,
00000101
00000000
00000000
00000110
00000000
00000000
00020010
00000000
00000000
00000000
00000000
00000000
00030000
00000000
00000000
00000000
,
00021000
00000000
00000000
00000000
00030000
00000000
00000000
00000000
01001000
00000000
00000000
10010000
00000000
00000000
00000000
00000000
,
10100000
00000000
00000000
01100000
00000000
00000000
01002000
00000000
00000000
00000000
00010000
00000000
00013000
00000000
00000010
00000000
,
00000200
00000000
00000000
00000000
00000300
00000000
00000000
00000000
00001001
00000000
00000000
00010100
00000000
00000000
00000000
00000000
,
00101000
00000000
00000000
10010000
00000000
00000000
10200000
00000000
00000000
00000000
00000000
00000000
01300000
00000000
00001000
00000000
,
00010000
00000000
00000000
00010000
00000000
00000000
00000100
00000000
00000010
00000000
00000000
00000010
00000000
00000000
00002000
00000000
,
00013000
00000000
00000000
00010000
00000000
00000000
00001000
00000000
01000000
00000000
00100000
00000000
00000000
10000000
00000000
00000000
,
00010000
10000000
01000000
10000000
00010000
01000000
00010000
00001000
,
00000000
00000010
00000010
00000100
00000010
00001000
00001001
00000000
,
00000011
00000000
00000000
00000000
00000010
00000000
00000100
00000000
00010100
00000000
00000000
00011000
00000000
00000000
00001000
00000000
,
01001000
00000000
00000000
01100000
00000000
00000000
10010000
00000000
00010000
00000000
00000000
10000000
00000000
00000000
01000000
00000000
,
11000000
00000000
00000000
00000000
01000000
00000000
00100000
00000000
00101000
00000000
00000000
00011000
00000000
00000000
00010000
00000000
,
00010010
00000000
00000000
00000110
00000000
00000000
00001001
00000000
00001000
00000000
00000000
00000001
00000000
00000000
00000010
00000000
,
00000200
00000000
00000000
00000000
00010300
00000000
00000010
00000000
00001010
00000000
00000000
00010100
00000000
00000000
00010000
00000000
,
00011000
00000000
00000000
01001000
00000000
00000000
01100000
00000000
00000000
00000000
00100000
00000000
10000000
00000000
00010000
00000000
,
00200000
00000000
00000000
01000000
00000000
00000000
00301000
00000000
00010000
00000000
00000000
00010000
00000000
00000000
00000010
00000000
,
00000200
00000000
00000301
00000000
00000200
00000000
00000301
00000000
00001000
00000000
00000000
00000100
00000000
00000000
00010000
00000000
,
00001000
01000000
00100000
10000000
,
01000000
00000000
00000000
00000000
00100000
00000000
00000000
00000000
00001000
00000000
00000000
00010000
00000000
00000000
00000100
00000000
,
00010000
00000100
00000010
00000001
,
00000100
00000000
00000000
00000000
00000010
00000000
00000000
00000000
00010000
00000000
00000000
00001000
00000000
00000000
01000000
00000000
,
00001000
01000000
00100000
10000000
,
01000000
00000000
00000000
00000000
00100000
00000000
00000000
00000000
00001000
00010000
00000000
00010000
00000000
00000000
00000010
00000000
,
00001020
00000000
00000100
00000000
00000001
00000000
00000130
00000020
,
00000000
00010030
00001000
00200000
00000000
00301000
00010000
00000020
,
00000000
00001000
00000100
00000001
,
00000130
00000010
00000000
00000010
00010000
00000000
00010000
00000000
,
00010010
00000000
00000000
00000000
00101000
00000000
00000000
00000000
00001000
00000000
00000000
00010000
00000000
00000000
00000100
00000000
,
00010100
00000000
00000000
00000000
01001000
00000000
00000000
00000000
00001000
00000000
00000000
00010000
00000000
00000000
00000010
00000000
,
00010010
00000000
00000000
00000000
00101000
00000000
00000000
00000000
00001000
00000000
00000000
00010000
00000000
00000000
00000100
00000000
,
00010100
00000000
00000000
00000000
00000110
00000000
00000000
00000000
00001001
00000000
00000001
00001000
00000000
00000000
00000100
00000000
,
00020000
00000000
00000000
00000000
00000010
00000000
00000000
00000000
00000100
00000000
00000000
00000100
00000000
00000000
00000100
00000000
,
00032000
00000000
00000000
00000000
00100000
00000000
00000000
00000000
01000000
00000000
00000000
01000000
00000000
00000000
01000000
00000000
,
00023000
00000000
00000000
00000000
00000010
00000000
00000000
00000000
00000100
00000000
00000000
00000100
00000000
00000000
00000100
00000000
,
00032000
02003000
03200000
00320000
,
00031000
00000000
00000000
00001000
00000000
00000000
00020000
00000000
00030100
00000000
00000000
00000000
00000100
00000000
00000020
00000000
,
00000031
00001000
00001000
00000000
00000100
00010000
00001000
01000000
,
00100000
00010000
00100000
10000000
01000000
00010000
00001000
00000010
,
00000000
00000100
00000100
00000010
00000100
00001000
00001001
00000000
,
00000001
00000000
00000100
00000000
00001000
00000000
00010000
00000000
00100000
00000000
00000000
00100000
00000000
00000000
10000000
00000000
,
00010000
00000000
00000000
00010000
00000000
00000000
00100000
00000000
00001000
00000000
00000000
01000000
00000000
00000000
00010000
00000000
,
10000000
00000000
01000000
00000000
00010000
00000000
00001000
00000000
00000010
00000000
00000000
00000010
00000000
00000000
00000001
00000000
,
00001000
00000000
00000000
00001000
00000000
00000000
00000010
00000000
00010000
00000000
00000000
00000100
00000000
00000000
00001000
00000000
,
00000002
00000000
00000000
00000000
00000013
00000000
00001000
00000000
00010000
00000000
00000000
00010000
00000000
00000000
00000100
00000000
,
00010000
00000000
00000000
00010000
00000000
00000000
00001000
00000000
01000000
00000000
00000000
00100000
00000000
00000000
10000000
00000000
,
00010000
00000000
00000000
01000000
00000000
00000000
00001000
00000000
00010000
00000000
00000000
00000100
00000000
00000000
00000010
00000000
,
00000001
00000000
00000010
00000000
00001000
00000000
00010000
00000000
00011000
00000000
00000000
01001000
00000000
00000000
01100000
00000000
,
00200000
00000000
00000000
00000000
00000000
00000000
00000000
00000000
10300000
00000000
00000000
01010000
00000000
00000000
00001000
00000000
,
00011000
00000000
00000000
00000110
00000000
00000000
00001002
00000000
00000000
00000000
00000000
00000000
00000013
00000000
00000010
00000000
,
00002100
00000000
00000000
00000000
00000000
00000000
00000000
00000000
00003001
00000000
00000000
00001010
00000000
00000000
00010000
00000000
,
00011000
00000000
00000000
01100000
00000000
00000000
20010000
00000000
00000000
00000000
31000000
00000000
10000000
00000000
00010000
00000000
,
02000000
00000000
00000000
00000000
03100000
00000000
01000000
00000000
01001000
00000000
00000000
00010100
00000000
00000000
00000100
00000000
,
00000110
00000000
00000000
00001001
00000000
00000000
00020100
00000000
00000000
00000000
00031000
00000000
00010000
00000000
00000010
00000000
,
00002000
00000000
00000001
00000000
00000100
00000000
00003010
00002000
,
00023000
00000000
10000000
00000000
01000000
00000000
00230000
00320000
,
00032000
00000000
00000001
00000000
00000100
00000000
00003010
00002000
,
00023000
00000000
10000000
00000000
01000000
00000000
00230000
00320000
,
00032000
00000000
00000000
00000000
00003100
00000000
00001000
00000100
00001000
00000000
00000000
00000000
00000001
00000000
00000100
00000000
,
00000010
00001000
00010000
01000000
00100000
10000000
00010000
00000000
,
20010000
00000000
00000000
00000000
,
00000000
00000000
00000000
00000000
00000000
00000000
00000000
00000000
00000000
00000000
00000000
00000000
00000000
31000000
00100000
00001000
,
00020000
00000000
00000000
00000010
00000000
00000000
00000000
00030100
,
00002000
00000000
00000000
00003002
00000000
00000000
00000203
00000000
00000000
00000000
00000320
00000000
00002030
00000000
00023000
00000000
,
00000000
02000000
00000000
00000000
00000000
00000000
00000000
00000000
,
00000000
00000000
00000000
00000000
,
00000000
00000000
00000000
00000000
,
03030000
00000000
00000000
00000000
;

//---------------dance-double - Talkion-EDP----------------
#NOTEDATA:;
#CHARTNAME:Talkion-EDP;
#STEPSTYPE:dance-double;
#DESCRIPTION:Talkion-EDP;
#DIFFICULTY:Hard;
#METER:15;
#RADARVALUES:0.656912,0.765019,0.330819,0.454876,0.727802,556,516,40,55,0,0,0,0,0,0.656912,0.765019,0.330819,0.454876,0.727802,556,516,40,55,0,0,0,0,0;
#CREDIT:Talkion;
#NOTES:
// measure 0
00000000
00000000
00000000
00000000
,  // measure 1
00000000
00000000
00000000
00000000
,  // measure 2
00000000
00000000
00000000
00000000
,  // measure 3
00000000
00000000
00000000
00000000
,  // measure 4
00000000
00000000
00000000
00000000
,  // measure 5
00000000
00000000
00000000
00000000
,  // measure 6
00000000
00000000
00000000
00000000
,  // measure 7
00021000
00000000
00000000
00000000
00030000
00000000
00001000
01000000
00010000
00000000
00000000
10010000
00000000
00000000
10000000
01000000
,  // measure 8
00100000
00000000
00000000
00101000
00000000
00000000
00010200
00000000
00000000
00000000
00000000
00001300
00000001
00000100
00000010
00010000
,  // measure 9
00002000
00000000
00000000
00000000
00003000
00000000
00010000
00001000
01000000
00000000
00000000
01100000
00000000
00000000
00100000
10000000
,  // measure 10
01000000
00000000
00000000
11000000
00000000
00000000
00210000
00000000
00000000
00000000
00001000
00000000
00301000
00000000
00010000
00000010
,  // measure 11
00002000
00000000
00000000
00000000
00003000
00000000
00000010
00010000
00001000
00000000
00000000
01001000
00000000
00000000
01000000
00100000
,  // measure 12
10000000
00000000
00000000
10010000
00000000
00000000
01002000
00000000
00000000
00000000
00013000
00000000
00000100
00000000
00000010
00000000
,  // measure 13
00000001
00000000
00000000
00000001
00000000
00000000
00000100
00000000
00001000
00000000
00000000
00001000
00000000
00000000
00020000
00000000
,  // measure 14
00031000
00010000
01000000
00100000
00001000
00010000
00000100
00000010
00001000
00010000
00000100
00000010
,  // measure 15
00000001
00001000
00000010
00000001
00000010
00001000
00010000
01000000
10000000
01000000
00020000
20000000
,  // measure 16
30030000
00000000
00000000
01100000
,  // measure 17
00012000
00000000
00000000
00000000
00003100
00000000
00000010
00010000
00001000
00000000
00000000
00000010
00000100
00000000
00010000
00001000
,  // measure 18
01000000
00000000
00000000
00100000
01000000
00000000
00001000
00000000
00010000
00000000
00000000
00000010
00001000
00000001
00000100
00000010
,  // measure 19
00020000
00000000
00000000
00000000
00031000
00000000
01000000
00001000
00010000
00000000
00000000
01000000
00100000
00000000
00001000
00010000
,  // measure 20
01000000
00000000
00000000
10000000
00010000
00000000
10000000
00000000
00100000
00000000
01000000
00000000
01000000
00000000
00001000
00010000
,  // measure 21
00000200
00000000
00000000
00000000
00000310
00000000
00001000
00000010
00000100
00000000
00000000
00010000
00001000
00000000
00000010
00000100
,  // measure 22
00001000
00000000
00000000
00000001
00000010
00000000
00000001
00000000
00000100
00000000
00001000
00010000
00001000
00000000
01000000
00000000
,  // measure 23
00200000
00000000
00000000
01300000
00000000
00000000
00001000
00000000
00200000
00000000
00000000
01300000
00000000
00000000
00020000
00000000
,  // measure 24
00031000
00000000
00010000
00000100
00000010
00000000
00000100
00000010
00000001
00000000
00000000
00001000
00000000
00000000
00000010
00000000
,  // measure 25
00000100
00000001
00001000
00000100
00000010
00001000
00010000
00000010
,  // measure 26
00001000
00000000
00010000
00000000
01000000
00000000
00100000
01000000
00100000
10000000
00000000
10000000
00000000
00010000
01000000
00000000
,  // measure 27
00100000
10000000
00010000
00100000
01000000
00010000
00001000
01000000
,  // measure 28
00010000
00000000
00001000
00000000
00000010
00000000
00000100
00000010
00000100
00000001
00000000
00001000
00000000
00001000
00000010
00000000
,  // measure 29
00000100
00000001
00001000
00000100
00000001
00001000
00000010
00001000
,  // measure 30
00010000
00000000
00100000
00000000
00010000
00000000
00001000
00010000
00001000
01000000
00000000
00100000
00000000
10000000
00000000
10000000
,  // measure 31
00020000
00000000
00000000
00130000
00001000
00000000
01000000
00000000
00020000
00000000
00000000
00130000
00001000
00000000
01000000
00000000
,  // measure 32
00010000
00001000
00000100
00000010
00001000
00010000
00100000
01000000
,  // measure 33
00002000
00000000
00000000
00013000
00000100
00000000
00000010
00000000
00000002
00000000
00000000
00001003
00000010
00000000
00000200
00000000
,  // measure 34
00000301
00001000
00000100
00010000
00001000
00000000
00001000
00000000
,  // measure 35
01010000
00000000
00000000
00000000
00001100
00000000
00000000
00000000
01010000
00000000
00000000
00011000
00000000
00000000
00000010
00000000
,  // measure 36
00001010
00000000
00000000
00000000
00110000
00000000
00000000
00000000
00001010
00000000
00000000
00011000
00000000
00000000
01000000
00000000
,  // measure 37
01010000
00000000
00000000
00000000
00001100
00000000
00000000
00000000
01010000
00000000
00000000
00011000
00000000
00000000
00000010
00000000
,  // measure 38
00001010
00000000
00000000
00000000
00000101
00000000
00000000
00000000
00001001
00000000
00001000
00000100
00000000
00000100
00010000
00000000
,  // measure 39
00002000
00000000
00000000
00000000
01003000
00000000
00001000
01000000
00010000
00000000
10000000
00000000
01000000
00000000
00100000
00000000
,  // measure 40
00002000
00000000
00000000
00000000
00103000
00000000
00001000
00100000
00010000
00000000
10000000
00000000
00100000
00000000
01000000
00000000
,  // measure 41
00002000
00000000
00000000
00000000
00013000
00000000
00000100
00001000
00000001
00000000
00000100
00000000
00000010
00000000
00010000
00000000
,  // measure 42
00002000
00003020
00000032
00000203
,  // measure 43
00001300
00000000
00000000
00010000
00001000
00000000
00020000
00000000
01030000
00000000
00000000
10000000
01000000
00000000
00020000
00000000
,  // measure 44
00031000
00000000
01000000
00010000
01000000
00000000
00001000
00000000
00010000
00000000
00000000
00000100
00000010
00000000
00000002
00000000
,  // measure 45
00001003
00000001
00001000
00000001
00000100
00000010
00000100
00000010
00001000
00000010
00010000
00000010
00001000
00000010
00020000
00002000
,  // measure 46
00033000
00000000
00000000
01100000
,  // measure 47
00010000
01000000
00001000
00010000
00000010
00000100
00000000
00001000
00000000
00010000
00001000
00100000
00000000
01000000
00010000
00001000
,  // measure 48
00000010
00000100
00000000
00010000
00000000
00010000
00000000
00001000
01000000
00100000
00000000
01000000
00001000
00010000
00000010
00000000
,  // measure 49
00001000
00000010
00010000
00001000
01000000
00100000
00000000
00010000
00000000
00001000
00010000
00000100
00000000
00000010
00001000
00010000
,  // measure 50
00000100
00000010
00000000
00000001
00000000
00001000
00000000
00000020
00000000
00010030
00001000
00100000
00010000
10000000
00100000
00000000
,  // measure 51
02000000
00000000
00000000
00000000
03001000
00010000
00000000
00000100
00000000
00000010
00001000
00010000
00000000
00001000
01000000
00100000
,  // measure 52
10000000
00010000
00000000
00100000
00000000
00100000
00000000
00001000
00010000
00000100
00000000
00000010
00000100
00000001
00000100
00001000
,  // measure 53
00000001
00000000
00000000
00000100
00000000
00000000
00000100
00000000
00000010
00000000
00000000
00010000
00000000
00000000
00010000
00000000
,  // measure 54
00001000
01000000
00010000
01000000
00001000
01000000
00010000
01000000
00001000
00000000
00000000
00000100
00000000
00000000
00000101
00000000
,  // measure 55
00000002
00000000
00000000
00000000
00000000
00000000
00000103
00001000
00010000
00000000
00000000
01100000
00000000
00000000
10000000
00010000
,  // measure 56
00100000
00000000
00000000
00101000
00000000
00000000
00010100
00000000
00000100
00000000
00000002
00000000
00000203
00000000
00010300
00000000
,  // measure 57
00022000
00000000
00000000
00000000
00033000
00000000
00001000
01000000
00100000
00000000
00000000
10010000
00000000
00000000
10000000
01000000
,  // measure 58
00010000
00000000
00000000
01100000
00000000
00000000
00011000
00000000
00010000
00000000
00000010
00000000
00000010
00000000
00000100
00000010
,  // measure 59
00002000
00000000
00000000
00000000
00003001
00000000
00000010
00001000
00010000
00000000
00000000
01100000
00000000
00000000
10000000
00010000
,  // measure 60
01000000
00000000
00000000
01001000
00000000
00000000
00010020
00000000
00000000
00000000
00000130
00000000
00000010
00000000
00001000
00000000
,  // measure 61
00000001
00000000
00000100
00000010
00001000
00000000
00000010
00010000
00001000
00000000
00010000
00001000
01000000
00000000
00200000
00000000
,  // measure 62
10300000
00000000
00100000
01000000
00010000
00000000
01000000
00001000
00010000
00000000
00000010
00000000
00000200
00000000
00000320
00000000
,  // measure 63
00010030
00000000
00001000
00100000
00010000
00000000
01000000
00001000
00010000
00000000
00000010
00010000
00001000
00000000
00020000
00000000
,  // measure 64
00030100
00000000
00000010
00000001
00001000
00000000
00000001
00001000
00000100
00010000
00000100
00001000
00000002
00000000
00000203
00000000
,  // measure 65
00001300
00000000
00000000
00000000
00000000
00000000
00001000
00000000
00000000
00010000
00001000
00010000
00001000
00000000
00000000
00000000
00000000
00000000
01000000
00000000
00000000
00020000
00000000
00000000
,  // measure 66
10030000
00010000
00001000
00000001
00000100
00000100
00000010
00000000
,  // measure 67
00021000
00000000
00000000
00000000
,  // measure 68
00000000
00000000
00000000
00000000
00000000
00000000
00000000
00000000
00000000
00000000
00000000
00000000
00000000
00031000
01000000
00100000
,  // measure 69
20000000
00000000
00000000
01000000
00000000
00000000
00000000
30010000
,  // measure 70
02000000
00000000
00000000
00000000
00000000
00000000
00000000
00000000
00000000
03002000
00000000
00000000
00000000
00000000
00000000
00000000
00000000
00000000
00003200
00000000
00000000
00000000
00000000
00000000
00000000
00000000
00000000
00000000
00000000
00000000
00000301
00000000
00000000
00000000
00000000
00000000
00001000
00000000
00000010
00000000
00001000
00000000
00000020
00000000
00000000
00000000
00000000
00000000
,  // measure 71
00000000
00000002
00000000
00000000
00000000
00000000
00000000
00000000
,  // measure 72
00000000
00000000
00000000
00000000
,  // measure 73
00000000
00000000
00000000
00000000
,  // measure 74
00000033
00000000
00000000
00000000
;
