#TITLE:EMERALD JEALOUSY;
#ARTIST:RearDawn;
#BANNER:EMERALD JEALOUSY.png;
#BACKGROUND:EMERALD JEALOUSY-bg.png;
#MUSIC:EMERALD JEALOUSY.ogg;
#SAMPLESTART:37.5;
#SAMPLELENGTH:15;
#BPMS:0=160,230=165,236=175,240=180,242=185,243=190,246=195,250=200,252=205,254=210,256=212;

//---------------dance-single - Kekkle-DSP----------------
#NOTES:
     dance-single:
     Kekkle:
     Medium:
     12:
     0.479100,0.595617,0.221344,0.301833,0.050306,500,467,33,45,0,0,0.479100,0.595617,0.221344,0.301833,0.050306,500,467,33,45,0,0:
0000
0000
0000
0000
,
0000
0000
0000
0000
,
0000
0000
0000
0000
,
0000
0000
0000
0000
,
0000
0000
0000
0000
,
0002
0000
0000
0000
,
0203
0000
0000
0000
,
0320
0000
0000
0000
,
2030
0000
0002
3003
,
0001
0000
0100
0000
0010
1000
0001
0000
,
1000
0000
0100
0000
0010
0001
1000
0000
,
0001
0000
0010
0000
0100
1000
0001
0000
,
1000
0000
0010
0100
0010
1000
0001
0000
,
1000
0000
0100
0000
0010
0001
0100
0000
,
0001
0000
0100
0000
0010
1000
0100
0000
,
1000
0000
0010
0000
0100
0001
0010
0000
,
0100
0000
1000
0010
0100
0001
1000
0000
,
1002
0000
0013
0200
,
0000
0000
1300
0000
0001
1000
0002
0000
,
0000
0000
0000
0103
0010
1000
0010
0002
,
0000
0000
0013
0200
0000
0301
1000
0000
,
0100
0000
0000
0000
0100
0000
0000
0000
0100
0000
0000
0010
0000
0000
0001
0000
,
1000
0000
0000
0000
1000
0000
0000
0000
1000
0000
0000
0010
0000
0000
0100
0000
,
0001
0000
0000
0000
0001
0000
0000
0000
0001
0000
0000
1000
0000
0000
0100
0000
,
0000
0010
0100
0000
1000
0001
0010
0000
,
0002
0010
0010
0010
,
2003
0010
0010
0010
,
3002
0100
0100
0100
,
2003
0100
3100
0110
,
0010
0001
1000
0000
0010
1000
0001
0000
,
0100
0001
1000
0000
0100
1000
0001
0000
,
1000
0010
0100
0001
0010
0100
1000
0001
,
0200
0010
0010
0310
,
1001
0000
1000
0100
1000
0100
0001
0000
,
1000
0010
1000
0010
0001
1000
0001
0000
,
1001
0000
1000
0000
0001
0100
1000
0000
,
0001
0010
0001
0010
1000
0001
1000
0000
,
1001
0000
1000
0010
0100
0001
1000
0100
,
0010
0100
0001
0000
1000
0010
0100
0010
,
0002
0000
0013
0100
0010
0001
1000
0010
,
0100
0010
0001
0000
1000
0100
0020
0000
,
0230
0000
0000
0000
0301
0000
0000
0000
1001
0000
0000
1001
0000
0000
1000
0000
,
0100
0010
0001
2000
0000
0000
3010
0000
,
0100
0000
0000
0000
0100
0000
0000
0000
0001
0000
0000
1000
0000
0000
0100
0000
,
0010
1000
0010
0002
0000
0000
1003
0000
,
0001
0000
0000
0000
1000
0000
0000
0000
0010
0000
0000
0110
0000
0000
0110
0000
,
0100
0001
0002
0000
1003
0100
0010
0001
,
2000
0010
0001
0100
,
3002
0100
1000
0003
,
1001
0000
0000
0000
1000
0000
0000
0100
0000
0010
0000
0000
0001
0000
0000
0000
,
1000
0000
0000
0000
0001
0000
0000
0100
0000
0010
0000
0000
1000
0000
0000
0000
,
0001
0000
0000
0000
1000
0000
0000
0010
0000
0100
0000
0000
0001
0000
0000
0000
,
1000
0000
0001
0010
0100
1000
0001
0000
,
0100
0000
0000
0000
0100
0000
0000
0000
0100
0000
0000
0001
0000
0000
1000
0000
,
0100
0000
0000
0000
0100
0000
0000
0000
0100
0000
0000
0010
0000
0000
0001
0000
,
1000
0000
0000
0000
1000
0000
0000
0000
1000
0000
0000
0010
0000
0000
0100
0000
,
0000
0001
1000
0000
0100
0010
0001
0000
,
2000
0010
0001
0100
,
3002
0010
1000
0100
,
2003
0100
0001
0010
,
3002
0100
0103
0110
,
0010
1000
0001
0010
,
0100
1000
0001
0100
,
0010
1000
0001
0000
0010
0001
1000
0000
,
1001
0000
0000
0000
,
0002
0000
0000
0000
,
0023
0000
0000
0000
,
0230
0000
0000
0000
0000
1000
0000
2300
,
0000
0000
3001
0000
,
2000
0000
0000
0000
,
3020
0000
0000
0000
,
0230
0000
0000
0000
0000
0001
0000
0302
,
0000
0000
1003
0000
,
0001
0000
1001
0000
,
1000
0100
0010
0000
1001
0000
0000
0000
,
1000
0000
1001
0000
,
0001
0100
0010
0000
1001
0000
0000
0000
,
0001
0000
1001
0000
,
1000
0010
0100
0000
1001
0000
0000
0000
,
0001
0010
0100
0000
1000
0000
0002
2000
,
0000
0000
3003
0000
,
0001
0000
0000
1001
0000
1000
0010
0100
,
0010
0000
0000
0110
0000
0000
0100
0001
,
1000
0000
0000
1100
0000
0001
0000
1001
,
0000
0000
0000
1010
0000
0000
0010
0100
,
0001
0000
0000
1001
0000
1000
0001
0010
,
0100
0000
0000
0110
0000
0000
0010
0001
,
1000
0000
0000
1010
0000
0001
0000
1001
,
0000
0000
0000
1100
0000
0000
0001
0100
,
0010
0000
0100
1000
0000
0100
0001
1000
,
0100
0000
0010
1000
0000
0010
0001
1000
,
0001
0000
0100
1000
0000
0100
0001
0010
,
0000
0100
1000
0010
0000
0000
0100
0001
,
1000
0000
0100
0001
0000
0100
0010
0001
,
1000
0000
0010
0001
0000
0010
1000
0001
,
0010
0010
0100
0100
,
0010
0010
0100
0100
,
1001
0000
0000
1001
0000
0000
0001
0000
,
0100
0010
1000
0001
0010
0100
1000
0000
,
1001
0000
0000
0001
0000
1100
0000
1000
,
0001
1000
0002
0000
0100
0000
0103
0010
,
2000
0000
0000
3002
0000
0000
0023
0000
,
0000
0230
0000
0000
2300
0000
0000
0000
,
3001
0000
0100
0010
1000
0010
0100
0000
,
0001
0000
0010
0100
1000
0100
0010
0000
,
0001
0000
0100
0010
1000
0010
0100
0000
,
0001
0000
0100
1000
0000
0100
0001
0000
,
1000
0000
0100
0010
0001
0010
0100
0000
,
1000
0000
0010
0100
0001
0100
0010
0000
,
1000
0000
0100
0010
0001
0010
0100
0000
,
1000
0000
0001
0100
0000
0220
0000
0000
,
0330
0000
0000
0000
;

//---------------dance-single - Kekkle-ESP----------------
#NOTES:
     dance-single:
     Kekkle:
     Hard:
     16:
     0.689904,0.930652,0.576837,0.375615,0.301833,720,634,86,56,0,0,0.689904,0.930652,0.576837,0.375615,0.301833,720,634,86,56,0,0:
0000
0000
0000
0000
,
0000
0000
0000
0000
,
0000
0000
0000
0000
,
0000
0000
0000
0000
,
0000
0000
0000
0000
,
2000
0000
0000
0000
,
3200
0000
0000
0000
,
0320
0000
0000
0000
,
0032
0000
2000
3003
,
0001
0100
0001
0100
0010
1000
0002
0000
,
1003
0000
0100
0000
1000
0000
0100
0010
0100
0000
0010
0000
0001
0000
1000
0000
,
0001
0000
0100
0000
0001
0000
0100
0000
0010
0000
1000
0010
1000
0000
0001
0000
,
1000
0000
0100
1000
0100
0000
1000
0001
1000
0000
0001
0000
0100
0010
0100
0000
,
0001
1000
0100
0010
0001
1000
0020
0000
,
0130
0000
0001
0000
1000
0000
0100
0010
0100
0000
0010
0001
0010
0000
0001
0000
,
1000
0000
0010
0000
0100
0000
0001
0000
1000
0000
0100
0010
0100
0000
0010
0000
,
0001
0000
1000
0010
1000
0000
0001
0010
0001
0000
1000
0000
0010
0100
0010
0000
,
2000
0000
3001
0020
,
0000
0000
0000
0000
1030
0000
0010
0000
0001
0000
1000
0010
1000
0000
0001
0000
,
0201
0000
0000
0000
0000
0000
0310
1000
0010
0000
1000
0001
1000
0000
0200
0000
,
0000
0000
0000
0000
0301
0000
1000
0000
0010
0000
0001
1000
0001
0000
0000
0000
,
0101
0000
0000
0000
1100
0000
0000
0000
0101
0000
0000
0001
0000
0000
1000
0000
,
1010
0000
0000
0000
0011
0000
0000
0000
1010
0000
0000
1000
0000
0000
0001
0000
,
0011
0000
0000
0000
1010
0000
0000
0000
1100
0000
0000
1000
0000
0000
0001
0000
,
0000
0000
0110
0000
1001
0000
0000
0000
0001
0000
0010
0100
0000
0100
0010
0000
,
0002
0000
0000
0000
0100
0000
0000
0000
1000
0000
0000
0010
0000
0000
0010
0000
,
2003
0000
0000
0000
0010
0000
0000
0000
0001
0000
0000
0100
0000
0000
0100
0000
,
3002
0000
0000
0000
0100
0000
0000
0000
1000
0000
0000
0010
0000
0000
0013
0000
,
0001
0000
0000
0001
0000
0000
0001
0000
1000
0000
0000
1000
0020
0000
0000
0000
,
0130
0001
0100
0001
1000
0100
1000
0100
,
0010
0001
0010
0001
1000
0010
1000
0010
,
0100
0001
0100
0001
1000
0100
1000
0100
0010
0001
0010
0001
1000
0010
1000
0010
,
0200
0001
0001
0301
,
2001
0000
3100
0001
0100
0010
0100
0001
,
1000
0010
0100
0010
1000
0010
0001
1000
,
0020
0000
0000
0000
0130
0000
0000
0000
0001
0000
0001
0000
0001
0000
1000
0001
,
1000
0000
1000
0000
1000
0000
1000
0000
0010
0100
0010
0100
0010
0000
0000
0000
,
1001
0000
1000
0100
0010
0100
0001
1000
,
0010
0001
1000
0010
0001
0010
0100
0001
,
2000
0000
0000
0000
3001
0000
0010
0000
1000
0000
0010
0100
0010
0000
0001
0000
,
1000
0010
0001
1000
0100
0001
0101
0000
,
1100
0000
0000
0000
2010
0000
0000
0000
0001
0000
0000
3100
0000
0000
0010
0001
,
1000
0000
0010
0000
0010
0000
0010
0000
1000
0000
0000
1000
0100
0000
0010
0000
,
0002
0000
0000
0000
2003
0000
0000
0000
3020
0000
0000
0100
0000
0000
0130
0001
,
1000
0001
0020
0200
0000
0000
0330
0000
,
0110
0000
0000
0000
1001
0000
0000
0000
0011
0000
0000
1010
0000
0000
0011
0000
,
0001
1000
0001
0100
0020
0000
0000
0000
0130
0000
0001
1000
0001
0000
0010
0000
,
0210
0000
1300
0001
0100
0000
0001
1000
,
0100
0001
1000
0010
0001
0000
0110
0000
,
1001
0000
0000
0000
1000
0000
0010
0100
0001
0100
0000
0001
1000
0000
0000
0000
,
0001
0000
0100
0000
0010
0000
1000
0010
1000
0001
0000
1000
0100
0000
0000
0000
,
0010
0000
0100
0000
1000
0000
0001
0100
0010
0100
0000
0010
1000
0000
0000
0000
,
0001
1000
0001
0000
0010
0000
0100
1000
0001
0000
1000
0001
0100
0001
0000
0000
,
0011
0000
0000
0000
1010
0000
0000
0000
1100
0000
0000
1000
0000
0000
0001
0000
,
0101
0000
0000
0000
1100
0000
0000
0000
1010
0000
0000
0010
0000
0000
0100
0000
,
0101
0000
0000
0000
0011
0000
0000
0000
1001
0000
0000
1000
0000
0000
0001
0000
,
0000
0000
0110
0000
1001
0000
0000
0000
1000
0000
0100
0010
0000
0010
0001
0000
,
2000
0000
0000
0000
0100
0000
0000
0000
0001
0000
0000
0010
0000
0000
0010
0000
,
3002
0000
0000
0000
0100
0000
0000
0000
1000
0000
0000
0010
0000
0000
0010
0000
,
2003
0000
0000
0000
0010
0000
0000
0000
0001
0000
0000
0100
0000
0000
3100
0000
,
1000
0000
0000
1000
0000
0000
1000
0000
0001
0000
0000
0001
0200
0000
0000
0000
,
0310
1000
0010
1000
0001
0010
0001
0010
,
0100
1000
0100
1000
0001
0100
0001
0100
,
0010
0000
1000
0000
0010
0000
0100
0000
0001
1000
0001
1000
0001
1000
0001
1000
,
0001
0000
0000
0000
,
2000
0000
0000
0000
,
3200
0000
0000
0000
,
0320
0000
0000
0000
0000
0100
0000
0032
,
0000
0000
2003
0000
,
3002
0000
0000
0000
,
0203
0000
0000
0000
,
0320
0000
0000
0000
0000
0100
0000
2030
,
0000
0000
3002
0000
,
1003
0000
0002
0000
0013
0000
0010
0001
,
1000
0001
0200
0000
0301
0000
0000
0000
,
0100
0010
2000
0000
3010
0000
0010
1000
,
0001
1000
0200
0000
1300
0000
0000
0100
,
0010
0000
0002
0000
0103
0000
0100
0001
,
1000
0001
0020
0000
0031
0000
0001
1000
,
0100
1000
0002
0000
0103
0000
0200
0020
,
0000
0000
0330
0000
,
1001
0000
0001
0011
0000
0010
0100
1000
,
1001
0000
0000
0000
0001
0000
0101
0000
0000
0000
0100
0000
0010
1000
0010
1000
,
0010
0000
1000
1001
0000
0000
0001
0011
,
0000
0010
0001
1001
0000
1000
0010
0100
,
0101
0000
0001
1001
0000
1000
0100
0010
,
0011
0000
0000
0000
0001
0000
1001
0000
0000
0000
1000
0000
0001
0100
0001
0100
,
0001
0000
1000
1100
0000
0100
1000
1001
,
0000
0000
0001
0000
0100
0000
0010
0000
0110
0000
0000
0000
1000
0001
1000
0000
,
1001
0001
0010
1100
0000
1000
1001
0000
,
0101
0000
0100
0000
0010
0000
1001
0000
0000
0000
0001
0000
1000
0100
1000
0100
,
1000
0001
0100
1010
0000
0000
1000
1001
,
0000
0000
0001
0000
0100
0000
0110
0000
0000
0000
0010
0000
1000
0001
1000
0000
,
1001
0001
0100
1010
0000
1000
1001
0000
,
0011
0000
0010
0000
0100
0000
1001
0000
0000
0000
0001
0000
1000
0010
1000
0010
,
1000
0001
0010
0000
0001
1000
0010
0000
,
1000
0100
0010
0000
0001
0100
0010
0000
,
1001
0000
0100
1001
0000
0001
0010
0000
,
0100
0000
1000
0000
0001
0000
0100
0010
0100
0010
0100
0000
0010
0000
0000
0000
,
1001
0000
0010
0100
0000
1001
0000
1000
,
1000
0000
1000
0000
2000
0000
0000
0000
3200
0000
0000
0000
0310
0001
1000
0001
,
0100
0000
0000
1010
0000
0000
0011
0000
,
0000
0101
0000
0000
2002
0000
3003
0000
,
1100
0000
0100
1000
0010
1010
0000
0000
,
0101
0000
0100
0001
0010
0011
0000
0000
,
1100
0000
0100
1000
0010
1010
0000
0000
,
1000
0000
0001
0000
0010
0000
0011
0000
0000
0000
1100
0000
0000
0000
1000
0001
,
1000
0000
0100
1000
0010
1010
0000
0000
,
0101
0000
0100
0001
0010
0011
0000
0000
,
1100
0000
0000
0000
1001
0000
0001
0000
0000
0000
0010
0001
1000
0000
0001
1000
,
0010
0000
0100
0110
0000
2002
0000
0000
,
3003
0000
0000
0000
;

//---------------dance-double - Kekkle-DDP----------------
#NOTES:
     dance-double:
     Kekkle:
     Medium:
     12:
     0.453229,0.595617,0.127441,0.281711,0.050306,473,454,19,42,0,0,0.453229,0.595617,0.127441,0.281711,0.050306,473,454,19,42,0,0:
// measure 0
00000000
00000000
00000000
00000000
,  // measure 1
00000000
00000000
00000000
00000000
,  // measure 2
00000000
00000000
00000000
00000000
,  // measure 3
00000000
00000000
00000000
00000000
,  // measure 4
00000000
00000000
00000000
00000000
,  // measure 5
20000000
00000000
00000000
00000000
,  // measure 6
30020000
00000000
00000000
00000000
,  // measure 7
00230000
00000000
00000000
00000000
,  // measure 8
00302000
00000000
00020000
00033000
,  // measure 9
00001000
00010000
00000010
00000010
,  // measure 10
00010000
00001000
00100000
00100000
,  // measure 11
00001000
00010000
00000100
00000100
,  // measure 12
00010000
00001000
00001000
00001000
,  // measure 13
00100000
01000000
10000000
10000000
,  // measure 14
00100000
01000000
00001000
00001000
,  // measure 15
00010000
00000100
00000010
00000010
,  // measure 16
00000001
00001000
00001000
00001000
,  // measure 17
00000020
00000000
00010030
00002000
,  // measure 18
00000000
00000000
00013000
00000000
01000000
00100000
02000000
00000000
,  // measure 19
00000000
00000000
00000000
13000000
00010000
00100000
00001000
00020000
,  // measure 20
00000000
00000000
00030010
00000200
00000000
00000301
00001000
00000000
,  // measure 21
00000010
00000000
00000000
00000000
00000010
00000000
00000000
00000000
00000010
00000000
00000000
00000100
00000000
00000000
00001000
00000000
,  // measure 22
00010000
00000000
00000000
00000000
00010000
00000000
00000000
00000000
00010000
00000000
00000000
00001000
00000000
00000000
00100000
00000000
,  // measure 23
01000000
00000000
00000000
00000000
01000000
00000000
00000000
00000000
01000000
00000000
00000000
10000000
00000000
00000000
00010000
00000000
,  // measure 24
00000000
01000000
00001000
00000000
00010000
00001000
00010000
00000000
,  // measure 25
00002000
00100000
00100000
00100000
,  // measure 26
00023000
00000010
00000010
00000010
,  // measure 27
00032000
01000000
01000000
01000000
,  // measure 28
00023000
00000100
00030100
00000110
,  // measure 29
00000010
00000001
00001000
00000000
00000010
00000100
00001000
00000000
,  // measure 30
00010000
00100000
01000000
00000000
00100000
10000000
00010000
00000000
,  // measure 31
10000000
01000000
00100000
00010000
01000000
00001000
00010000
00000000
,  // measure 32
00011000
00000000
00000000
00000000
,  // measure 33
00011000
00000000
00001000
00000100
00001000
00000100
00000001
00000000
,  // measure 34
00000010
00001000
00000010
00001000
00010000
00000010
00010000
00000000
,  // measure 35
00011000
00000000
00001000
00000000
00010000
00100000
10000000
00000000
,  // measure 36
00010000
00100000
00010000
00100000
10000000
00100000
00010000
00000000
,  // measure 37
00101000
00000000
00100000
00001000
00010000
00001000
00000100
00000000
,  // measure 38
00000001
00000100
00000001
00000100
00001000
00010000
00001000
00000000
,  // measure 39
00010010
00000000
00000010
00010000
00001000
00010000
01000000
00000000
,  // measure 40
10000000
01000000
10000000
01000000
00010000
00001000
00020000
00000000
,  // measure 41
00032000
00000000
00000000
00000000
00103000
00000000
00000000
00000000
00100000
00000000
00000000
00100000
00000000
00000000
00001000
00000000
,  // measure 42
00010000
00000010
00000100
00000002
00000000
00000000
00001003
00000000
,  // measure 43
00000001
00000000
00000000
00000000
00000100
00000000
00000000
00000000
00001000
00000000
00000000
00001000
00000000
00000000
00010000
00000000
,  // measure 44
00100000
01000000
00010000
20000000
00000000
00000000
30010000
00000000
,  // measure 45
10000000
00000000
00000000
00000000
00010000
00000000
00000000
00000000
00101000
00000000
00000000
00101000
00000000
00000000
00100000
00000000
,  // measure 46
00001000
00010000
00000020
00000000
00000130
00001000
00010000
00000100
,  // measure 47
00010000
00000100
00000001
00000100
,  // measure 48
00010000
01000000
20000000
00000000
,  // measure 49
30010000
00000000
00000000
00000000
10000000
00000000
00000000
01000000
00000000
00100000
00000000
00000000
00001000
00000000
00000000
00000000
,  // measure 50
00010000
00000000
00000000
00000000
00000010
00000000
00000000
00000100
00000000
00000001
00000000
00000000
00001000
00000000
00000000
00000000
,  // measure 51
00000001
00000000
00000000
00000000
00000010
00000000
00000000
00000100
00000000
00010000
00000000
00000000
00001000
00000000
00000000
00000000
,  // measure 52
01000000
00000000
00010000
10000000
01000000
00100000
01000000
00000000
,  // measure 53
10000000
00000000
00000000
00000000
10000000
00000000
00000000
00000000
10000000
00000000
00000000
00100000
00000000
00000000
01000000
00000000
,  // measure 54
00001000
00000000
00000000
00000000
00001000
00000000
00000000
00000000
00001000
00000000
00000000
00010000
00000000
00000000
00000100
00000000
,  // measure 55
00000010
00000000
00000000
00000000
00000010
00000000
00000000
00000000
00000010
00000000
00000000
00000001
00000000
00000000
00001000
00000000
,  // measure 56
00000000
00000010
00010000
00000000
00001000
00010000
00001000
00000000
,  // measure 57
00020000
00000010
00000010
00000010
,  // measure 58
00032000
00100000
00100000
00100000
,  // measure 59
00023000
00000100
00000100
00000100
,  // measure 60
00032000
01000000
01003000
01100000
,  // measure 61
00100000
10000000
00010000
00100000
,  // measure 62
00001000
00010000
00000010
00000100
,  // measure 63
00000001
00001000
00000100
00000000
00001000
00000100
00010000
00000000
,  // measure 64
00011000
00000000
00000000
00000000
,  // measure 65
00002000
00000000
00000000
00000000
,  // measure 66
02003000
00000000
00000000
00000000
,  // measure 67
03200000
00000000
00000000
00000000
00000000
10300000
00000000
00020000
,  // measure 68
00000000
00000000
00130000
00001000
,  // measure 69
00020000
00000000
00000000
00000000
,  // measure 70
00030200
00000000
00000000
00000000
,  // measure 71
00000320
00000000
00000000
00000000
00000000
00000031
00000000
00002000
,  // measure 72
00000000
00000000
00003010
00010000
,  // measure 73
00001000
00000000
01001000
00000000
,  // measure 74
01000000
00001000
00010000
00001000
,  // measure 75
00010000
00000000
00010100
00000000
,  // measure 76
00000100
00010000
00001000
00010000
,  // measure 77
00001000
00000000
00101000
00000000
,  // measure 78
00100000
00001000
00010000
00001000
,  // measure 79
00010000
00000000
00000000
00000000
00000010
00000000
00002000
00000002
,  // measure 80
00000000
00000000
00003003
00000000
,  // measure 81
00000001
00000000
00000100
00000010
00000000
00000000
00000100
00000000
,  // measure 82
00001000
00000000
00010000
00001000
00000000
00100000
00010000
10000000
,  // measure 83
00100000
00000000
01000000
00010000
00000000
01000000
00001000
00010000
,  // measure 84
00000000
00000000
00000000
00011000
00000000
00000000
00001000
00010000
,  // measure 85
00000010
00000000
00000100
00000001
00000000
00000000
00001000
00000000
,  // measure 86
00000100
00000000
00000010
00001000
00000000
00010000
00000010
00001000
,  // measure 87
00000010
00000000
00010000
00001000
00000000
01000000
00100000
10000000
,  // measure 88
00000000
00000000
00000000
10010000
00000000
00000000
00010000
10000000
,  // measure 89
01000000
00000000
00100000
01000000
00000000
00100000
00001000
00000000
,  // measure 90
00010000
00000000
00000010
00001000
00000000
00000010
00000100
00000001
,  // measure 91
00001000
00000000
00000010
00000100
00000000
00001000
00010000
00000010
,  // measure 92
00000000
00010000
00001000
00100000
00000000
00000000
00001000
01000000
,  // measure 93
00010000
00000000
01000000
00100000
00000000
10000000
00010000
00000000
,  // measure 94
00100000
00000000
01000000
00010000
00000000
00001000
00100000
00010000
,  // measure 95
00100000
00100000
00001000
00001000
,  // measure 96
00010000
00010000
00000010
00000010
,  // measure 97
00001001
00000000
00000000
00001001
00000000
00000000
00000001
00000000
,  // measure 98
00000100
00000010
00000100
00001000
00010000
00000010
00010000
00000000
,  // measure 99
00011000
00000000
00001000
01000000
00000000
00100000
00000000
10000000
,  // measure 100
00010000
10000000
00020000
00000000
01030000
00000000
00100000
10000000
,  // measure 101
00020000
00000000
00000000
00230000
00000000
00000000
00302000
00000000
,  // measure 102
00000000
00023000
00000000
00000000
00030020
00000000
00000000
00000000
,  // measure 103
00000130
00000000
00000010
00000000
00000100
00001000
00000000
00010000
,  // measure 104
00100000
00000000
10000000
00000000
01000000
00010000
00000000
00001000
,  // measure 105
00000010
00000000
00000001
00000000
00000100
00001000
00000000
00010000
,  // measure 106
00100000
00000000
10000000
00010000
00000000
00100000
01000000
00100000
,  // measure 107
00001000
00000000
00010000
00000010
00000100
00000010
00000000
00000000
,  // measure 108
00010000
00000000
00001000
00100000
01000000
00100000
00000000
00000000
,  // measure 109
00001000
00000000
00010000
00000010
00000100
00000010
00010000
00001000
,  // measure 110
00100000
00000000
01000000
10000000
00000000
20020000
00000000
00000000
,  // measure 111
30030000
00000000
00000000
00000000
;

//---------------dance-double - Kekkle-EDP----------------
#NOTES:
     dance-double:
     Kekkle:
     Hard:
     15:
     0.599833,0.818974,0.295126,0.315248,0.194515,626,582,44,47,0,0,0.599833,0.818974,0.295126,0.315248,0.194515,626,582,44,47,0,0:
00000000
00000000
00000000
00000000
,
00000000
00000000
00000000
00000000
,
00000000
00000000
00000000
00000000
,
00000000
00000000
00000000
00000000
,
00000000
00000000
00000000
00000000
,
00000002
00000000
00000000
00000000
,
00000203
00000000
00000000
00000000
,
00002300
00000000
00000000
00000000
,
00023000
00000000
00002000
00033000
,
00010000
01000000
10000000
00010000
01000000
00100000
00010000
00000000
,
00001000
00000100
00000001
00001000
00000100
00000010
00001000
00000000
,
00010000
00100000
10000000
00010000
00100000
01000000
00010000
00000000
,
00001000
00000010
00000001
00001000
00000010
00000010
00000100
00000100
,
00001000
00010000
00100000
00010000
00001000
00100000
01000000
00000000
,
00010000
00001000
00000010
00001000
00010000
00000010
00000100
00000000
,
00001000
00010000
01000000
00010000
00001000
01000000
00100000
00000000
,
00010000
00001000
00000100
00001000
00010000
00010000
00000100
00000100
,
00000020
00000000
00000031
00002000
,
00000000
00000000
00000000
00000000
00003010
00000000
00000100
00000000
00001000
00000000
00010000
00001000
00020000
00000000
00000000
00000000
,
00001000
00000000
00000000
01030000
10000000
00010000
01000000
00200000
,
00000000
00000000
00000000
00000000
00310000
00000000
00002000
00000000
00000000
00000000
00003100
00000001
00000100
00000000
00000000
00000000
,
00000001
00000000
00000000
00000000
00000100
00000000
00000000
00000000
00010000
00000000
00000000
01000000
00000000
00000000
00010000
00000000
,
10000000
00000000
00000000
00000000
01000000
00000000
00000000
00000000
00001000
00000000
00000000
00000100
00000000
00000000
00001000
00000000
,
00000001
00000000
00000000
00000000
00000010
00000000
00000000
00000000
00010000
00000000
00000000
00100000
00000000
00000000
00010000
00000000
,
00000000
00000000
10010000
00000000
10010000
00000000
00000000
00000000
10000000
00000000
00100000
01000000
00000000
01000000
00001000
00000000
,
00020000
00000000
00000000
00000000
01000000
00000000
00000000
00000000
00031000
00000000
00000000
00010000
00000000
00000000
00010000
00000000
,
00002000
00000000
00000000
00000000
00000100
00000000
00000000
00000000
00013000
00000000
00000000
00001000
00000000
00000000
00001000
00000000
,
00020000
00000000
00000000
00000000
00100000
00000000
00000000
00000000
00031000
00000000
00000000
00010000
00000000
00000000
00010000
00000000
,
00001000
00000000
00000000
00001000
00000000
00000000
00001000
00000000
00000010
00000000
00000001
00000000
00001001
00000000
00000000
00000000
,
00001000
00000010
00000100
00001000
00010000
00100000
01000000
00000000
,
00010000
00100000
01000000
00010000
00001000
00000010
00000100
00000000
,
00001000
00000001
00001000
00000000
00000010
00001000
00000010
00000000
00010000
00001000
00010000
00001000
00100000
00010000
00100000
00010000
,
20000000
00010000
00010000
30010000
,
10010000
00000000
10000000
01000000
00010000
00001000
01000000
00100000
,
00010000
00001000
00100000
00010000
00001000
00000100
00000010
00000001
,
00002000
00000000
00000000
00000000
00003020
00000000
00000000
00000000
00000130
00000000
00000100
00000000
00000100
00000000
00001000
00010000
,
00001000
00000000
00001000
00000000
00001000
00000000
00001000
00000000
00100000
00010000
00100000
00010000
00100000
00000000
00000000
00000000
,
10010000
00000000
10000000
01000000
00010000
01000000
00100000
00001000
,
00010000
00100000
00010000
00001000
00000010
00001000
00010000
00001000
,
00011000
00000000
00000000
00000000
00010000
00000000
00000010
00000000
00000100
00000000
00001000
00010000
00001000
00000000
00010000
00000000
,
00100000
00010000
00001000
00000010
00001000
00010000
00011000
00000000
,
00011000
00000000
00000000
00000000
00002000
00000000
00000000
00000000
00003200
00000000
00000000
00000302
00000000
00000000
00001003
00000000
,
00000100
00000010
00001000
00020000
00000000
00000000
00031000
00000000
,
00100000
00000000
00000000
00000000
00010000
00000000
00000000
00000000
10010000
00000000
00000000
11000000
00000000
00000000
01000000
00000000
,
00010000
00001000
01000000
00020000
00000000
00000000
10030000
00000000
,
01000000
00000000
00000000
00000000
00010000
00000000
00000000
00000000
00011000
00000000
00000000
00010100
00000000
00000000
00000110
00000000
,
00000010
00000001
00000010
00000001
00000020
00000000
00000000
00000000
00000031
00000000
00001000
00000000
00000010
00000000
00000100
00000000
,
00002000
00000000
00013000
00100000
01000000
00000000
00010000
10000000
,
01000000
00010000
00001000
00000010
00000001
00001000
00000010
00000000
,
00000100
00000000
00001000
00000000
00010000
00000000
00100000
00000000
01000000
00010000
00000000
01000000
00100000
00000000
00000000
00000000
,
10000000
00000000
00010000
00000000
00100000
00000000
01000000
00000000
00010000
00001000
00000000
00100000
00001000
00000000
00000000
00000000
,
00010000
00000000
00001000
00000000
00000100
00000000
00000001
00000000
00001000
00000100
00000000
00000010
00000100
00000000
00000000
00000000
,
00001000
00000001
00001000
00000000
00000001
00000000
00000100
00000000
00001000
00010000
00000000
00010000
00001000
00010000
00000000
00000000
,
00001000
00000000
00000000
00000000
01000000
00000000
00000000
00000000
10000000
00000000
00000000
01000000
00000000
00000000
00001000
00000000
,
00010000
00000000
00000000
00000000
00000100
00000000
00000000
00000000
00000001
00000000
00000000
00000100
00000000
00000000
00010000
00000000
,
00001000
00000000
00000000
00000000
00100000
00000000
00000000
00000000
10000000
00000000
00000000
00100000
00000000
00000000
00001000
00000000
,
00000000
00000000
00011000
00000000
00011000
00000000
00000000
00000000
00010000
00000000
00000010
00000100
00000000
00000100
00001000
00000000
,
00020000
00000000
00000000
00000000
00100000
00000000
00000000
00000000
00031000
00000000
00000000
00010000
00000000
00000000
00010000
00000000
,
00002000
00000000
00000000
00000000
00000010
00000000
00000000
00000000
00013000
00000000
00000000
00001000
00000000
00000000
00001000
00000000
,
00020000
00000000
00000000
00000000
01000000
00000000
00000000
00000000
00031000
00000000
00000000
00010000
00000000
00000000
00010000
00000000
,
00001000
00000000
00000000
00001000
00000000
00000000
00001000
00000000
00000100
00000000
00000001
00000000
00001001
00000000
00000000
00000000
,
00001000
00000010
00010000
00001000
00100000
01000000
00100000
00000000
,
00010000
00100000
00001000
00010000
00000010
00000100
00000010
00000000
,
00001000
00000001
00000100
00001000
00010000
00100000
10000000
00000000
,
10010000
00000000
00000000
00000000
,
20000000
00000000
00000000
00000000
,
32000000
00000000
00000000
00000000
,
03020000
00000000
00000000
00000000
00000000
00000010
00000000
00032000
,
00000000
00000000
00003200
00000000
,
00000302
00000000
00000000
00000000
,
00000203
00000000
00000000
00000000
,
00002300
00000000
00000000
00000000
00000000
00100000
00000000
00023000
,
00000000
00000000
02030000
00000000
,
13000000
00000000
10000000
00000000
01000000
00000000
00010000
00001000
,
00100000
00001000
00010000
00000000
00000010
00000000
00000100
00000000
,
00000001
00000000
00000001
00000000
00000100
00000000
00001000
00010000
,
00000010
00010000
00001000
00000000
00010000
00000000
00100000
00000000
,
10000000
00000000
10000000
00000000
00100000
00000000
00010000
00001000
,
01000000
00001000
00010000
00000000
00001000
00000000
00000100
00000000
,
00000001
00001000
00000001
00000000
00000010
00000000
00002000
00020000
,
00000000
00000000
00033000
00000000
,
00011000
00000000
00000000
00101000
00000000
00100000
00010000
00000000
,
10010000
00000000
00000000
00000000
00000000
00000000
00101000
00000000
00000000
00000000
00001000
00000000
00010000
00001000
00010000
00001000
,
00010000
00000000
00000000
00010010
00000000
00000010
00001000
00001001
,
00000000
00000000
00000000
00010010
00000000
00010000
00000010
00010000
,
00001000
00000000
00000000
01001000
00000000
01000000
00010000
00000000
,
10010000
00000000
00000000
00000000
00000000
00000000
01001000
00000000
00000000
00000000
00001000
00000000
00010000
00001000
00010000
00001000
,
00010000
00000000
00000000
00010100
00000000
00000100
00001000
00001001
,
00000000
00001000
00000100
00010000
00011000
00000000
00000000
00000000
,
00001000
00010000
01000000
00100000
00000000
00010000
10000000
00000000
,
00100000
00000000
00010000
00000000
00001000
00000000
01000000
00000000
00000000
00000000
00001000
00000000
00010000
00001000
00010000
00001000
,
00010000
00001000
00000010
00000100
00000000
00001000
00000001
00000100
,
00000000
00000010
00000100
00001000
00000000
00010000
00000100
00010000
,
00001000
00010000
00100000
01000000
00000000
00010000
10000000
00000000
,
01000000
00000000
00010000
00000000
00001000
00000000
00100000
00000000
00000000
00000000
00000000
00000000
00001000
00010000
00001000
00000000
,
00010000
00000100
00000010
00000100
00010000
00001000
01000000
00000000
,
00001000
01000000
00100000
01000000
00001000
00010000
00000100
00000000
,
00011000
00000000
00000000
00010010
00000000
00000000
00000110
00000000
,
00000010
00000000
00000100
00000000
00000001
00000000
00001000
00000100
00001000
00000100
00001000
00000000
00000100
00000000
00000000
00000000
,
00010100
00000000
00010000
00001000
00000000
01001000
00000000
01000000
,
01000000
00000000
00100000
00000000
00200000
00000000
00000000
00000000
20300000
00000000
00000000
00000000
30010000
00100000
00010000
00100000
,
00020000
00000000
00000000
20030000
00000000
00000000
32000000
00000000
,
00000000
03020000
00000000
00000000
00002000
00000000
00033000
00000000
,
00011000
00000000
00010000
00100000
00010000
00001000
00000000
00000000
,
00011000
00000000
00001000
00000010
00001000
00010000
00000000
00000000
,
00011000
00000000
00010000
00100000
00010000
00001000
00000000
00000000
,
00011000
00000000
00000000
00010010
00000000
00000010
00001000
00000001
,
00001001
00000000
00001000
00000010
00010000
00001000
00100000
00000000
,
10010000
00000000
00010000
00100000
00001000
00010000
00000010
00000000
,
00001001
00000000
00000000
00000000
00001000
00000000
00000100
00000000
00000000
00000000
00010000
00001000
00010000
00000000
00001000
01000000
,
00001000
00000000
01000000
00100000
00000000
20020000
00000000
00000000
,
30030000
00000000
00000000
00000000
;

//---------------dance-single - Kekkle-BSP----------------
#NOTES:
     dance-single:
     Kekkle:
     Easy:
     8:
     0.334412,0.445204,0.214637,0.221344,0,349,317,32,33,0,0,0.334412,0.445204,0.214637,0.221344,0,349,317,32,33,0,0:
0000
0000
0000
0000
,
0000
0000
0000
0000
,
0000
0000
0000
0000
,
0000
0000
0000
0000
,
0000
0000
0000
0000
,
0002
0000
0000
0000
,
2003
0000
0000
0000
,
3020
0000
0000
0000
,
0230
0000
0320
0000
,
2030
0000
3001
0001
,
0200
0000
0310
0010
,
2000
0000
3001
0001
,
0010
0100
0100
0100
,
2000
0000
3001
0001
,
0020
0000
0130
0100
,
2000
0000
3001
0001
,
0100
0010
0010
0010
,
2000
0000
3010
0020
,
0000
0130
0001
2000
,
0000
0000
3100
0010
,
0001
1000
0010
0010
,
0100
0001
0100
0100
,
0001
1000
0001
0001
,
0010
0100
0010
0010
,
0000
1001
0001
0001
,
1000
0100
0001
0010
,
1000
0100
0001
0010
,
1000
0010
0001
0100
,
1000
0010
0001
1001
,
1000
1000
0010
0010
,
0100
0100
0001
0001
,
1000
0001
1000
0000
0001
1000
0001
0000
,
1001
0000
0000
0000
,
2000
0000
3100
0100
,
0010
1000
0010
0001
,
0200
0000
0310
0010
,
0001
0010
1000
0010
,
0200
0000
0301
1000
,
0100
0010
0100
0000
0010
0000
0010
0000
,
0002
0000
1003
0010
,
0100
0010
0100
0000
0001
0000
1001
0000
,
1001
0000
1000
1000
,
0100
0010
0002
1000
,
1003
0000
0001
0001
,
0100
0010
2000
0001
,
3001
0010
1000
0100
,
0001
1000
0001
0000
1000
0000
1000
0000
,
0200
0010
0010
0310
,
0002
1000
1003
0000
,
1001
0001
0100
0100
,
0010
1000
0100
0100
,
0010
0001
0100
0100
,
0010
1000
1000
1000
,
0100
0000
0010
0000
0001
0000
1000
0001
,
1000
0000
0010
0000
0100
0000
0001
1000
,
0001
0010
0100
1000
,
0000
1001
0001
0001
,
0100
0000
0010
0000
,
1000
0000
0001
0000
,
0010
0000
0100
0000
,
1000
0000
0001
0001
,
0100
0010
0100
0000
,
0001
1000
0001
0000
,
0010
0100
0010
0100
,
0010
0000
0000
0000
,
0002
0000
0000
0000
,
2003
0000
0000
0000
,
3002
0000
0000
0000
0000
0000
0000
0203
,
0000
0000
0310
0000
,
2000
0000
0000
0000
,
3002
0000
0000
0000
,
2003
0000
0000
0000
0000
0000
0000
3200
,
0000
0000
0310
0000
,
0001
1000
0010
0000
,
0100
0100
0100
0000
,
0001
1000
0100
0000
,
0010
0010
0010
0000
,
0001
1000
0100
0000
,
0010
0001
1000
0000
,
0001
0000
0100
0000
0010
0000
0000
0110
,
0000
0000
0000
0000
,
1001
0000
0000
1001
0000
0000
0000
0000
,
0110
0000
0000
0110
0000
0000
0001
0000
,
0001
0000
0000
1001
0000
0000
0000
2000
,
0000
0000
0000
3100
0000
0000
0000
0000
,
0110
0000
0000
0110
0000
0000
0000
0000
,
1001
0000
0000
1001
0000
0000
1000
0000
,
1000
0000
0000
1001
0000
0000
0000
0002
,
0000
0000
0000
0103
0000
0000
0000
0000
,
0010
0100
0010
0000
,
1000
0001
1000
0100
,
0100
0000
0010
0000
0100
0000
0000
2000
,
0000
0000
0000
3001
0000
0000
0000
0000
,
1000
0010
1000
0000
,
0001
0010
0001
1000
,
1000
0010
0001
0100
,
1000
0100
0001
0010
,
1000
0000
0000
1001
0000
0000
0000
0000
,
0001
1000
0001
0001
,
1001
0000
0000
0000
0000
0110
0000
0000
,
0001
0001
0010
0100
,
1000
0000
0000
0010
0000
0000
0001
0000
,
0000
0100
0000
0000
1000
0000
0000
0000
,
1001
0000
0000
0000
0000
0110
0000
0000
,
1001
0000
0000
0000
0000
0110
0000
0000
,
1001
0000
0000
0000
0000
0110
0000
0000
,
1001
0000
0001
0001
,
1000
0100
0010
0000
,
1001
0010
0100
0000
,
1001
0100
0010
0000
,
1001
0000
0010
0000
0000
0110
0000
0000
;

//---------------dance-double - Kekkle-BDP----------------
#NOTES:
     dance-double:
     Kekkle:
     Easy:
     8:
     0.339203,0.446713,0.254881,0.254881,0,354,316,38,38,0,0,0.339203,0.446713,0.254881,0.254881,0,354,316,38,38,0,0:
// measure 0
00000000
00000000
00000000
00000000
,  // measure 1
00000000
00000000
00000000
00000000
,  // measure 2
00000000
00000000
00000000
00000000
,  // measure 3
00000000
00000000
00000000
00000000
,  // measure 4
00000000
00000000
00000000
00000000
,  // measure 5
20000000
00000000
00000000
00000000
,  // measure 6
30200000
00000000
00000000
00000000
,  // measure 7
02300000
00000000
00000000
00000000
,  // measure 8
03002000
00000000
00023000
00000000
,  // measure 9
00030200
00000000
00000310
00000010
,  // measure 10
00000002
00000000
00001003
00001000
,  // measure 11
00000020
00000000
00000130
00000100
,  // measure 12
00001000
00010000
00010000
00010000
,  // measure 13
00200000
00000000
01300000
01000000
,  // measure 14
00020000
00000000
10030000
10000000
,  // measure 15
02000000
00000000
03100000
00100000
,  // measure 16
00001000
00010000
00010000
00010000
,  // measure 17
00000020
00000000
00000130
00000002
,  // measure 18
00000000
00001003
00000010
00020000
,  // measure 19
00000000
00000000
00031000
01000000
,  // measure 20
00010000
00100000
01000000
01000000
,  // measure 21
10000000
10000000
10000000
00100000
,  // measure 22
00010000
00010000
00010000
00001000
,  // measure 23
00100000
00100000
00100000
00001000
,  // measure 24
00000000
00011000
00010000
00010000
,  // measure 25
00001000
00000100
00000001
00000010
,  // measure 26
00001000
00001000
00001000
00001000
,  // measure 27
00010000
01000000
10000000
00100000
,  // measure 28
00010000
00010000
00010000
00011000
,  // measure 29
00001000
00001000
00000100
00000100
,  // measure 30
00000001
00000001
00001000
00001000
,  // measure 31
00000001
00001000
00000001
00000000
00001000
00000001
00001000
00000000
,  // measure 32
00001001
00000000
00000000
00000000
,  // measure 33
00000002
00000000
00000013
00001000
,  // measure 34
00010000
01000000
00010000
01000000
,  // measure 35
20000000
00000000
30100000
00010000
,  // measure 36
00001000
00000100
00001000
00000100
,  // measure 37
00000002
00000000
00000103
00001000
,  // measure 38
00010000
00001000
00010000
00000000
00100000
00000000
00100000
00000000
,  // measure 39
20000000
00000000
31000000
00010000
,  // measure 40
00001000
00010000
00001000
00000000
00000010
00000000
00000110
00000000
,  // measure 41
00001001
00000001
00000100
00000100
,  // measure 42
00001000
00010000
00000020
00000000
,  // measure 43
00010030
00001000
00100000
00100000
,  // measure 44
01000000
10000000
00020000
00000000
,  // measure 45
01030000
00010000
10010000
10010000
,  // measure 46
10000000
00010000
10000000
00000000
01000000
00000000
00100000
00000000
,  // measure 47
00002000
00010000
00010000
00013000
,  // measure 48
00000020
00000100
00000130
00000000
,  // measure 49
00001001
00000001
00000100
00000100
,  // measure 50
00001000
00010000
00000100
00000100
,  // measure 51
00010000
00001000
01000000
01000000
,  // measure 52
00100000
10000000
10000000
10000000
,  // measure 53
00010000
00000000
00100000
00000000
01000000
00100000
01000000
00000000
,  // measure 54
00010000
00000000
00001000
00000000
01000000
00100000
01000000
00000000
,  // measure 55
00001000
00000000
00010000
00000000
00000100
00000010
00000100
00000000
,  // measure 56
00000000
00001001
00000001
00000001
,  // measure 57
00001000
00000000
00000010
00000000
,  // measure 58
00010000
00000000
00001000
00000000
,  // measure 59
00100000
00000000
00010000
00000000
,  // measure 60
10000000
10000000
00010000
10010000
,  // measure 61
10000000
00010000
00100000
00000000
,  // measure 62
00001000
00010000
00000010
00000000
,  // measure 63
00001000
00000001
00001000
00000001
,  // measure 64
00001000
00000000
00000000
00000000
,  // measure 65
00000002
00000000
00000000
00000000
,  // measure 66
00000203
00000000
00000000
00000000
,  // measure 67
00000320
00000000
00000000
00000000
00000000
00000000
00000000
00020030
,  // measure 68
00000000
00000000
00031000
00000000
,  // measure 69
00020000
00000000
00000000
00000000
,  // measure 70
00032000
00000000
00000000
00000000
,  // measure 71
00203000
00000000
00000000
00000000
00000000
00000000
00000000
02300000
,  // measure 72
00000000
00000000
13000000
00000000
,  // measure 73
00010000
00000000
10010000
00000000
,  // measure 74
10000000
01000000
00100000
00000000
,  // measure 75
00001000
00000000
00011000
00000000
,  // measure 76
00010000
00000010
00000100
00000000
,  // measure 77
00000001
00000000
00001001
00000000
,  // measure 78
00001000
00000100
00000010
00000000
,  // measure 79
00000100
00000000
00010000
00000000
00001000
00000000
00000000
00011000
,  // measure 80
00000000
00000000
00000000
00000000
,  // measure 81
00011000
00000000
00000000
00011000
00000000
00000000
00000000
00000000
,  // measure 82
00001000
00000000
01000000
00010000
00000000
00000000
10000000
00000000
,  // measure 83
10010000
00000000
00000000
10010000
00000000
00000000
00000000
00020000
,  // measure 84
00000000
00000000
00000000
00130000
00000000
00000000
00000000
00000000
,  // measure 85
00011000
00000000
00000000
00011000
00000000
00000000
00000000
00000000
,  // measure 86
00010000
00000000
00000100
00001000
00000000
00000000
00000001
00000000
,  // measure 87
00001001
00000000
00000000
00001001
00000000
00000000
00000000
00002000
,  // measure 88
00000000
00000000
00000000
00003010
00000000
00000000
00000000
00000000
,  // measure 89
00010000
00001000
00100000
00001000
,  // measure 90
00010000
01000000
10000000
00010000
,  // measure 91
00010000
01000000
00100000
00010000
,  // measure 92
00000000
00001000
00000000
00010000
00000000
00000000
00000000
00000000
,  // measure 93
00001000
00010000
00000010
00010000
,  // measure 94
00001000
00000100
00000001
00001000
,  // measure 95
00002000
00000000
00003200
00000000
,  // measure 96
00020300
00000000
00032000
00000000
,  // measure 97
01003000
00000000
00000000
01100000
00000000
00000000
00000000
00000000
,  // measure 98
00100000
10000000
00010000
00100000
,  // measure 99
00001000
00000000
00000000
00010000
00000000
00011000
00000000
00000000
,  // measure 100
00001000
00010000
00000100
00000010
,  // measure 101
00000001
00000000
00000000
00000001
00000000
00000000
00000001
00000000
,  // measure 102
00000000
00000001
00000000
00000000
00000001
00000000
00000000
00000000
,  // measure 103
00000110
00000000
00000000
00000000
00000000
00001001
00000000
00000000
,  // measure 104
00000110
00000000
00000000
00000000
00000000
00001001
00000000
00000000
,  // measure 105
00000110
00000000
00000000
00000000
00000000
00001001
00000000
00000000
,  // measure 106
00001000
00010000
10000000
00010000
,  // measure 107
10010000
00000000
00000000
00000000
00000000
01100000
00000000
00000000
,  // measure 108
10010000
00000000
00000000
00000000
00000000
01100000
00000000
00000000
,  // measure 109
10010000
00000000
00000000
00000000
00000000
01100000
00000000
00000000
,  // measure 110
10010000
00000000
00000000
00100000
00000000
00022000
00000000
00000000
,  // measure 111
00033000
00000000
00000000
00000000
;

//---------------dance-single - Kekkle-bSP----------------
#NOTES:
     dance-single:
     Kekkle:
     Beginner:
     5:
     0.208888,0.296803,0.134148,0.080489,0,218,198,20,12,0,0,0.208888,0.296803,0.134148,0.080489,0,218,198,20,12,0,0:
0000
0000
0000
0000
,
0000
0000
0000
0000
,
0000
0000
0000
0000
,
0000
0000
0000
0000
,
0000
0000
0000
0000
,
0001
0000
0000
0000
,
1000
0000
0000
0000
,
0001
0000
0000
0000
,
0100
0000
0100
0000
,
0010
0000
1000
1000
,
0000
0000
0001
0001
,
0000
0000
0010
0010
,
0000
0100
0100
0100
,
0000
0000
1000
1000
,
0000
0000
0001
0001
,
0000
0000
0100
0100
,
0000
0010
0010
0010
,
2000
0000
3001
0000
,
0010
0010
0010
0000
,
0002
0000
1003
0000
,
0010
0010
0010
0000
,
0100
0000
0100
0000
,
0010
0000
0010
0000
,
1000
0000
1000
0000
,
0001
0000
0001
0000
,
2000
0000
3001
0000
,
0002
0000
0103
0000
,
0200
0000
0310
0000
,
0020
0000
1030
0000
,
0001
0000
0001
0000
,
1000
0000
1000
0000
,
0001
1000
0001
0000
,
1001
0000
0000
0000
,
2000
0000
0100
0000
,
0100
0000
3100
0000
,
0010
0000
0001
0000
,
1000
0000
1000
0000
,
0002
0000
0103
0000
,
0001
0001
0001
0000
,
2000
0000
3100
0000
,
1000
1000
1000
0000
,
1001
0000
0001
0001
,
1000
0000
1000
0000
,
0100
0100
0010
0000
,
0001
0000
0001
0000
,
1000
1000
1000
0000
,
0020
0000
0100
0000
,
0130
0000
0001
0000
,
1000
0001
1000
0000
,
1001
0000
0001
0001
,
0000
0000
1000
1000
,
0000
0000
0010
0010
,
0000
0100
0100
0100
,
0000
0000
0001
1000
,
0000
0000
1000
0100
,
0000
0000
0100
0010
,
0000
0001
1000
1000
,
0001
0000
0000
0000
,
1000
0000
0000
0000
,
0010
0000
0000
0000
,
0100
0000
0100
0000
,
0010
0000
1000
0000
,
0001
0000
0010
0000
,
0100
0000
0100
0000
,
0100
0000
0000
0000
,
1000
0000
0000
0000
,
0001
0000
0000
0000
,
1000
0000
0000
0000
0000
0000
0000
0010
,
0000
0000
0000
0000
,
1000
0000
0000
0000
,
0001
0000
0000
0000
,
1000
0000
0000
0000
0000
0000
0000
0100
,
0000
0000
0000
0000
,
0010
0000
0010
0000
,
0010
0000
0000
0000
,
0001
0000
0001
0000
,
0001
0000
0000
0000
,
1000
0000
1000
0000
,
1000
0000
0000
0000
,
0010
0000
0010
0000
,
0010
0000
0000
0000
,
1001
0000
0000
0000
,
0001
0000
0001
0000
,
1001
0000
0000
0000
,
1000
0000
0010
0000
,
0110
0000
0000
0000
,
0010
0000
0010
0000
,
0110
0000
0000
0000
,
0100
0000
0001
0000
,
1001
0000
0000
0000
,
1000
1000
1000
0000
,
1001
0000
0000
0000
,
0001
0001
0001
0000
,
0110
0000
0000
0000
,
0100
0100
0100
0000
,
0010
0000
0100
0000
,
0010
0000
0100
0000
,
0110
0000
0001
0000
,
1000
1000
1000
0000
,
0110
0000
1000
0000
,
0001
0001
0001
0000
,
2002
0000
0000
0000
,
0000
0000
3003
0000
,
1001
0000
0000
0000
,
1001
0000
0000
0000
,
1001
0000
0000
0000
,
0001
0001
0001
0000
,
0110
0000
0000
0000
,
0110
0000
0000
0000
,
0110
0000
0000
0000
,
0110
0000
0000
1000
0000
1000
0000
0000
;
