#VERSION:0.83;
#TITLE:Dream Girls;
#ARTIST:I.O.I;
#BANNER:Dream Girls.png;
#BACKGROUND:Dream Girls-bg.png;
#JACKET:Dream Girls-jacket.png;
#MUSIC:Dream Girls.ogg;
#OFFSET:-0.057;
#SAMPLESTART:55.772;
#SAMPLELENGTH:15;
#BPMS:0=140;
#STOPS:97=1.286,126=1.286,235=1.286;
#TIMESIGNATURES:0=5=4,5=4=4,97=1=4,98=4=4,126=1=4,127=4=4,235=1=4,236=4=4;
#BGCHANGES:0.5=Dream Girls.avi=1=0=0=0=StretchNoLoop====,99999=-nosongbg-=1=0=0=0 // don't automatically add -songbackground-;

//---------------dance-single - Kowalski-bSP----------------
#NOTEDATA:;
#CHARTNAME:Kowalski-bSP;
#STEPSTYPE:dance-single;
#DESCRIPTION:Kowalski-bSP;
#DIFFICULTY:Beginner;
#METER:2;
#RADARVALUES:0.095177,0.167978,0.077964,0,0,94,83,11,0,0,0,0,0,0,0.095177,0.167978,0.077964,0,0,94,83,11,0,0,0,0,0,0;
#CREDIT:Kowalski;
#NOTES:
0000
0000
0000
0000
,
0000
0000
0000
0000
,
0000
0000
0000
0000
,
0000
0000
0000
0000
,
0000
0000
0000
0000
,
0000
1000
0000
0000
,
0000
1000
0000
0000
,
0000
0001
0000
0000
,
0000
1001
0000
0000
,
0000
0010
0000
0000
,
0000
0010
0000
0000
,
0000
0100
0000
0000
,
0000
0100
0000
0000
,
0000
1000
0000
0000
,
0000
1000
0000
0000
,
0000
0001
0000
0000
,
0000
0001
0000
0000
,
0000
0100
0000
0000
,
0000
0000
0000
0100
,
0000
0010
0000
0000
,
0000
0010
0000
0000
,
0000
0001
0000
0000
,
0000
0001
0000
0000
,
0000
0010
0000
0000
,
0000
1000
0010
0000
,
0000
0000
0010
0000
,
0000
0000
0100
0000
,
0000
0000
0100
0000
,
0000
0000
0001
0000
,
0001
0000
0001
0000
,
1000
0000
1000
0000
,
0000
1001
0000
0010
,
0000
0000
0000
0010
,
0000
0000
0000
0100
,
0000
0000
0000
0100
,
0000
0000
0000
0010
,
0000
0000
0000
0010
,
0000
0000
0000
1000
,
0000
0000
0000
0010
,
0000
0000
1001
0000
,
0000
0000
0000
1000
,
0000
0000
0000
1000
,
0000
0000
0000
0010
,
0000
0000
0000
0010
,
0000
0000
0000
0001
,
0000
0000
0000
0100
,
0000
0000
0000
1000
,
0000
0000
0000
1001
,
0000
0000
0000
0010
,
0000
0000
0000
0110
,
0000
0000
0000
0100
,
0000
0000
0000
1001
,
0000
0000
0000
0010
,
0000
0000
0000
0100
,
0000
0000
0000
0010
,
0000
0000
0000
1000
,
0000
0000
0000
1000
,
0000
0000
0000
0010
,
0000
0000
0000
1001
,
0000
0000
0000
0000
,
0001
0000
0000
0000
,
0001
0000
0000
0000
,
0001
0000
0000
0000
,
0010
0000
0010
0000
,
0100
0000
0100
0000
,
1000
0000
1000
0000
,
1001
0000
0000
0000
,
0010
0000
0000
0000
,
0010
0000
0000
0000
,
1000
0000
0000
0000
,
0100
0000
0000
0000
,
0010
0000
0010
0000
,
0100
0000
0100
0000
,
1000
0000
0000
0000
,
0001
0000
0000
0000
,
1001
0000
0000
0000
,
0100
0000
0000
0000
,
1000
0000
0000
0000
,
0110
0000
0000
0000
,
1001
0000
0000
0000
;

//---------------dance-single - Kowalski-BSP----------------
#NOTEDATA:;
#CHARTNAME:Kowalski-BSP;
#STEPSTYPE:dance-single;
#DESCRIPTION:Kowalski-BSP;
#DIFFICULTY:Easy;
#METER:5;
#RADARVALUES:0.209593,0.335956,0.141753,0.056701,0,207,187,20,8,0,0,0,0,0,0.209593,0.335956,0.141753,0.056701,0,207,187,20,8,0,0,0,0,0;
#CREDIT:Kowalski;
#NOTES:
0000
0000
0000
0000
,
0000
0000
0000
0000
,
0000
0000
0000
0000
,
0000
0000
0000
0000
,
0000
0000
0000
0000
,
0000
0001
0001
0001
,
0001
0010
0010
0010
,
0010
0100
0010
0100
,
0010
0110
0000
0000
,
0000
0100
0000
0001
,
0000
0001
0000
0010
,
0000
0010
0000
0100
,
0000
0200
0000
0000
,
0300
0010
0000
0010
,
0000
0001
0000
0001
,
0000
1000
0000
1000
,
0000
0020
0000
0000
,
0030
2000
0000
0000
,
3000
1000
0000
0010
,
0010
0200
0000
0000
,
0300
0100
0000
0001
,
0001
0020
0000
0000
,
0030
0010
0000
0100
,
0100
0002
0000
0000
,
0003
0001
0001
0100
,
0001
0100
0001
0001
,
0010
0010
0000
1000
,
0010
1000
0010
0100
,
0100
1000
1000
0100
,
0010
0001
0010
0010
,
0010
0100
0100
1001
,
1001
1001
0000
1000
,
1000
0000
0000
0010
,
0010
0000
0000
0001
,
0010
0100
0001
1000
,
1000
0000
0000
1001
,
0000
0100
0000
1001
,
0000
0010
0000
0001
,
0001
1000
1000
0100
,
0100
0010
0010
1000
,
1000
0000
0000
0001
,
0001
0000
0000
0010
,
0100
1000
0010
1000
,
1000
0000
0000
0110
,
0000
0010
0000
0110
,
0000
0100
0000
1000
,
1000
0001
0001
0010
,
0100
0010
0100
0110
,
0000
0000
0000
0001
,
0001
0001
0000
1001
,
0000
0000
0000
1000
,
1000
1000
0000
0110
,
0000
0100
0000
0000
,
0100
0000
0000
0010
,
0000
0000
0010
0000
,
0000
0001
0000
0000
,
1000
1000
1000
2000
,
3000
0001
0001
0002
,
0000
0000
0003
1001
,
0000
1000
0000
0000
,
0010
0100
0000
0000
,
0010
0100
1000
0010
,
0100
0100
0000
0000
,
1001
1000
1000
0000
,
0100
0001
0001
0000
,
1000
0100
1000
0010
,
0010
0001
0100
0001
,
0010
1000
0000
0000
,
0100
0001
0000
0000
,
1000
0010
0001
0010
,
0001
0001
0000
0000
,
0110
0010
0010
0000
,
0110
0100
0001
0000
,
0001
0000
0001
0000
,
0001
0001
0100
0100
,
0110
0000
0100
0000
,
1001
0000
0000
0000
,
1100
0000
0100
0000
,
0101
0000
0000
0001
,
1001
0000
0000
0000
;

//---------------dance-single - Kowalski-DSP----------------
#NOTEDATA:;
#CHARTNAME:Kowalski-DSP;
#STEPSTYPE:dance-single;
#DESCRIPTION:Kowalski-DSP;
#DIFFICULTY:Medium;
#METER:7;
#RADARVALUES:0.292620,0.363952,0.106315,0.333121,0,289,274,15,47,0,0,0,0,0,0.292620,0.363952,0.106315,0.333121,0,289,274,15,47,0,0,0,0,0;
#CREDIT:Kowalski;
#NOTES:
0000
0000
0000
0000
,
0000
0000
0000
0000
,
0000
0000
0000
0000
,
0000
0000
0000
0000
,
0000
0000
0000
0000
,
0000
0001
1000
0001
,
1000
0100
0100
0001
,
0001
0002
0203
0302
,
0103
2002
0000
0000
,
3003
0000
1000
0000
0000
0010
0010
0000
,
0001
0000
0100
0000
0000
0001
0001
0000
,
1000
0000
0010
0000
0000
1000
1000
0000
,
0001
0020
0000
0100
,
0130
0000
1000
0000
0000
1000
0100
0000
,
0001
0000
0010
0000
0000
0010
1000
0000
,
0100
0000
0001
0000
0000
0001
0100
0000
,
0001
0020
0000
0100
,
0130
2000
0000
3002
,
0000
0203
0000
0001
,
0301
0020
0000
2030
,
0000
3002
0000
1000
,
1003
0020
0000
2030
,
0000
3200
0000
0010
,
0310
2000
0000
3200
,
0000
0000
0000
0000
0000
0000
0000
0000
0000
0000
0000
0000
0000
0000
0000
0000
0320
0030
0000
0000
0000
0000
0000
0000
0000
0000
0000
0000
0000
0000
0000
0000
0002
0000
0000
0000
0000
0000
0000
0000
0000
0000
0000
0000
0000
0000
0000
0000
0013
0000
0000
0000
0000
0000
0000
0000
0000
0000
0000
0000
0000
0000
0000
0000
,
0100
0100
0100
0000
0010
0000
1000
0000
,
0100
0010
0100
0000
0200
0000
0301
0000
,
0010
0010
0010
0000
0010
0000
0001
0000
,
0010
0001
0010
0000
0002
0000
0103
0000
,
0001
0100
1000
0000
2000
0000
3100
0000
,
1000
0100
0001
0000
1000
0000
1000
0010
,
0100
0100
0100
0000
0000
0000
0020
0000
,
1030
0100
0001
0020
,
0130
1000
0010
1000
,
0010
0000
0001
0010
0100
0000
1000
0000
,
1001
0000
0000
0000
0000
1000
0001
0000
,
0001
0010
0100
0000
0001
0100
0000
0000
,
0010
1000
0010
0000
0000
0002
0000
0023
,
0000
0230
0000
2300
0000
3000
1001
0000
,
1001
1001
1001
0002
,
0103
0010
1000
0002
,
0103
0010
1000
0001
,
0100
0000
0010
0100
1000
0000
1000
0000
,
1010
0000
0000
0000
0000
0010
0100
0000
,
0100
0010
1000
0000
1000
0010
0000
0000
,
0100
0001
0100
0000
0000
2000
0000
3010
,
0000
0200
0000
0301
0000
0000
0001
0000
,
0001
1000
1000
1001
,
0000
0100
0000
0100
0000
0000
0001
0000
,
0001
1000
1000
1001
,
0000
1000
0000
0001
0000
0000
0100
0000
,
0100
0100
0000
0102
,
0000
0010
0000
0010
,
0000
0010
0000
0203
,
0000
0001
0000
0001
,
0000
0301
0020
0000
,
1000
0100
1030
2000
,
0000
0010
0100
0002
,
0000
0000
3003
1001
,
0000
0100
0001
0001
,
2000
3010
0100
0100
,
0001
0000
0100
0010
0100
0000
0010
0000
,
1000
0000
1001
0000
0000
0000
0000
0010
,
0100
0000
0100
0010
1000
0000
0000
1000
,
0010
0000
0001
0100
0001
0000
0000
2000
,
0000
3020
0000
0230
0000
0302
0000
0003
,
0100
0100
1000
1000
,
2000
3010
0100
0010
,
0200
0301
0001
0001
,
0010
0000
0001
0000
0100
1000
0010
0000
,
0001
0000
0001
0000
0000
0000
0000
0010
,
1000
0000
1000
0010
1000
0000
0100
0001
,
0000
0100
0001
0100
0001
0000
0000
0002
,
0000
0013
0000
0200
0000
0310
0000
0000
,
1000
1000
0010
0010
,
1010
0000
0000
0100
0000
1000
0000
0000
,
0010
0010
0010
0010
,
1001
0000
0000
0100
0000
0001
0000
0000
,
1000
1000
0100
0100
,
1001
0000
0000
0000
;

//---------------dance-single - Kowalski-ESP----------------
#NOTEDATA:;
#CHARTNAME:Kowalski-ESP;
#STEPSTYPE:dance-single;
#DESCRIPTION:Kowalski-ESP;
#DIFFICULTY:Hard;
#METER:10;
#RADARVALUES:0.405010,0.447941,0.389822,0.127578,0.007088,400,345,55,18,0,0,0,0,0,0.405010,0.447941,0.389822,0.127578,0.007088,400,345,55,18,0,0,0,0,0;
#CREDIT:Kowalski;
#NOTES:
0000
0000
0000
0000
,
0000
0000
0000
0000
,
0000
0000
0000
0000
,
0000
0000
0000
0000
,
0000
0000
0000
0000
,
0000
0000
0001
0010
0100
1000
0001
0010
,
0100
1000
0010
1000
0010
1000
0010
0100
,
0010
0001
0101
0100
,
0110
1001
0000
0000
,
0000
0000
1000
0000
0100
1000
0010
0000
,
1010
0000
0100
0000
0100
0010
0001
0000
,
0101
0000
0010
0000
0010
0100
0001
0000
,
0001
0100
0020
0000
1000
0000
0031
0000
,
0100
0000
1000
0010
0100
0010
1000
0000
,
1001
0000
0001
0100
0010
0100
0001
0000
,
1001
0000
0100
1000
0100
0001
0100
0000
,
0001
0020
1000
0001
,
1030
1000
1100
0001
,
0101
2001
0000
0100
,
3001
0100
0110
0010
,
1010
2100
0010
0001
,
3100
0010
0011
0001
,
0101
0210
0001
0010
,
0310
1000
1100
0100
,
0110
0000
0000
0000
0000
0000
0000
0000
0000
0000
0000
0000
0000
0000
0000
0000
2002
3003
0000
0000
0000
0000
0000
0000
0000
0000
0000
0000
0000
0000
0000
0000
0001
0000
0000
0000
0000
0000
0000
0000
0010
0000
0000
0000
0000
0000
0000
0000
1000
0000
0000
0000
0000
0000
0000
0000
0010
0000
0000
0000
0000
0000
0000
0000
,
0100
0100
0100
0000
1000
0100
0001
0000
,
0001
0010
0100
0000
0100
0010
1000
0001
,
1000
1000
1000
0000
0100
0010
1000
0000
,
0100
0010
0100
0000
0001
0100
0010
1000
,
0100
1000
0200
0000
1300
0100
0010
0001
,
0100
0010
0002
0000
1003
0010
1000
0010
,
0100
0010
0100
0100
0100
0000
0012
0000
,
0103
0100
1000
2100
,
3010
0000
0100
0000
0001
0000
0100
0001
,
0010
0000
0001
1000
0100
0000
0100
0000
,
0110
0000
0000
0000
0000
0001
1000
0000
,
1000
0100
0001
0000
0001
0100
0000
0100
,
0010
1000
0010
0000
0000
0011
0000
0110
,
0000
1100
0000
1001
0000
0000
1000
0100
,
1000
0100
0010
0100
0001
0100
0020
0000
,
0130
1000
0010
2010
,
3100
0000
0010
0000
1000
0000
0100
0010
,
1000
0000
1000
0100
0010
0000
1000
0000
,
1010
0000
0000
0000
0000
1000
0001
0000
,
0001
0100
1000
0000
0100
0010
0000
0010
,
1000
0010
1000
0000
0000
1000
0000
1100
,
0000
0100
0000
0101
0000
0000
0001
0100
,
0001
0100
0010
0100
0010
0000
0110
0000
,
0000
1100
0000
0101
0000
0000
0010
0000
,
0010
0100
0100
0110
,
0000
1010
0000
0011
0000
0000
1000
0000
,
0010
0010
0100
0001
,
0000
0001
0000
0010
,
0000
0010
0000
0100
,
0000
0100
0000
0010
,
0000
0010
0000
0010
,
0100
0000
0000
0000
1000
0000
0000
1000
0000
0000
2000
0000
0100
0000
0000
0000
,
0010
0000
0000
0000
3010
0000
0000
0010
0000
0000
0200
0000
0000
0000
0000
0000
,
0001
0010
0310
1001
,
0000
0110
1000
0010
,
2010
3100
0100
0100
,
1000
0010
0100
0000
1000
0100
0001
0100
,
0001
0000
1001
0000
0000
0000
0000
0001
,
0010
1000
0100
0010
0001
0000
0000
0001
,
0100
0000
0100
0001
0010
0000
0000
0110
,
0000
1001
0000
0110
0000
1001
0000
0000
,
0001
0010
0001
0010
0100
0010
1000
0000
,
2010
3100
0100
0010
,
2001
3010
0100
0100
,
1000
0100
0001
0000
0001
0010
0100
0000
,
0010
0000
0010
0000
1000
0000
0000
0010
,
1000
0000
1000
0010
0100
0000
0001
1000
,
0000
1000
0100
0001
0100
0000
0000
0001
,
0000
0101
0000
0100
0000
1001
0000
0000
,
1000
0100
1000
0100
0010
0001
0010
0000
,
1001
0000
0000
1100
0000
0011
0000
0000
,
1000
1000
0001
0001
,
1001
0000
0000
0110
0000
1001
0000
0000
,
0010
0000
0001
0000
0001
0010
0100
0000
,
1001
0000
0000
0000
;

//---------------dance-double - NewbStepper-EDP----------------
#NOTEDATA:;
#CHARTNAME:NewbStepper-EDP;
#STEPSTYPE:dance-double;
#DESCRIPTION:NewbStepper-EDP;
#DIFFICULTY:Hard;
#METER:12;
#RADARVALUES:0.504237,0.559040,0.531576,0.134666,0.088596,498,423,75,19,0,0,0,0,0,0.504237,0.559040,0.531576,0.134666,0.088596,498,423,75,19,0,0,0,0,0;
#CREDIT:NewbStepper;
#NOTES:
// measure 0
00000000
00000000
00000000
00000000
,  // measure 1
00000000
00000000
00000000
00000000
,  // measure 2
00000000
00000000
00000000
00000000
,  // measure 3
00000000
00000000
00000000
00000000
,  // measure 4
00000000
00000000
00000000
00000000
,  // measure 5
00000000
10000000
01000000
11000000
,  // measure 6
10010000
00101000
00010100
00000010
,  // measure 7
00001001
00000001
00000101
00001000
,  // measure 8
00001100
00000000
00000000
00000000
,  // measure 9
00000001
00000000
00000100
00001000
00010000
01000000
10000000
00000000
,  // measure 10
00010000
10000000
01000000
00010000
00001000
00000100
00000001
00000000
,  // measure 11
00001000
00000001
00000010
00001000
00010000
00100000
10000000
00000000
,  // measure 12
00010000
00000000
00000000
01000000
00000000
00000000
00100000
00000000
00000000
00000000
00000000
00000000
10000000
00000000
01000000
00000000
00100000
00000000
00010000
00000000
00100000
00000000
01000000
00000000
,  // measure 13
10000000
00000000
01000000
00010000
00001000
00000100
00000001
00000000
,  // measure 14
00001000
00000001
00000100
00001000
00010000
01000000
10000000
00000000
,  // measure 15
00010000
10000000
00100000
00010000
00001000
00000010
00000001
00000000
,  // measure 16
00001000
00000000
00000000
00000100
00000000
00000000
00000010
00000000
00000000
00000000
00000000
00000000
00000001
00000000
00000100
00000000
00000010
00000000
00001000
00000000
00000010
00000000
00000100
00000000
,  // measure 17
00000001
00000002
00002003
00023000
,  // measure 18
20030000
00000000
30100000
00000000
00000000
10000000
00010000
01000000
,  // measure 19
01000000
00010000
20000000
00000000
30020000
00000000
00032000
00000000
,  // measure 20
00003002
00000000
00000103
00000000
00000001
00000010
00001000
00010000
,  // measure 21
00100000
10000000
20000000
00000000
30020000
00000000
00032000
00000000
,  // measure 22
00003002
00000000
00000103
00000000
00000000
00000001
00001000
00000100
,  // measure 23
00000100
00001000
00000002
00000000
00002003
00000000
00023000
00000000
,  // measure 24
20030000
00000000
31000000
00000000
10000000
11000000
00000000
00010000
,  // measure 25
00001000
00000000
00000100
00000000
00000110
00000000
00000000
00000000
00000001
00000000
00001000
00000010
00000000
00000000
00000001
00000000
,  // measure 26
00000010
00000000
00001000
00000000
00010000
00000000
00000000
00000000
01000000
00000000
00100000
10000000
00000000
00000000
01000000
00000000
,  // measure 27
00010000
00000000
00001000
00000000
00000100
00000000
00000000
00000000
00000010
00001000
00000000
00000100
00000000
00010000
00001000
00000000
,  // measure 28
00100000
00010000
10000000
00000000
00100000
10000000
01000000
00010000
,  // measure 29
00001000
00000100
00000001
00000000
00000010
00000001
00000100
00001000
,  // measure 30
00010000
01000000
10000000
00000000
00100000
00010000
00001000
00000010
,  // measure 31
00001000
00010000
00001000
00000000
00011000
00000000
01010000
00000000
,  // measure 32
11000000
00000000
10000000
00100000
00010000
00000000
00001100
00000000
,  // measure 33
00000101
00000000
00000001
00000010
00001000
00000000
00010000
00001000
,  // measure 34
00000010
00000100
00010000
00001000
00000010
00000011
00000000
00001010
,  // measure 35
00000000
00000010
00000001
00000000
00000100
00001100
00000000
00010000
,  // measure 36
01000000
00010000
00001000
00000000
01000000
01010000
00000000
00100000
,  // measure 37
10000000
01000000
00010000
00000000
00000000
00011000
00000000
00000110
,  // measure 38
00000000
00011000
00000000
01100000
00000000
10100000
00000000
10010000
,  // measure 39
00000000
11000000
01000000
00010000
00001000
00000100
00001100
00000000
,  // measure 40
00000101
00000000
00000001
00000010
00001000
00000000
01010000
00000000
,  // measure 41
11000000
00000000
10000000
00100000
00010000
00000000
00001000
00010000
,  // measure 42
00100000
01000000
00001000
00010000
00100000
10100000
00000000
00110000
,  // measure 43
00000000
00100000
10000000
00000000
01000000
01010000
00000000
00001000
,  // measure 44
00000100
00001000
00010000
00000000
00000100
00001100
00000000
00000010
,  // measure 45
00000001
00000100
00001000
00000000
00010000
01000000
00010000
00000100
,  // measure 46
00010000
00000010
00001000
00100000
00001000
00000010
00000110
00000000
,  // measure 47
00001001
00000000
00000001
00000100
00001100
00000000
00011000
00000000
,  // measure 48
00000000
00000000
01010000
00000000
00000000
00000000
10100000
00000000
01000000
00000000
00000000
00000000
00010000
00100000
00010000
00000000
,  // measure 49
10000000
00000000
00100000
01000000
00100000
00000000
00010000
00000000
00001000
00010000
00001000
00000000
00011000
00000000
00000000
00000000
,  // measure 50
00000000
00000000
00001100
00000000
00000000
00000000
00000011
00000000
00000100
00000000
00000000
00000000
00001000
00000010
00001000
00000000
,  // measure 51
00000001
00000000
00000010
00000100
00000010
00000000
00001000
00000000
00010000
00001000
00010000
00000000
00200000
00000000
00000000
00000000
,  // measure 52
10000000
00000000
10300000
02000000
,  // measure 53
00010000
00000000
03010000
00002000
,  // measure 54
00000010
00000000
00003010
00000001
,  // measure 55
00000101
00001000
00001100
00000010
,  // measure 56
00000001
00000100
00000000
00001000
,  // measure 57
00000000
00010000
00000000
01000000
,  // measure 58
10000000
00010000
00001000
00000001
,  // measure 59
00000000
00000000
00000101
00000000
00000001
00000010
00001000
00000000
,  // measure 60
01010000
00000000
11000000
00000000
10000000
00100000
00010000
00000000
,  // measure 61
00001000
00010000
00100000
01000000
00001000
00010000
00100000
10100000
,  // measure 62
00000000
00110000
00000000
00100000
10000000
00000000
01000000
01010000
,  // measure 63
00000000
00001000
00000100
00001000
00010000
00000000
00000100
00001100
,  // measure 64
00000000
00000010
00000001
00000100
00001000
00000000
00000000
00011000
,  // measure 65
00000000
01100000
00000000
00011000
00000000
00000110
00000000
00000011
,  // measure 66
00000000
00001001
00000000
00000101
00000100
00001000
00010000
01000000
,  // measure 67
01010000
00000000
11000000
00000000
10000000
00100000
00010000
00000000
,  // measure 68
00001100
00000000
00000101
00000000
00000001
00000010
00001000
00000000
,  // measure 69
00010000
00001000
00000010
00000100
00010000
00001000
00000010
00000011
,  // measure 70
00000000
00001010
00000000
00000010
00000001
00000000
00000100
00001100
,  // measure 71
00000000
00010000
01000000
00010000
00001000
00000000
01000000
01010000
,  // measure 72
00000000
00100000
10000000
01000000
00010000
00000000
00001000
01000000
,  // measure 73
00001000
00000100
00001000
00100000
00010000
00000010
00010000
00100000
,  // measure 74
01100000
00000000
10010000
00000000
10000000
01000000
01010000
00000000
,  // measure 75
00011000
00000000
00000000
00001100
00000000
00000011
00000100
00000000
,  // measure 76
00001000
00000010
00001000
00000000
00000001
00000000
00000010
00000100
00000010
00000000
00001000
00000000
00010000
00001000
00010000
00000000
,  // measure 77
00011000
00000000
00000000
01010000
00000000
10100000
01000000
00000000
,  // measure 78
00010000
00100000
00010000
00000000
10000000
00000000
00100000
01000000
00100000
00000000
00010000
00000000
00001000
00010000
00001000
00000000
;

//---------------dance-double - NewbStepper-DDP----------------
#NOTEDATA:;
#CHARTNAME:NewbStepper-DDP;
#STEPSTYPE:dance-double;
#DESCRIPTION:NewbStepper-DDP;
#DIFFICULTY:Medium;
#METER:8;
#RADARVALUES:0.367547,0.418616,0.269332,0.191367,0,363,325,38,27,0,0,0,0,0,0.367547,0.418616,0.269332,0.191367,0,363,325,38,27,0,0,0,0,0;
#CREDIT:NewbStepper;
#NOTES:
00000000
00000000
00000000
00000000
,
00000000
00000000
00000000
00000000
,
00000000
00000000
00000000
00000000
,
00000000
00000000
00000000
00000000
,
00000000
00000000
00000000
00000000
,
00000000
10000000
01000000
00100000
,
00010000
00001000
00000100
00000010
,
00000001
00001000
00000100
00010000
,
00001000
00011000
00000000
00000000
,
00000000
00000000
00100000
00000000
10000000
01000000
00010000
00000000
,
00001000
00000000
00000010
00000000
00000001
00000100
00001000
00000000
,
00010000
00000000
01000000
00000000
10000000
00100000
00010000
00000000
,
00001000
00000000
00011000
00000000
00000000
00000100
00000010
00000000
,
00001000
00000000
00000010
00000000
00000001
00000100
00001000
00000000
,
00010000
00000000
00100000
00000000
10000000
01000000
00010000
00000000
,
00001000
00000000
00000100
00000000
00000001
00000010
00001000
00000000
,
00010000
00000000
00011000
00000000
00000000
01000000
00100000
00000000
,
10000000
02000000
03200000
00320000
,
02030000
00000000
03002000
00000000
00003000
00010000
00001000
00010000
,
00001000
00000200
00000320
00002030
,
00003200
00000000
00010300
00000000
00001000
00100000
00001000
00100000
,
00001000
02000000
03200000
00320000
,
00032000
00000000
00003200
00000000
00000300
00000001
00000010
00000100
,
00001000
00000200
00000320
00002030
,
00023000
00000000
01030000
00000000
10000000
10000000
00000000
01000000
,
00010000
00000000
00001000
00000000
00000010
00000010
00000000
00000001
,
00000100
00000000
00001000
00000000
00010000
00100000
10000000
00000000
,
01000000
00100000
00010000
00000000
01000000
00000000
00100000
00000000
,
00010000
00001000
00000010
00000000
00000001
00000000
00000100
00000000
,
00001000
00000100
00001000
00000000
00000100
00000000
00001000
00000000
,
00010000
00001000
00010000
00000000
01000000
00000000
00010000
00000000
,
01000000
10000000
01000000
00000000
10000000
00000000
00100000
00000000
,
10100000
10000000
11000000
01000000
,
01010000
00010000
00011000
00000010
,
00000001
00000100
00000001
00000100
00000010
00000100
00000010
00000000
,
00000110
00000000
00001001
00000000
00000010
00000100
00000000
00000010
,
00000001
00000000
00000100
00000000
00001000
00010000
00000000
00001000
,
00100000
00000000
00010000
00000000
00000000
10000000
00000000
01000000
,
00000000
00010000
00000000
00001000
00000000
00000100
00000101
00000000
,
00001100
00000000
00001001
00000000
00000010
00000100
00000010
00000000
,
00000011
00000001
00000101
00000100
,
00001100
00001000
00011000
00100000
,
10000000
01000000
10000000
01000000
00100000
01000000
00100000
00000000
,
01100000
00000000
10010000
00000000
00100000
01000000
00000000
00100000
,
10000000
00000000
01000000
00000000
00010000
00001000
00000000
00010000
,
00000010
00000000
00001000
00000000
00000000
00000001
00000000
00000100
,
00000010
00000100
00000000
00001000
00000000
00010000
01000000
00000000
,
01000000
00000000
00100000
01000000
00100000
00000000
01100000
00000000
,
00000000
10000000
00000000
00010000
00000000
00000000
10000000
01000000
,
00010000
00000000
00001000
00000100
00000001
00000000
00000110
00000000
,
00000000
00000001
00000000
00001000
00000000
00000000
00000001
00000100
,
00001000
00000000
00010000
01000000
10000000
00000000
00200000
00000000
,
00000000
20300000
00000000
32000000
,
00000000
03020000
00000000
00032000
,
00000000
00003200
00000000
00000302
,
00000000
00000023
00000000
00002030
,
00000000
00013000
00000000
00001000
,
00000000
00100000
00000000
00001000
,
00000000
00000100
00000000
00001001
,
00000000
00000011
00000001
00000101
,
00000100
00001100
00001000
00011000
,
00100000
00000000
10000000
01000000
10000000
01000000
00100000
01000000
,
00100000
00000000
01100000
00000000
10010000
00000000
00100000
01000000
,
00000000
00100000
10000000
00000000
01000000
00000000
00010000
00001000
,
00000000
00010000
00000010
00000000
00001000
00000000
00000000
00000001
,
00000000
00000100
00000000
00001000
00000000
00010000
00000000
01000000
,
11000000
00000000
01010000
00000000
10010000
00000000
00100000
01000000
,
00100000
10100000
10000000
11000000
,
01000000
01010000
00010000
00011000
,
00000010
00000000
00000001
00000100
00000001
00000100
00000010
00000100
,
00000010
00000000
00000110
00000000
00001001
00000000
00000010
00000100
,
00000000
00000010
00000001
00000000
00000100
00000000
00001000
00010000
,
00000000
00001000
00100000
00000000
00010000
00000000
00000000
10000000
,
00000000
01000000
00100000
01000000
00000000
00010000
00000000
00001000
,
00000100
00000000
00000100
00000000
00000010
00000100
00000010
00000000
,
00000110
00000000
00000000
00000001
00000000
00001000
00000000
00000000
,
00000001
00000100
00001000
00000000
00010000
01000000
10000000
00000000
,
01100000
00000000
00000000
10000000
00000000
00010000
00000000
00000000
,
10000000
01000000
00010000
00000000
00001000
00000100
00000001
00000000
;

//---------------dance-double - NewbStepper-BDP----------------
#NOTEDATA:;
#CHARTNAME:NewbStepper-BDP;
#STEPSTYPE:dance-double;
#DESCRIPTION:NewbStepper-BDP;
#DIFFICULTY:Easy;
#METER:6;
#RADARVALUES:0.219718,0.385127,0.092140,0.028351,0,217,204,13,4,0,0,0,0,0,0.219718,0.385127,0.092140,0.028351,0,217,204,13,4,0,0,0,0,0;
#CREDIT:NewbStepper;
#NOTES:
00000000
00000000
00000000
00000000
,
00000000
00000000
00000000
00000000
,
00000000
00000000
00000000
00000000
,
00000000
00000000
00000000
00000000
,
00000000
00000000
00000000
00000000
,
00000000
00000001
00000000
00000100
,
00000000
00000010
00000000
00001000
,
00000000
00000100
00010000
00001000
,
01000000
00000000
00000000
00000000
,
00000000
00100000
10000000
00010000
,
00000000
00100000
00010000
10000000
,
00000000
01000000
00010000
00001000
,
00000100
00000001
00000000
00000000
,
00000000
00000010
00000001
00001000
,
00000000
00000010
00001000
00000001
,
00000000
00000100
00001000
00010000
,
01000000
10000000
00000000
00000000
,
00000000
00010000
10000000
00010000
,
10000000
01000000
00000000
00000000
,
00000000
00010000
00001000
00010000
,
00001000
00000010
00000000
00000100
,
00000000
00001000
00000001
00001000
,
00000001
00000100
00000000
00000000
,
00000000
00001000
00010000
00001000
,
00010000
00100000
10000000
01000000
,
10000000
00000000
00010000
01000000
,
00010000
00000000
00100000
00001000
,
00100000
00000000
00001000
00010000
,
00001000
00000000
00000010
00000001
,
00000100
00000000
00000010
00001000
,
00000100
00000000
00001000
00000100
,
00010000
00001000
01000000
00100000
,
01000000
00010000
00000000
00100000
,
01000000
10000000
00000000
00010000
,
01000000
00100000
00010000
00001000
,
00000100
00000001
00000000
00000010
,
00000001
00000100
00000000
00000010
,
00001000
00000000
00000100
00000000
00000000
00010000
00000000
00001000
,
00000000
00100000
00000000
00001000
00000000
00010000
00000000
00000010
,
00000000
00001000
00000001
00000000
00000000
00000000
00000010
00000000
,
00000100
00001000
00000000
00000010
,
00000100
00000001
00000000
00001000
,
00000100
00000010
00001000
00010000
,
01000000
10000000
00000000
00100000
,
10000000
01000000
00000000
00100000
,
00010000
01000000
00000000
00100000
,
00010000
00001000
00000010
00000011
,
00000011
00001100
00001100
00001001
,
00000000
00000010
00000000
00000010
00000000
00000000
00000000
00000000
,
00000000
00000000
00000000
10010000
,
00000000
00100000
00000000
00100000
00000000
00000000
00000000
00000000
,
00000000
00000000
00000000
20000000
,
00000000
00000000
00000000
30020000
,
00000000
00000000
00000000
00032000
,
00000000
00000000
00000000
00003002
,
00000000
00000000
00000000
00000103
,
00000000
00001000
00000000
00010000
,
00000000
01000000
00000000
10000000
,
00000000
00010000
00000000
10010000
,
00000000
01000000
00010000
00000000
,
00100000
01000000
10000000
00000000
,
00010000
01000000
00100000
00010000
,
00001000
00000100
00000001
00000000
,
00000010
00000001
00000100
00000000
,
00000010
00000000
00001000
00000000
00000100
00000000
00000000
00010000
,
00000000
00001000
00000000
00100000
00000000
00001000
00000000
00010000
,
00000000
00000010
00000000
00001000
00000001
00000000
00000000
00000000
,
00000010
00000100
00001000
00000000
,
00000010
00000100
00000001
00000000
,
00001000
00000100
00000010
00001000
,
00010000
01000000
10000000
00000000
,
00100000
10000000
01000000
00000000
,
00100000
00010000
01000000
00000000
,
00100000
00010000
00001000
00000010
,
00000011
00000011
00001100
00001100
,
00001001
00000000
00000000
00000010
00000000
00000010
00000000
00000000
,
00000000
00000000
00000000
00000000
,
10010000
00000000
00000000
00100000
00000000
00100000
00000000
00000000
;
