#TITLE:Doki Doki;
#ARTIST:SMiLE.dk;
#BANNER:Doki Doki.png;
#BACKGROUND:Doki Doki-bg.png;
#MUSIC:Doki Doki.ogg;
#OFFSET:0.483286;
#SAMPLESTART:52.66;
#SAMPLELENGTH:15;
#BPMS:0=140;

//---------------dance-single - NewbStepper-ESP----------------
#NOTES:
     dance-single:
     NewbStepper:
     Hard:
     11:
     0.473152,0.492002,0.188364,0.204061,0.078485,422,398,24,26,0,0,0.473152,0.492002,0.188364,0.204061,0.078485,422,398,24,26,0,0:
0000
0000
0000
0000
,
0000
0000
0000
0000
,
0000
0000
0000
0000
,
0000
0000
0000
0000
,
0000
0000
0000
0000
,
0001
0100
0001
0010
0100
0001
0100
1000
,
0010
1000
0100
0010
0001
0100
1000
0100
,
0002
0000
0003
1000
0200
0000
0300
1000
,
0001
0001
0001
0100
0010
0000
1001
0000
,
1000
0100
1000
0010
0100
1000
0100
0001
,
0010
0001
0100
0010
1000
0100
0001
0100
,
2000
0000
3000
0001
0200
0000
0300
0001
,
1000
0000
1000
0000
1000
0000
0100
0000
0010
0000
0000
0100
0000
0000
0010
0000
,
0220
0000
0000
0330
,
0001
0000
0000
1000
0100
0000
0001
0000
0100
0000
0010
0000
1001
0000
0000
0000
,
1000
0100
1000
0010
0100
1000
0100
0001
,
0010
0010
0000
0001
0100
0010
1000
0100
,
0010
0010
1000
0001
0100
1000
0000
0001
,
0000
0000
1000
0000
0010
0000
0001
0000
0010
0000
0000
1000
0001
0000
0001
0000
,
0000
0100
0001
0010
0100
0001
0100
1000
,
0010
0010
0000
1000
0100
0010
0001
0100
,
0010
0010
0001
0010
0100
0000
0001
0000
,
1000
0000
0000
1000
0001
0000
0100
0000
1000
0000
0100
0000
0001
0000
0000
0000
,
0010
0000
0000
0010
0001
0000
0000
0001
0100
0000
0000
0100
0010
0000
0000
0010
,
1000
0000
0000
1000
0001
0000
0000
0001
1000
0000
0000
1000
0100
0000
0000
0100
,
0020
1000
0100
0001
,
0230
1000
0010
0001
,
0310
0000
0000
0000
1000
0000
0000
1000
0100
0000
0000
0100
0010
0000
0000
0010
,
0001
0000
0000
0001
1000
0000
0000
1000
0001
0000
0000
0001
0100
0000
0000
0100
,
0010
1000
0010
1000
0010
1000
0100
0000
,
0010
0001
0010
0001
0010
0001
0100
0000
,
0010
1000
0100
0010
0001
1000
0010
0000
,
1000
0001
0100
0010
1000
0100
0001
0000
,
0100
0100
1000
0010
0100
0001
1000
0000
,
0001
0100
1000
0100
0001
0000
1001
0000
,
0010
0001
0100
0010
1000
0001
0010
0000
,
0001
1000
0100
0010
0001
0100
1000
0000
,
0100
0001
0010
0100
2000
0000
3000
0000
,
0001
1000
0010
0100
0002
0000
0003
0000
,
1100
0101
0011
1010
,
1000
0100
0001
0100
1000
0010
0001
0010
,
2000
0000
3000
0001
0020
0000
0030
0001
,
1000
1000
1000
0010
0100
0000
1001
0000
,
0001
0010
0001
0100
0010
0001
0010
1000
,
0100
1000
0010
0100
0001
0010
1000
0010
,
0002
0000
0003
1000
0020
0000
0030
1000
,
0001
0001
0001
0010
0100
0000
1001
0000
,
1000
0000
0000
0001
0100
0000
1000
0000
0100
0000
0010
0000
1001
0000
0000
0000
,
2100
0000
0000
0000
,
0020
0000
3000
0000
,
0200
0000
0030
0000
,
0002
0000
0300
0000
,
1003
1000
0010
0010
,
0100
0100
0001
0001
,
0010
0001
0010
0001
0010
0001
0100
0000
,
0010
1000
0010
1000
0010
1000
0100
0000
,
0010
0001
0100
0010
1000
0001
0010
0000
,
0001
1000
0100
0010
0001
0100
1000
0000
,
0100
0100
0001
0010
0100
1000
0001
0000
,
1000
0100
0001
0100
1000
0000
1001
0000
,
0010
1000
0100
0010
0001
1000
0010
0000
,
1000
0001
0100
0010
1000
0100
0001
0000
,
0100
1000
0010
0100
0002
0000
0003
0000
,
1000
0001
0010
0100
2000
0000
3000
0000
,
0101
1100
1010
0011
,
0001
0100
1000
0100
0001
0010
1000
0010
,
0002
0000
0003
1000
0020
0000
0030
1000
,
0001
0001
0001
0010
0100
0000
1001
0000
,
1100
0101
0011
1010
,
1000
0100
0001
0100
1000
0010
0001
0010
,
2000
0000
3000
0001
0020
0000
0030
0001
,
1000
1000
1000
0100
0010
0000
1001
0000
,
0220
0000
0000
0000
,
0000
0000
0000
0330
;

//---------------dance-single - NewbStepper-DSP----------------
#NOTES:
     dance-single:
     NewbStepper:
     Medium:
     9:
     0.363273,0.405178,0.109879,0.211909,0.003924,324,310,14,27,0,0,0.363273,0.405178,0.109879,0.211909,0.003924,324,310,14,27,0,0:
0000
0000
0000
0000
,
0000
0000
0000
0000
,
0000
0000
0000
0000
,
0000
0000
0000
0000
,
0000
0000
0000
0000
,
1000
0100
0010
0000
0001
0100
0010
0000
,
1000
0100
0001
0000
0001
0100
1000
0000
,
0001
0000
0000
0001
0100
0000
0000
0100
,
0010
1000
0001
0000
,
0001
0100
0010
0000
1000
0100
0010
0000
,
0001
0100
1000
0000
1000
0100
0001
0000
,
1000
0000
0000
1000
0100
0000
0000
0100
,
0010
0001
1000
0000
,
1001
0000
0000
0000
,
0010
0000
1000
0000
0100
0100
0100
0000
,
1000
0010
1000
0000
0001
0100
1000
0000
,
0100
0100
0000
0001
0000
0000
1000
0000
,
0100
1000
0001
0000
0100
0001
1000
0000
,
0100
0010
0001
0010
0100
0000
1000
0000
,
0001
0010
0001
0000
1000
0100
0001
0000
,
0100
0100
0000
1000
0000
0000
0001
0000
,
0100
0001
1000
0000
0100
1000
0001
0000
,
1000
0000
0000
1000
0000
0000
1000
0000
0010
0000
0100
0000
0100
0000
0000
0000
,
0001
0000
0010
0100
2000
0000
3001
0200
,
0000
0320
0000
2030
0000
3200
0000
0000
,
0300
0010
0001
0010
0100
1000
0001
0000
,
0010
0010
1000
0010
0100
0001
1000
0000
,
0000
0000
0001
0000
0001
0000
1000
0200
,
0000
0320
0000
0032
0000
0203
0000
0300
,
0001
0000
0001
0000
0100
0010
0100
0000
,
1000
0000
1000
0000
0100
0010
0100
0000
,
0001
0100
0001
0100
1000
0000
0100
0000
,
0010
1000
0010
1000
0100
0000
0010
0000
,
0000
0001
0100
0001
1000
0001
0010
0000
,
0110
1001
0110
0000
,
1000
0100
1000
0100
0001
0000
0100
0000
,
0010
0001
0010
0001
0100
0000
0010
0000
,
1000
0100
1000
0100
0020
0000
0030
0000
,
0001
0100
0001
0100
0010
0000
0000
0000
,
2000
3200
0320
0032
,
1003
0000
1010
0000
0001
0010
1000
0000
,
0100
0000
0000
1000
0010
0000
0000
0100
,
0001
0000
0010
0001
1000
0000
1001
0000
,
0010
0001
0100
0000
0010
1000
0100
0000
,
1000
0100
0001
0000
0100
1000
0010
0100
,
0001
0000
0000
0001
0010
0000
0000
0100
,
1000
0000
0010
1000
0001
0000
1001
0000
,
0010
0000
0001
0000
0100
0100
0100
0000
,
0020
0000
0000
0000
,
0000
0000
0000
0000
,
0230
0000
0000
0000
,
0000
0000
0000
0000
,
0301
0000
0100
0000
,
0010
0000
1000
0000
,
1000
0000
1000
0000
0100
0010
0100
0000
,
0001
0000
0001
0000
0100
0010
0100
0000
,
1000
0100
1000
0100
0001
0000
0100
0000
,
0010
0001
0010
0001
0100
0000
0010
0000
,
0000
1000
0100
1000
0001
1000
0010
0000
,
0110
1001
0110
0000
,
0001
0100
0001
0100
1000
0000
0100
0000
,
0010
1000
0010
1000
0100
0000
0010
0000
,
0001
0100
0001
0100
0020
0000
0030
0000
,
1000
0100
1000
0100
0010
0000
0000
0000
,
0002
0203
0320
2030
,
3001
0000
0011
0000
1000
0010
0001
0000
,
0100
0000
0000
0001
0010
0000
0000
0100
,
1000
0000
0010
1000
0001
0000
1001
0000
,
2000
3200
0320
0032
,
1003
0000
1010
0000
0001
0010
1000
0000
,
0100
0000
0000
1000
0010
0000
0000
0100
,
0001
0000
0010
0001
1000
0000
0000
0000
,
2002
0000
0000
0000
,
0000
0000
0000
3003
;

//---------------dance-single - NewbStepper-BSP----------------
#NOTES:
     dance-single:
     NewbStepper:
     Easy:
     5:
     0.224243,0.260472,0.180515,0.031394,0,200,177,23,4,0,0,0.224243,0.260472,0.180515,0.031394,0,200,177,23,4,0,0:
0000
0000
0000
0000
,
0000
0000
0000
0000
,
0000
0000
0000
0000
,
0000
0000
0000
0000
,
0000
0000
0000
0000
,
0001
0100
0001
0000
,
1000
0100
1000
0000
,
0010
0000
0100
0000
,
0001
0001
0010
0000
,
1000
0100
1000
0000
,
0001
0100
0001
0000
,
0010
0000
0100
0000
,
1000
1000
0010
0000
,
0200
0000
0300
0000
,
1001
0000
0000
0000
,
0010
1000
0010
0100
,
0010
0001
0010
0000
,
1000
0001
0100
0000
,
0001
1000
0100
0000
,
0010
0001
0010
0100
,
0010
1000
0010
0000
,
0001
1000
0100
0000
,
1000
0001
0100
0000
,
1000
0010
1010
0000
,
0001
0010
0011
0000
,
0100
0000
0110
0000
,
0001
1000
0001
0001
,
0000
0010
0011
0000
,
1000
0010
1010
0000
,
0100
0010
0100
0000
,
0001
1000
0001
0000
,
1000
0100
0001
0100
,
1000
0010
0100
0000
,
0001
0100
1000
0100
,
0001
0010
0100
0000
,
1000
0010
0001
0010
,
1000
0100
0010
0000
,
0001
0010
1000
0000
,
1000
0010
0001
0000
,
0101
0000
1100
0000
,
1010
0000
0011
0000
,
0010
0000
0100
0000
,
1000
1000
0001
0000
,
1100
0000
0101
0000
,
0011
0000
1010
0000
,
0010
0000
0100
0000
,
0001
0001
1000
0000
,
1001
0000
0000
0000
,
0002
0000
0000
0000
,
0000
0000
0003
0000
,
2000
0000
0000
0000
,
0000
0000
3000
0000
,
0001
0000
0001
0000
,
1000
0000
1000
0000
,
0100
0010
0100
0000
,
1000
0001
1000
0000
,
0001
0100
1000
0100
,
0001
0010
0100
0000
,
1000
0100
0001
0100
,
1000
0010
0100
0000
,
0001
0010
1000
0010
,
0001
0100
0010
0000
,
1000
0010
0001
0000
,
0001
0010
1000
0000
,
1100
0000
0101
0000
,
0011
0000
1010
0000
,
0010
0000
0100
0000
,
0001
0001
1000
0000
,
0101
0000
1100
0000
,
1010
0000
0011
0000
,
0010
0000
0100
0000
,
1000
1000
0001
0000
,
0200
0000
0000
0000
,
0000
0000
0000
0300
;

//---------------dance-single - NewbStepper-bSP----------------
#NOTES:
     dance-single:
     NewbStepper:
     Beginner:
     2:
     0.118849,0.202589,0.039242,0.007848,0,106,101,5,1,0,0,0.118849,0.202589,0.039242,0.007848,0,106,101,5,1,0,0:
0000
0000
0000
0000
,
0000
0000
0000
0000
,
0000
0000
0000
0000
,
0000
0000
0000
0000
,
0000
0000
0000
0000
,
1000
0000
0000
0000
,
1000
0000
0000
0000
,
0001
0000
0000
0000
,
0100
0100
0100
0000
,
0001
0000
0000
0000
,
0001
0000
0000
0000
,
1000
0000
0000
0000
,
0100
0100
0100
0000
,
1000
0000
0000
0000
,
1001
0000
0000
0000
,
0010
0000
0001
0000
,
0100
0000
0000
0000
,
0010
0000
1000
0000
,
0100
0000
0000
0000
,
1000
0000
0001
0000
,
0100
0000
0000
0000
,
0001
0000
1000
0000
,
0100
0000
0000
0000
,
1000
1000
1000
0000
,
0010
0000
0010
0000
,
0001
0001
0001
0000
,
0100
0000
0100
0000
,
0001
0001
0001
0000
,
0010
0000
0010
0000
,
1000
1000
1000
0000
,
0001
0001
0001
0000
,
1000
0000
1000
0000
,
0010
0000
0010
0000
,
0100
0000
0100
0000
,
0001
0000
0000
0000
,
0001
0000
0001
0000
,
0010
0000
0010
0000
,
0100
0000
0000
0000
,
0010
0000
0000
0000
,
1001
0000
0000
0000
,
0000
0000
0000
0000
,
0010
0000
0000
0000
,
0010
0000
0000
0000
,
0100
0100
0100
0000
,
0001
0000
1000
0000
,
0001
0000
0000
0000
,
0010
0010
0010
0000
,
1001
0000
0000
0000
,
1000
0000
0000
0000
,
0000
0000
0000
0000
,
0000
0000
0000
0000
,
0000
0000
0000
0000
,
0001
0000
0000
0000
,
0000
0000
0000
0000
,
1000
1000
1000
0000
,
0001
0001
0001
0000
,
1000
0000
1000
0000
,
0010
0000
0010
0000
,
0100
0000
0100
0000
,
0001
0000
0000
0000
,
0001
0000
0001
0000
,
0010
0000
0010
0000
,
0100
0000
0000
0000
,
0010
0000
0000
0000
,
1001
0000
0000
0000
,
0000
0000
0000
0000
,
0010
0000
0000
0000
,
0010
0000
0000
0000
,
1001
0000
0000
0000
,
0000
0000
0000
0000
,
0100
0000
0000
0000
,
0100
0000
0000
0000
,
0200
0000
0000
0000
,
0000
0000
0000
0300
;

//---------------dance-double - NewbStepper-EDP----------------
#NOTES:
     dance-double:
     NewbStepper:
     Hard:
     11:
     0.466425,0.492002,0.164818,0.188364,0.070636,416,395,21,24,0,0,0.466425,0.492002,0.164818,0.188364,0.070636,416,395,21,24,0,0:
// measure 0
00000000
00000000
00000000
00000000
,  // measure 1
00000000
00000000
00000000
00000000
,  // measure 2
00000000
00000000
00000000
00000000
,  // measure 3
00000000
00000000
00000000
00000000
,  // measure 4
00000000
00000000
00000000
00000000
,  // measure 5
10000000
01000000
10000000
00100000
00010000
00001000
00010000
01000000
,  // measure 6
00010000
00001000
00100000
00010000
00001000
00000100
00000010
00000001
,  // measure 7
00002000
00000000
00003000
00000001
00000200
00000000
00000300
00000001
,  // measure 8
00001000
00001000
00001000
00000100
00000010
00000000
00001001
00000000
,  // measure 9
00000001
00000100
00000001
00000010
00001000
00010000
00001000
00000100
,  // measure 10
00001000
00010000
00000010
00001000
00010000
01000000
00100000
10000000
,  // measure 11
00020000
00000000
00030000
10000000
02000000
00000000
03000000
10000000
,  // measure 12
00010000
00000000
00010000
00000000
00010000
00000000
01000000
00000000
00100000
00000000
00000000
01000000
00000000
00000000
00100000
00000000
,  // measure 13
02200000
00000000
00000000
03300000
,  // measure 14
00010000
00000000
00000000
00010000
00001000
00000000
00000100
00000000
00000001
00000000
00000010
00000000
00000110
00000000
00000000
00000000
,  // measure 15
00000001
00000100
00000001
00000010
00001000
00010000
00100000
10000000
,  // measure 16
00010000
00010000
00000000
10000000
00000000
01000000
01000000
00000000
,  // measure 17
00010000
00001000
00010000
00000010
00001000
00000001
00000000
00001000
,  // measure 18
00000000
00000010
00000100
00001000
00010000
00000000
01000000
00100000
,  // measure 19
00000000
01000000
10000000
00100000
00010000
00001000
00000010
00000001
,  // measure 20
00001000
00001000
00000000
00000001
00000000
00000100
00000100
00000000
,  // measure 21
00000001
00000010
00000001
00000100
00001000
00000000
00010000
00000000
,  // measure 22
00000000
00100000
10000000
01000000
00010000
01000000
10000000
00000000
,  // measure 23
00100000
00000000
00000000
00100000
10000000
00000000
00000000
10000000
01000000
00000000
00000000
01000000
00010000
00000000
00000000
00010000
,  // measure 24
00001000
00000000
00000000
00001000
00000100
00000000
00000000
00000100
00000001
00000000
00000000
00000001
00001000
00000000
00000000
00000000
,  // measure 25
00000000
00000010
00001000
00000001
00000010
00001000
00010000
00000000
,  // measure 26
01000000
00100000
00010000
10000000
00100000
00010000
00001000
00000000
,  // measure 27
00000010
00000000
00000000
00000010
00000001
00000000
00000000
00000001
00000100
00000000
00000000
00000100
00001000
00000000
00000000
00001000
,  // measure 28
00010000
00000000
00000000
00010000
01000000
00000000
00000000
01000000
10000000
00000000
00000000
10000000
00010000
00000000
00000000
00000000
,  // measure 29
10000000
01000000
10000000
01000000
00010000
00001000
00000010
00000000
,  // measure 30
00000001
00000100
00000001
00000100
00001000
00010000
00100000
00000000
,  // measure 31
10000000
01000000
00100000
01000000
00010000
00001000
00010000
00000000
,  // measure 32
00001000
00100000
00010000
00001000
00000100
00000010
00000001
00000000
,  // measure 33
00000000
00001000
00000001
00000100
00001000
00010000
01000000
00000000
,  // measure 34
00100000
00010000
00001000
00000100
00000010
00000000
00000110
00000000
,  // measure 35
00000001
00000100
00000010
00000100
00001000
00010000
00001000
00000000
,  // measure 36
00010000
00000010
00001000
00010000
01000000
00100000
10000000
00000000
,  // measure 37
00100000
10000000
01000000
00010000
00002000
00000000
00003000
00000000
,  // measure 38
00000010
00000001
00000100
00001000
00020000
00000000
00030000
00000000
,  // measure 39
00101000
00010010
01001000
00010100
,  // measure 40
00001000
00000010
00000100
00000001
00000010
00001000
00010000
00100000
,  // measure 41
20000000
00000000
30000000
00010000
02000000
00000000
03000000
00001000
,  // measure 42
00010000
00010000
00010000
00001000
00000010
00000000
00000110
00000000
,  // measure 43
00001000
00010000
00001000
00100000
00010000
10000000
00100000
01000000
,  // measure 44
00001000
00010000
00001000
00000100
00001000
00000100
00000001
00000010
,  // measure 45
00000002
00000000
00000003
00001000
00000200
00000000
00000300
00010000
,  // measure 46
00001000
00000000
00001000
00000000
00001000
00000000
00010000
00000000
00100000
00000000
00000000
01000000
00000000
00000000
00100000
00000000
,  // measure 47
00010000
00000000
00000000
00010000
00001000
00000000
00000100
00000000
00000001
00000000
00000010
00000000
00000110
00000000
00000000
00000000
,  // measure 48
00001002
00000000
00000000
00000000
,  // measure 49
00002000
00000000
00000003
00000000
,  // measure 50
00020000
00000000
00003000
00000000
,  // measure 51
20000000
00000000
00000000
30030000
,  // measure 52
00010000
10000000
01000000
00100000
,  // measure 53
00010000
00001000
00000100
00000010
,  // measure 54
00000001
00000100
00000001
00000100
00001000
00010000
00100000
00000000
,  // measure 55
10000000
01000000
10000000
01000000
00010000
00001000
00000010
00000000
,  // measure 56
00000001
00000100
00000010
00000100
00001000
00010000
00001000
00000000
,  // measure 57
00010000
00000010
00001000
00010000
01000000
00100000
10000000
00000000
,  // measure 58
00000000
00010000
10000000
01000000
00010000
00001000
00000100
00000000
,  // measure 59
00000010
00001000
00010000
01000000
00100000
00000000
01100000
00000000
,  // measure 60
10000000
01000000
00100000
01000000
00010000
00001000
00010000
00000000
,  // measure 61
00001000
00100000
00010000
00001000
00000100
00000010
00000001
00000000
,  // measure 62
00000010
00000001
00000100
00001000
00020000
00000000
00030000
00000000
,  // measure 63
00100000
10000000
01000000
00010000
00002000
00000000
00003000
00000000
,  // measure 64
00010010
00101000
00010100
01001000
,  // measure 65
00010000
00100000
01000000
10000000
00100000
00010000
00001000
00000010
,  // measure 66
00000002
00000000
00000003
00001000
00000200
00000000
00000300
00010000
,  // measure 67
00001000
00001000
00001000
00010000
00100000
00000000
01000000
00000000
,  // measure 68
00101000
00010010
01001000
00010100
,  // measure 69
00001000
00000010
00000100
00000001
00000010
00001000
00010000
00100000
,  // measure 70
20000000
00000000
30000000
00010000
02000000
00000000
03000000
00001000
,  // measure 71
00010000
00010000
00010000
00001000
00000010
00000000
00000100
00000000
,  // measure 72
00002002
00000000
00000000
00000000
,  // measure 73
00000000
00000000
00000000
00003003
;

//---------------dance-double - NewbStepper-DDP----------------
#NOTES:
     dance-double:
     NewbStepper:
     Medium:
     9:
     0.358788,0.434120,0.133424,0.172667,0.003924,320,303,17,22,0,0,0.358788,0.434120,0.133424,0.172667,0.003924,320,303,17,22,0,0:
// measure 0
00000000
00000000
00000000
00000000
,  // measure 1
00000000
00000000
00000000
00000000
,  // measure 2
00000000
00000000
00000000
00000000
,  // measure 3
00000000
00000000
00000000
00000000
,  // measure 4
00000000
00000000
00000000
00000000
,  // measure 5
10000000
01000000
00100000
00000000
00010000
01000000
00100000
00000000
,  // measure 6
10000000
01000000
00010000
00000000
00001000
00000100
00000001
00000000
,  // measure 7
00001000
00000000
00000000
00000001
00000100
00000000
00000000
00000100
,  // measure 8
00000010
00001000
00000001
00000000
,  // measure 9
00000001
00000100
00000010
00000000
00001000
00000100
00000010
00000000
,  // measure 10
00000001
00000100
00001000
00000000
00010000
01000000
10000000
00000000
,  // measure 11
00010000
00000000
00000000
10000000
01000000
00000000
00000000
01000000
,  // measure 12
00100000
00010000
10000000
00000000
,  // measure 13
10010000
00000000
00000000
00000000
,  // measure 14
00100000
00000000
00001000
00000000
00010000
00001000
00010000
00000000
,  // measure 15
00001000
00000010
00001000
00000000
00010000
01000000
10000000
00000000
,  // measure 16
01000000
01000000
00000000
00100000
00000000
00000000
00000000
00000000
,  // measure 17
00010000
00000000
00100000
00001000
00010000
00000000
00001000
00000000
,  // measure 18
00000010
00000000
00000001
00000100
00000010
00010000
00001000
00000000
,  // measure 19
00010000
00100000
00010000
00000000
00001000
00000100
00000001
00000000
,  // measure 20
00000100
00000100
00000000
00000010
00000000
00000000
00000000
00000000
,  // measure 21
00001000
00000000
00000010
00010000
00001000
00000000
00100000
00010000
,  // measure 22
10000000
00000000
00000000
10000000
00000000
00000000
10000000
00000000
01000000
00000000
00010000
00000000
00010000
00000000
00000000
00000000
,  // measure 23
00002000
00100000
00010000
00100000
,  // measure 24
00023000
00000010
00001000
00030010
,  // measure 25
00000000
00010000
00001000
00010000
00000010
00001000
00000001
00000000
,  // measure 26
00000100
00000100
00000010
00010000
00001000
01000000
00100000
00000000
,  // measure 27
00020000
00000100
00001000
00000100
,  // measure 28
00032000
01000000
00010000
01003000
,  // measure 29
00010000
00000000
00010000
00000000
01000000
00100000
01000000
00000000
,  // measure 30
10000000
00000000
10000000
00000000
01000000
00100000
01000000
00000000
,  // measure 31
00010000
01000000
00001000
01000000
00100000
00010000
00001000
00000000
,  // measure 32
00000010
00000000
00001000
00000000
00010000
00001000
00000010
00000000
,  // measure 33
00000000
00000100
00010000
00000100
00000010
00001000
00010000
00000000
,  // measure 34
00011000
00101000
00010100
00000000
,  // measure 35
00001000
00000100
00010000
00000100
00000010
00001000
00010000
00000000
,  // measure 36
00100000
00000000
00010000
00000000
00001000
00010000
00100000
00000000
,  // measure 37
10000000
01000000
10000000
01000000
00200000
00000000
00300000
00000000
,  // measure 38
00010000
01000000
00010000
01000000
00001000
00000000
00000000
00000000
,  // measure 39
00020000
00030020
00020030
00032000
,  // measure 40
00103000
00101000
00010000
00010010
,  // measure 41
00001000
00000000
00000000
00100000
00010000
00000000
00000000
10000000
,  // measure 42
00100000
00000000
00010000
00001000
00010000
00000000
00011000
00000000
,  // measure 43
00000010
00001000
00000100
00000000
00000010
00000001
00000100
00000000
,  // measure 44
00000001
00000100
00001000
00000000
00010000
01000000
10000000
00000000
,  // measure 45
00010000
00000000
00000000
10000000
01000000
00000000
00000000
00010000
,  // measure 46
00001000
00000000
00100000
00001000
00010000
00000000
00011000
00000000
,  // measure 47
00000010
00000000
00010000
00000000
00001000
00010000
00001000
00000000
,  // measure 48
02000000
00000000
00000000
00000000
,  // measure 49
00000000
00000000
00000000
00000000
,  // measure 50
03020000
00000000
00000000
00000000
,  // measure 51
00000000
00000000
00000000
00000000
,  // measure 52
10030000
00000000
01000000
00000000
,  // measure 53
00100000
00000000
00010000
00000000
,  // measure 54
00001000
00000000
00001000
00000000
00000100
00000010
00000100
00000000
,  // measure 55
00000001
00000000
00000001
00000000
00000100
00000010
00000100
00000000
,  // measure 56
00001000
00000100
00010000
00000100
00000010
00001000
00010000
00000000
,  // measure 57
00100000
00000000
00010000
00000000
00001000
00010000
00100000
00000000
,  // measure 58
00000000
01000000
00001000
01000000
00100000
00010000
00001000
00000000
,  // measure 59
00011000
00010010
01001000
00000000
,  // measure 60
00010000
01000000
00001000
01000000
00100000
00010000
00001000
00000000
,  // measure 61
00000010
00000000
00001000
00000000
00010000
00001000
00000010
00000000
,  // measure 62
00000001
00000100
00000001
00000100
00000020
00000000
00000030
00000000
,  // measure 63
00001000
00000100
00001000
00000100
00010000
00000000
00000000
00000000
,  // measure 64
00002000
00203000
00302000
00023000
,  // measure 65
00030010
00010010
00001000
00101000
,  // measure 66
00010000
00000000
00000000
00000010
00001000
00000000
00000000
00000001
,  // measure 67
00000010
00000000
00001000
00010000
00001000
00000000
00011000
00000000
,  // measure 68
00020000
00030020
00020030
00032000
,  // measure 69
00103000
00101000
00010000
00010010
,  // measure 70
00001000
00000000
00000000
00100000
00010000
00000000
00000000
10000000
,  // measure 71
00100000
00000000
00010000
00001000
00010000
00000000
00000000
00000000
,  // measure 72
00022000
00000000
00000000
00000000
,  // measure 73
00000000
00000000
00000000
00033000
;

//---------------dance-double - NewbStepper-BDP----------------
#NOTES:
     dance-double:
     NewbStepper:
     Easy:
     5:
     0.210788,0.260472,0.062788,0.031394,0,188,180,8,4,0,0,0.210788,0.260472,0.062788,0.031394,0,188,180,8,4,0,0:
// measure 0
00000000
00000000
00000000
00000000
,  // measure 1
00000000
00000000
00000000
00000000
,  // measure 2
00000000
00000000
00000000
00000000
,  // measure 3
00000000
00000000
00000000
00000000
,  // measure 4
00000000
00000000
00000000
00000000
,  // measure 5
00000001
00000100
00000001
00000000
,  // measure 6
00001000
00000100
00001000
00000000
,  // measure 7
00010000
00000000
00001000
00000000
,  // measure 8
00100000
00010000
00100000
00000000
,  // measure 9
10000000
01000000
10000000
00000000
,  // measure 10
00010000
01000000
00010000
00000000
,  // measure 11
00001000
00000000
00010000
00000000
,  // measure 12
00000010
00001000
00000010
00000000
,  // measure 13
00000002
00000000
00000003
00000000
,  // measure 14
00001001
00000000
00000000
00000000
,  // measure 15
00000010
00010000
00000010
00001000
,  // measure 16
00000100
00010000
00001000
00000000
,  // measure 17
00010000
01000000
10000000
00000000
,  // measure 18
00100000
01000000
00010000
00000000
,  // measure 19
00100000
00001000
00100000
00010000
,  // measure 20
01000000
00001000
00010000
00000000
,  // measure 21
00001000
00000100
00000001
00000000
,  // measure 22
00000010
00000100
00001000
00000000
,  // measure 23
00000001
00000000
00001000
00000000
,  // measure 24
00010000
00000000
10000000
00000000
,  // measure 25
01000000
00100000
01100000
00000000
,  // measure 26
10000000
00010000
10010000
00000000
,  // measure 27
10000000
00000000
00010000
00000000
,  // measure 28
00001000
00000000
00000001
00000000
,  // measure 29
00000100
00000010
00000110
00000000
,  // measure 30
00000001
00001000
00001001
00000000
,  // measure 31
00000001
00000100
00000001
00000100
,  // measure 32
00001000
00010000
00001000
00000000
,  // measure 33
00010000
00100000
10000000
00100000
,  // measure 34
00010000
00001000
01000000
00000000
,  // measure 35
10000000
01000000
10000000
01000000
,  // measure 36
00010000
00001000
00010000
00000000
,  // measure 37
00000010
00001000
00000100
00000000
,  // measure 38
00000010
00000001
00000100
00000000
,  // measure 39
00000001
00000100
00001000
00010000
,  // measure 40
00000000
00000000
00100000
01000000
,  // measure 41
00100000
00000000
10000000
00000000
,  // measure 42
00010000
00100000
00010000
00000000
,  // measure 43
10000000
01000000
00010000
00001000
,  // measure 44
00000000
00000010
00000000
00000010
,  // measure 45
00001000
00000000
00000001
00000000
,  // measure 46
00000010
00000100
00000010
00000000
,  // measure 47
00001001
00000000
00000000
00000000
,  // measure 48
00000002
00000000
00000000
00000000
,  // measure 49
00000000
00000000
00000003
00000000
,  // measure 50
00002000
00000000
00000000
00000000
,  // measure 51
00000000
00000000
00003000
00000000
,  // measure 52
00000001
00000000
00000000
00000000
,  // measure 53
00001000
00000000
00000000
00000000
,  // measure 54
01000000
00100000
01100000
00000000
,  // measure 55
10000000
00010000
10010000
00000000
,  // measure 56
10000000
01000000
10000000
01000000
,  // measure 57
00010000
00001000
00010000
00000000
,  // measure 58
00001000
00000010
00000001
00000010
,  // measure 59
00001000
00010000
00000100
00000000
,  // measure 60
00000001
00000100
00000001
00000100
,  // measure 61
00001000
00010000
00001000
00000000
,  // measure 62
00100000
00010000
01000000
00000000
,  // measure 63
00100000
10000000
01000000
00000000
,  // measure 64
10000000
01000000
00010000
00001000
,  // measure 65
00000000
00000000
00000010
00000100
,  // measure 66
00000010
00000000
00000001
00000000
,  // measure 67
00001000
00000010
00001000
00000000
,  // measure 68
00000001
00000100
00001000
00010000
,  // measure 69
00000000
00000000
00100000
01000000
,  // measure 70
00100000
00000000
10000000
00000000
,  // measure 71
00010000
00100000
00010000
00000000
,  // measure 72
02000000
00000000
00000000
00000000
,  // measure 73
00000000
00000000
00000000
03000000
;
