#VERSION:0.83;
#TITLE:Disconnected;
#ARTIST:Pegboard Nerds;
#BANNER:Disconnected.png;
#BACKGROUND:Disconnected-bg.png;
#JACKET:Disconnected-jacket.png;
#MUSIC:Disconnected.ogg;
#OFFSET:1.834;
#SAMPLESTART:90.039;
#SAMPLELENGTH:15;
#BPMS:0=128,100=64,132=128;

//---------------dance-single - NewbStepper-ESP----------------
#NOTEDATA:;
#CHARTNAME:NewbStepper-ESP;
#STEPSTYPE:dance-single;
#DESCRIPTION:NewbStepper-ESP;
#DIFFICULTY:Hard;
#METER:13;
#RADARVALUES:0.524503,0.710483,0.684271,0.279595,0.275916,499,406,93,38,0,0,0,0,0,0.524503,0.710483,0.684271,0.279595,0.275916,499,406,93,38,0,0,0,0,0;
#CREDIT:NewbStepper;
#NOTES:
0000
0000
0000
0000
,
0000
0000
0000
0000
,
0000
0000
0000
0000
,
0000
0000
0000
0000
,
0000
0000
0000
0000
,
1000
1000
1000
1000
,
0001
0001
0001
0001
,
1000
1000
0100
0100
0010
0010
0001
0001
,
1000
0010
1000
0010
1000
0010
1000
0010
1000
0000
0100
0000
0110
0000
0000
0000
,
0001
0010
0011
0000
1000
0010
1010
0000
,
0100
0000
0100
0000
0101
0000
0010
0000
0000
0000
1000
0000
0001
0100
0001
0000
,
1000
0100
1100
0000
0001
0100
0101
0000
,
0110
0000
0000
1010
0000
0000
0110
0000
0000
0000
0000
0000
1000
0000
0001
0000
,
1000
0010
1010
0000
0001
0010
0011
0000
,
1000
0000
0100
0000
0001
0000
0100
0000
0000
0000
0100
0000
0010
0100
0010
0000
,
0001
0100
0101
0000
1000
0100
1100
0000
,
0010
0001
0100
2000
0000
3000
0100
0010
,
0100
0101
0000
0000
0100
1100
0000
0000
,
0010
0000
0010
0000
1010
0000
0100
0000
0000
0000
0100
0000
0001
0100
0010
1000
,
0010
1010
0000
0000
0010
0011
0000
1010
,
0110
0000
0000
0101
0000
0000
0110
0000
0000
0000
1000
0000
0001
0000
0010
0000
,
0100
1100
0000
0000
0100
0101
0000
0010
,
0001
0000
0100
0000
0010
0000
2000
0000
0000
0000
3001
0000
1000
0100
0010
0100
,
2000
0000
0000
3002
0000
0203
0000
0320
,
0000
0000
0000
0030
0000
0000
0000
0000
,
2001
0000
0000
0000
3001
0001
0010
0010
0200
2300
3020
0230
0310
0000
0110
0000
,
1002
0000
0000
0000
0000
0000
0000
0000
1003
0000
0100
1000
0100
1000
0100
0000
0020
0000
0000
0000
0032
0000
0000
0000
0103
0010
0000
0000
0100
0010
0000
0000
,
1002
0000
0000
0000
1003
1000
0010
0010
0200
0302
0023
0230
0310
0000
0110
0000
,
2001
0000
0000
0000
0000
0000
0000
0000
3001
0000
0010
0000
1000
0000
0010
0000
0002
0000
0000
0000
2003
0000
0000
0000
3010
0100
0000
0000
0010
0100
0000
0000
,
0201
0000
0000
0000
1300
0100
0001
0010
0021
0000
0000
0100
0130
0000
1001
0000
,
1020
0000
0000
0000
0000
0000
0000
0000
0100
0000
0100
0000
0100
0000
0000
0000
1030
0000
0001
0000
0100
0010
0100
0000
0001
1000
0000
0000
0001
1000
0000
0000
,
1200
0000
0000
0000
0000
0000
0000
0000
0301
0000
0100
0010
0100
0010
0100
0000
0020
0000
0000
0000
0000
0000
0100
0000
0130
0000
0000
0000
1001
0000
0000
0000
,
0021
0000
0000
0000
0000
0000
0000
0000
0100
0000
0100
0000
0100
0000
0100
0000
0031
0000
0101
0000
0000
0000
0010
0000
1000
0001
0000
0000
1000
0001
0000
0000
,
1000
0100
0000
0000
0000
0000
0010
0000
0011
0000
0000
0101
0000
0000
1010
0000
,
0010
0100
0000
0000
0000
0000
0001
0000
0101
0000
0000
1010
0000
0000
1001
0000
,
0001
0100
0000
0000
0000
0000
0010
0000
1010
0000
0000
1100
0000
0000
0011
0000
,
0010
0100
0000
0000
0000
0000
1000
0000
1100
0000
0000
0011
0000
0000
1001
0000
,
0001
0001
0001
0001
,
1000
1000
1000
1000
,
0001
0001
0100
0100
0010
0010
1000
1000
,
0001
0010
0001
0010
0001
0010
0001
0010
0001
0000
0100
0000
0110
0000
0000
0000
,
1000
0010
1010
0000
0001
0010
0011
0000
,
0100
0000
0100
0000
1100
0000
0010
0000
0000
0000
0001
0000
1000
0100
1000
0000
,
0001
0100
0101
0000
1000
0100
1100
0000
,
0110
0000
0000
0011
0000
0000
0110
0000
0000
0000
0000
0000
0001
0000
1000
0000
,
0001
0010
0011
0000
1000
0010
1010
0000
,
0001
0000
0100
0000
1000
0000
0100
0000
0000
0000
0100
0000
0010
0100
0010
0000
,
1000
0100
1100
0000
0001
0100
0101
0000
,
0010
1000
0100
0002
0000
0003
0100
0010
,
0100
1100
0000
0000
0100
0101
0000
0000
,
0010
0000
0010
0000
0011
0000
0100
0000
0000
0000
0100
0000
1000
0100
0010
0001
,
0010
0011
0000
0000
0010
1010
0000
0011
,
0110
0000
0000
1100
0000
0000
0110
0000
0000
0000
0001
0000
1000
0000
0010
0000
,
0100
0101
0000
0000
0100
1100
0000
0010
,
1000
0000
0100
0000
0010
0000
0002
0000
0000
0000
1003
0000
0001
0100
0010
0100
,
0002
0000
0000
2003
0000
3200
0000
0320
,
0000
0000
0000
0030
0000
0000
0000
0000
,
0011
0011
0100
1000
1010
1010
0100
0011
,
0100
0000
1010
0000
0100
0000
0011
0000
0000
0000
0001
0000
1000
0100
1000
0100
,
0010
0011
0001
0100
1000
1100
0100
0001
,
0011
0000
0000
1010
0000
0000
0011
0000
0000
0000
0000
0000
0100
0000
0010
0000
,
1010
1010
0100
0001
0011
0011
0100
1010
,
0100
0000
0011
0000
0100
0000
1010
0000
0000
0000
1000
0000
0001
0100
0001
0100
,
0020
0000
0000
2030
0000
3002
0000
0203
,
0000
0000
0000
0300
0000
0000
0000
0000
;

//---------------dance-single - NewbStepper-DSP----------------
#NOTEDATA:;
#CHARTNAME:NewbStepper-DSP;
#STEPSTYPE:dance-single;
#DESCRIPTION:NewbStepper-DSP;
#DIFFICULTY:Medium;
#METER:10;
#RADARVALUES:0.364735,0.497338,0.272237,0.191302,0.051504,347,310,37,26,0,0,0,0,0,0.364735,0.497338,0.272237,0.191302,0.051504,347,310,37,26,0,0,0,0,0;
#CREDIT:NewbStepper;
#NOTES:
0000
0000
0000
0000
,
0000
0000
0000
0000
,
0000
0000
0000
0000
,
0000
0000
0000
0000
,
0000
0000
0000
0000
,
0001
0001
0001
0001
,
1000
1000
1000
1000
,
0010
0010
0010
0010
0100
0100
0100
0100
,
0001
1000
0001
1000
0001
1000
0000
0000
,
0001
0001
0000
0000
1000
1000
0000
0000
,
0100
0100
0100
0010
0000
0010
0100
1000
,
0010
0010
0000
0000
0100
0100
0000
0001
,
1000
0000
0000
0001
0000
0000
1000
0000
0000
0000
0000
0000
0110
0000
0000
0000
,
1000
1000
0000
0000
0001
0001
0000
0000
,
0100
0010
0100
1000
0000
1000
0100
0001
,
0100
0100
0000
0000
0010
0010
0000
1000
,
0001
0100
0010
2000
0000
0000
3100
0000
,
1000
1000
0000
0000
0001
0001
0000
0000
,
0100
0100
0100
0010
0000
0010
0100
0001
,
0010
0010
0000
0000
0100
0100
0000
1000
,
0001
0000
0000
1000
0000
0000
0001
0000
0000
0000
0000
0000
0110
0000
0000
0000
,
0001
0001
0000
0000
1000
1000
0000
0001
,
0100
1000
0100
0001
0000
1000
0100
0010
,
0002
0000
0000
2000
0000
3003
0000
0220
,
0000
0000
0000
0330
0000
0000
0000
0000
,
1020
0000
0100
0100
2030
0000
3001
0100
,
0201
0000
1000
1000
0310
0100
0110
1001
,
0021
0000
0100
0100
0032
0000
1003
0100
,
1200
0000
0001
0001
0310
0100
0110
1001
,
2000
0000
0000
0000
0001
0001
0001
0000
3200
0000
0000
0000
0310
0000
0110
0000
,
0002
0000
0000
0000
1003
0000
1100
0000
0010
0001
0010
0000
0110
0000
0110
0000
,
0002
0000
0000
0000
1000
1000
1000
0000
0203
0000
0000
0000
0310
0000
0110
0000
,
2000
0000
0000
0000
3001
0000
0101
0000
0010
1000
0000
0100
0010
0000
0110
0000
,
0101
0000
0000
0000
0000
0000
1000
0000
0100
0000
0000
0100
0000
0000
0100
0000
,
1100
0000
0000
0000
0000
0000
0001
0000
0010
0000
0000
0010
0000
0000
0010
0000
,
0011
0000
0000
0000
0000
0000
1000
0000
0010
0000
0000
0010
0000
0000
0010
0000
,
1010
0000
0000
0000
0000
0000
1000
0000
0100
0000
0000
0100
0000
0000
0100
0000
,
1000
1000
1000
1000
,
0001
0001
0001
0001
,
0010
0010
0010
0010
0100
0100
0100
0100
,
1000
0001
1000
0001
1000
0001
0000
0000
,
1000
1000
0000
0000
0001
0001
0000
0000
,
0100
0100
0100
0010
0000
0010
0100
0001
,
0010
0010
0000
0000
0100
0100
0000
1000
,
0001
0000
0000
1000
0000
0000
0001
0000
0000
0000
0000
0000
0110
0000
0000
0000
,
0001
0001
0000
0000
1000
1000
0000
0000
,
0100
0010
0100
0001
0000
0001
0100
1000
,
0100
0100
0000
0000
0010
0010
0000
0001
,
1000
0100
0010
0002
0000
0000
0103
0000
,
0001
0001
0000
0000
1000
1000
0000
0000
,
0100
0100
0100
0010
0000
0010
0100
1000
,
0010
0010
0000
0000
0100
0100
0000
0001
,
1000
0000
0000
0001
0000
0000
1000
0000
0000
0000
0000
0000
0110
0000
0000
0000
,
1000
1000
0000
0000
0001
0001
0000
1000
,
0100
0001
0100
1000
0000
0001
0100
0010
,
2000
0000
0000
0002
0000
3003
0000
0220
,
0000
0000
0000
0330
0000
0000
0000
0000
,
0001
0100
0101
0000
1000
0100
1100
0000
,
0010
0001
0010
0011
0000
1001
1001
0000
,
1000
0100
1100
0000
0001
0100
0101
0000
,
0010
0000
0000
0100
0000
0000
0110
0000
0000
0000
0000
0000
1001
0000
0000
0000
,
1000
0010
1010
0000
0001
0010
0011
0000
,
1000
0100
0001
0100
0000
1000
0010
0100
,
0002
0000
0000
2000
0000
3003
0000
0220
,
0000
0000
0000
0330
0000
0000
0000
0000
;

//---------------dance-single - NewbStepper-BSP----------------
#NOTEDATA:;
#CHARTNAME:NewbStepper-BSP;
#STEPSTYPE:dance-single;
#DESCRIPTION:NewbStepper-BSP;
#DIFFICULTY:Easy;
#METER:5;
#RADARVALUES:0.200762,0.284193,0.103009,0.095651,0,191,177,14,13,0,0,0,0,0,0.200762,0.284193,0.103009,0.095651,0,191,177,14,13,0,0,0,0,0;
#CREDIT:NewbStepper;
#NOTES:
0000
0000
0000
0000
,
0000
0000
0000
0000
,
0000
0000
0000
0000
,
0000
0000
0000
0000
,
0000
0000
0000
0000
,
0010
0000
0010
0000
,
0010
0000
0010
0000
,
1000
0001
1000
0001
,
2002
0000
0000
3003
,
0010
0000
0010
0000
,
1000
0100
1000
0000
,
0010
0000
0010
0000
,
0001
0100
0001
0000
,
0100
0000
0100
0000
,
1000
0100
0010
0000
,
0100
0000
0100
0000
,
0001
0100
0010
0000
,
1000
0100
1000
0100
,
0001
0100
1000
0000
,
0001
0100
0001
0100
,
1000
0100
0001
0000
,
0010
0001
0010
0001
,
1000
0010
0100
0001
,
0020
0000
0000
0000
0030
0000
0000
2002
,
0000
0000
0000
3003
0000
0000
0000
0000
,
1010
0100
0001
0010
,
1001
0001
1000
0100
,
0110
1000
0001
0100
,
0101
0000
0001
0000
1000
0000
0010
0010
,
0100
0100
0010
0010
,
1100
0001
0010
0100
,
0011
1000
0100
0010
,
0101
0000
1000
0000
0010
0000
0100
0100
,
0001
0000
1000
0100
,
1000
0000
0001
0100
,
0001
0000
1000
0010
,
1000
0000
0010
0100
,
0010
0000
0010
0000
,
0010
0000
0010
0000
,
0001
1000
0001
1000
,
2002
0000
0000
3003
,
0010
0000
0010
0000
,
0001
0100
0001
0000
,
0010
0000
0010
0000
,
1000
0100
1000
0000
,
0100
0000
0100
0000
,
0001
0100
0010
0000
,
0100
0000
0100
0000
,
1000
0100
0010
0000
,
0001
0100
0001
0100
,
1000
0100
0001
0000
,
1000
0100
1000
0100
,
0001
0100
1000
0000
,
0010
1000
0010
1000
,
0001
0010
0100
1000
,
0020
0000
0000
0000
0030
0000
0000
2002
,
0000
0000
0000
3003
0000
0000
0000
0000
,
0010
0001
0100
0010
,
1000
0100
0100
1000
,
0010
1000
0100
0010
,
0001
0100
0100
0010
,
1010
0000
0101
0000
,
1000
0001
1001
0100
,
0020
0000
0030
0002
0000
0000
0000
2000
,
0000
0000
0000
3003
0000
0000
0000
0000
;

//---------------dance-single - NewbStepper-bSP----------------
#NOTEDATA:;
#CHARTNAME:NewbStepper-bSP;
#STEPSTYPE:dance-single;
#DESCRIPTION:NewbStepper-bSP;
#DIFFICULTY:Beginner;
#METER:2;
#RADARVALUES:0.105111,0.140993,0,0.022073,0,100,100,0,3,0,0,0,0,0,0.105111,0.140993,0,0.022073,0,100,100,0,3,0,0,0,0,0;
#CREDIT:NewbStepper;
#NOTES:
0000
0000
0000
0000
,
0000
0000
0000
0000
,
0000
0000
0000
0000
,
0000
0000
0000
0000
,
0000
0000
0000
0000
,
1000
0000
0000
0000
,
1000
0000
0000
0000
,
0001
0000
0000
0000
,
0001
0000
0000
0000
,
0100
0000
0100
0000
,
0010
0000
0000
0000
,
1000
0000
1000
0000
,
0001
0000
0000
0000
,
0010
0000
0010
0000
,
0100
0000
0000
0000
,
0001
0000
1000
0000
,
0001
0000
0000
0000
,
1000
0000
1000
0000
,
1000
1000
1000
0000
,
0001
0000
0001
0000
,
0001
0001
0001
0000
,
0100
0000
0100
0000
,
0100
0100
0100
0000
,
0020
0000
0000
0000
0000
0000
0000
0030
,
0000
0000
0000
0000
,
1000
0000
0001
0000
,
1000
0000
0010
0000
,
1000
0000
0001
0000
,
0010
0000
0001
0000
,
0100
0000
0010
0000
,
1000
0000
0100
0000
,
0010
0000
0001
0000
,
0100
0000
0010
0000
,
1000
0000
0000
0000
,
0001
0000
0000
0000
,
1000
0000
0000
0000
,
0001
0000
0000
0000
,
1000
0000
0000
0000
,
1000
0000
0000
0000
,
0001
0000
0000
0000
,
0001
0000
0000
0000
,
0100
0000
0100
0000
,
0010
0000
0000
0000
,
1000
0000
1000
0000
,
0001
0000
0000
0000
,
0010
0000
0010
0000
,
0100
0000
0000
0000
,
0001
0000
1000
0000
,
0001
0000
0000
0000
,
1000
0000
1000
0000
,
1000
1000
1000
0000
,
0001
0000
0001
0000
,
0001
0001
0001
0000
,
0100
0000
0100
0000
,
0100
0100
0100
0000
,
0020
0000
0000
0000
0000
0000
0000
0030
,
0000
0000
0000
0000
,
1000
0000
0001
0000
,
1000
1000
0100
0000
,
0001
0000
1000
0000
,
0001
0001
0100
0000
,
0010
0000
0010
0000
,
1000
1000
0001
0000
,
0020
0000
0000
0000
0000
0000
0000
0030
;

//---------------dance-double - NewbStepper-EDP----------------
#NOTEDATA:;
#CHARTNAME:NewbStepper-EDP;
#STEPSTYPE:dance-double;
#DESCRIPTION:NewbStepper-EDP;
#DIFFICULTY:Hard;
#METER:13;
#RADARVALUES:0.501379,0.686801,0.537116,0.250164,0.253843,477,404,73,34,0,0,0,0,0,0.501379,0.686801,0.537116,0.250164,0.253843,477,404,73,34,0,0,0,0,0;
#CREDIT:NewbStepper;
#NOTES:
00000000
00000000
00000000
00000000
,
00000000
00000000
00000000
00000000
,
00000000
00000000
00000000
00000000
,
00000000
00000000
00000000
00000000
,
00000000
00000000
00000000
00000000
,
00010000
00010000
00010000
00010000
,
00001000
00001000
00001000
00001000
,
00100000
00100000
00010000
00010000
01000000
01000000
00100000
00100000
,
10000000
00100000
10000000
00100000
10000000
00100000
10000000
00100000
10000000
00000000
01000000
00000000
01100000
00000000
00000000
00000000
,
10000000
00100000
10100000
00000000
00010000
00100000
00110000
00000000
,
00001000
00000000
00010000
00000000
00011000
00000000
00000010
00000000
00000000
00000000
00000010
00000000
00001000
00000100
00001000
00000000
,
00000001
00000100
00000101
00000000
00001000
00000010
00000100
00001000
,
00011000
00000000
00000000
01010000
00000000
00000000
00011000
00000000
00000000
00000000
00000000
00000000
00001000
00000000
00000010
00000000
,
00000001
00000010
00000011
00000000
00001000
00000010
00001010
00000000
,
00000100
00000000
00001000
00000000
00010000
00000000
00001000
00000000
00000000
00000000
00100000
00000000
00010000
01000000
00010000
00000000
,
10000000
01000000
11000000
00000000
00010000
00100000
01000000
00010000
,
00001000
00000010
00000001
00000200
00000000
00000300
00000010
00001000
,
00000001
00000011
00000000
00000000
00001000
00001100
00000000
00000000
,
00010000
00000000
00010000
00000000
00011000
00000000
00000100
00000000
00000000
00000000
00000100
00000000
00010000
00001000
00100000
00010000
,
10000000
11000000
00000000
00000000
00010000
00110000
00000000
00001000
,
00011000
00000000
00000000
00010100
00000000
00000000
00011000
00000000
00000000
00000000
00001000
00000000
00010000
00000000
00100000
00000000
,
10000000
10100000
00000000
00000000
00010000
01010000
00000000
00001000
,
00000010
00000000
00000001
00000000
00000100
00000000
00000020
00000000
00000000
00000000
00010030
00000000
00001000
00100000
00010000
00100000
,
00002000
00000000
00000000
02003000
00000000
03200000
00000000
20300000
,
00000000
00000000
00000000
30000000
00000000
00000000
00000000
00000000
,
20010000
00000000
00000000
00000000
31000000
01000000
00100000
00100000
00020000
00000000
00001000
00000000
00130000
00000000
01100000
00000000
,
00011000
00000000
00000000
00000000
00000000
00000000
00000000
00000000
00001000
00000000
00010000
00001000
00010000
00001000
00010000
00000000
00000020
00000000
00000000
00000000
00002030
00000000
00000000
00000000
00003001
00000100
00000000
00000000
00000001
00000100
00000000
00000000
,
00001002
00000000
00000000
00000000
00000103
00000100
00000010
00000010
00002000
00000000
00010000
00000000
00003010
00000000
00000110
00000000
,
00011000
00000000
00000000
00000000
00000000
00000000
00000000
00000000
00001000
00000000
00100000
00000000
00001000
00000000
00100000
00000000
00020000
00000000
00000000
00000000
20030000
00000000
00000000
00000000
30100000
01000000
00000000
00000000
00100000
01000000
00000000
00000000
,
20100000
00000000
00000000
00000000
31000000
00010000
00001000
00000100
00000002
00000000
00000000
00000010
00000013
00000000
00001001
00000000
,
00000012
00000000
00000000
00000000
00000000
00000000
00000000
00000000
00000103
00000000
00001000
00000000
00010000
00000000
00000000
00000000
00001000
00000000
00100000
00000000
00010000
00000000
00001000
00000000
00010000
00100000
00000000
00000000
00010000
00100000
00000000
00000000
,
20010000
00000000
00000000
00000000
00000000
00000000
00000000
00000000
31000000
00000000
00010000
00001000
00010000
00001000
00010000
00000000
00000020
00000000
00000000
00000000
00000000
00000000
00001000
00000000
00001030
00000000
00000000
00000000
00001010
00000000
00000000
00000000
,
00001002
00000000
00000000
00000000
00000000
00000000
00000000
00000000
00000103
00000000
00001000
00000000
00010000
00000000
01000000
00000000
10000000
00000000
11000000
00000000
00000000
00000000
00100000
00000000
00010000
10000000
00000000
00000000
00010000
10000000
00000000
00000000
,
00020000
01000000
00000000
00000000
00000000
00000000
10000000
00000000
10000000
00000000
00000000
00100000
00000000
00000000
00031000
00000000
,
00002000
00000100
00000000
00000000
00000000
00000000
00000001
00000000
00000001
00000000
00000000
00000010
00000000
00000000
00013000
00000000
,
00020000
00100000
00000000
00000000
00000000
00000000
10000000
00000000
10000000
00000000
00000000
01000000
00000000
00000000
00031000
00000000
,
00002000
00000010
00000000
00000000
00000000
00000000
00000001
00000000
00003001
00000000
00000000
00000101
00000000
00000000
00001100
00000000
,
00001000
00001000
00001000
00001000
,
00010000
00010000
00010000
00010000
,
00000010
00000010
00001000
00001000
00000100
00000100
00000010
00000010
,
00000001
00000010
00000001
00000010
00000001
00000010
00000001
00000010
00000001
00000000
00000100
00000000
00000110
00000000
00000000
00000000
,
00000001
00000010
00000011
00000000
00001000
00000010
00001010
00000000
,
00010000
00000000
00001000
00000000
00011000
00000000
00100000
00000000
00000000
00000000
00100000
00000000
00010000
01000000
00010000
00000000
,
10000000
01000000
11000000
00000000
00010000
00100000
01000000
00010000
,
00011000
00000000
00000000
00001100
00000000
00000000
00011000
00000000
00000000
00000000
00000000
00000000
00010000
00000000
00100000
00000000
,
10000000
00100000
10100000
00000000
00010000
00100000
00110000
00000000
,
01000000
00000000
00010000
00000000
00001000
00000000
00010000
00000000
00000000
00000000
00000010
00000000
00001000
00000100
00001000
00000000
,
00000001
00000100
00000101
00000000
00001000
00000010
00000100
00001000
,
00010000
00100000
10000000
02000000
00000000
03000000
00100000
00010000
,
10000000
10100000
00000000
00000000
00010000
01010000
00000000
00000000
,
00001000
00000000
00001000
00000000
00011000
00000000
01000000
00000000
00000000
00000000
01000000
00000000
00001000
00010000
00000010
00001000
,
00000001
00000101
00000000
00000000
00001000
00001010
00000000
00010000
,
00011000
00000000
00000000
01001000
00000000
00000000
00011000
00000000
00000000
00000000
00010000
00000000
00001000
00000000
00000010
00000000
,
00000001
00000011
00000000
00000000
00001000
00001100
00000000
00010000
,
00100000
00000000
10000000
00000000
01000000
00000000
00200000
00000000
00000000
00000000
00301000
00000000
00010000
00000010
00001000
00000010
,
00020000
00000000
00000000
00030200
00000000
00000320
00000000
00000032
,
00000000
00000000
00000000
00000003
00000000
00000000
00000000
00000000
,
00001010
00001010
00000100
00000001
00000011
00000011
00000100
00001000
,
00010000
00000000
01000000
00000000
00100000
00000000
00010000
00000000
00000000
00000000
00001000
00000000
00100000
01000000
00100000
00000000
,
00110000
00110000
01000000
10000000
10100000
10100000
01000000
00010000
,
00110000
00000000
00000000
00101000
00000000
00000000
00011000
00000000
00000000
00000000
00000000
00000000
00010000
00000000
01000000
00000000
,
11000000
11000000
00100000
00010000
01010000
01010000
00100000
00010000
,
00001000
00000000
00000010
00000000
00000001
00000000
00000101
00000000
00000000
00000000
00001000
00000000
00000010
00010000
00001000
00010000
,
00000020
00000000
00000000
00020030
00000000
00032000
00000000
02003000
,
00000000
00000000
00000000
03000000
00000000
00000000
00000000
00000000
;

//---------------dance-double - NewbStepper-DDP----------------
#NOTEDATA:;
#CHARTNAME:NewbStepper-DDP;
#STEPSTYPE:dance-double;
#DESCRIPTION:NewbStepper-DDP;
#DIFFICULTY:Medium;
#METER:10;
#RADARVALUES:0.347917,0.497338,0.169228,0.191302,0.051504,331,308,23,26,0,0,0,0,0,0.347917,0.497338,0.169228,0.191302,0.051504,331,308,23,26,0,0,0,0,0;
#CREDIT:NewbStepper;
#NOTES:
00000000
00000000
00000000
00000000
,
00000000
00000000
00000000
00000000
,
00000000
00000000
00000000
00000000
,
00000000
00000000
00000000
00000000
,
00000000
00000000
00000000
00000000
,
10000000
10000000
10000000
10000000
,
00010000
00010000
00010000
00010000
,
00100000
00100000
00100000
00100000
01000000
01000000
01000000
01000000
,
00010000
00001000
00010000
00001000
00010000
00001000
00000000
00000000
,
00010000
00010000
00000000
00000000
00000010
00000010
00000000
00000000
,
00001000
00001000
00001000
00000001
00000000
00000001
00000100
00000000
,
00001000
00001000
00000000
00000000
00100000
00100000
00000000
00010000
,
10000000
00000000
00000000
00010000
00000000
00000000
10000000
00000000
00000000
00000000
00000000
00000000
01000000
00000000
00000000
00000000
,
00010000
00010000
00000000
00000000
00000100
00000100
00000000
00000000
,
00001000
00010000
00001000
00000010
00000000
00000010
00000100
00000001
,
00000010
00000010
00000000
00000000
00001000
00001000
00000000
00010000
,
00001000
00100000
00010000
20000000
00000000
00000000
31000000
00010000
,
00001000
00001000
00000000
00000000
00100000
00100000
00000000
00000000
,
00010000
00010000
00010000
10000000
00000000
10000000
01000000
00000000
,
00010000
00010000
00000000
00000000
00000010
00000010
00000000
00001000
,
00000001
00000000
00000000
00001000
00000000
00000000
00000001
00000000
00000000
00000000
00000000
00000000
00000100
00000000
00000000
00000000
,
00001000
00001000
00000000
00000000
01000000
01000000
00000000
00010000
,
00001000
00010000
00100000
01000000
00000000
10000000
01000000
00010000
,
00002000
00000000
00000000
00000020
00000000
00003030
00000000
00000220
,
00000000
00000000
00000000
00000330
00000000
00000000
00000000
00000000
,
00000012
00000000
00000100
00000100
00002003
00000000
00003001
00000100
,
00002000
00000000
00010000
00010000
00103000
00010000
01010000
01100000
,
20100000
00000000
01000000
01000000
30020000
00000000
10030000
01000000
,
00020000
00000000
00001000
00001000
00030010
00001000
00001100
00000110
,
00000002
00000000
00000000
00000000
00001000
00001000
00001000
00000000
00000203
00000000
00000000
00000000
00001300
00000000
00011000
00000000
,
00200000
00000000
00000000
00000000
00310000
00000000
01010000
00000000
00100000
10000000
00100000
00000000
01100000
00000000
01100000
00000000
,
20000000
00000000
00000000
00000000
00010000
00010000
00010000
00000000
32000000
00000000
00000000
00000000
03010000
00000000
00011000
00000000
,
00000020
00000000
00000000
00000000
00001030
00000000
00001100
00000000
00000010
00000001
00000000
00000100
00000010
00000000
00000110
00000000
,
00000001
00000000
00000000
00000000
00000000
00000000
00000100
00000000
00001000
00000000
00000000
00010000
00000000
00000000
00100000
00000000
,
10000000
00000000
00000000
00000000
00000000
00000000
01000000
00000000
00010000
00000000
00000000
00001000
00000000
00000000
00000010
00000000
,
00000001
00000000
00000000
00000000
00000000
00000000
00000100
00000000
00001000
00000000
00000000
00010000
00000000
00000000
00100000
00000000
,
10000000
00000000
00000000
00000000
00000000
00000000
01000000
00000000
00010000
00000000
00000000
00001000
00000000
00000000
00000010
00000000
,
00000001
00000001
00000001
00000001
,
00001000
00001000
00001000
00001000
,
00000010
00000010
00000010
00000010
00000100
00000100
00000100
00000100
,
00001000
00010000
00001000
00010000
00001000
00010000
00000000
00000000
,
00001000
00001000
00000000
00000000
00100000
00100000
00000000
00000000
,
00010000
00010000
00010000
10000000
00000000
10000000
01000000
00000000
,
00010000
00010000
00000000
00000000
00000010
00000010
00000000
00001000
,
00000001
00000000
00000000
00001000
00000000
00000000
00000001
00000000
00000000
00000000
00000000
00000000
00000100
00000000
00000000
00000000
,
00001000
00001000
00000000
00000000
01000000
01000000
00000000
00000000
,
00010000
00001000
00010000
00100000
00000000
00100000
01000000
10000000
,
00100000
00100000
00000000
00000000
00010000
00010000
00000000
00001000
,
00010000
00000010
00001000
00000002
00000000
00000003
00000100
00001000
,
00010000
00010000
00000000
00000000
00000010
00000010
00000000
00000000
,
00001000
00001000
00001000
00000001
00000000
00000001
00000100
00000000
,
00001000
00001000
00000000
00000000
00100000
00100000
00000000
00010000
,
10000000
00000000
00000000
00010000
00000000
00000000
10000000
00000000
00000000
00000000
00000000
00000000
01000000
00000000
00000000
00000000
,
00010000
00010000
00000000
00000000
00000100
00000100
00000000
00001000
,
00010000
00001000
00000010
00000100
00000000
00000001
00000100
00001000
,
00020000
00000000
00000000
00200000
00000000
00330000
00000000
02200000
,
00000000
00000000
00000000
03300000
00000000
00000000
00000000
00000000
,
10000000
01000000
11000000
00000000
00010000
01000000
01010000
00000000
,
00100000
00010000
00001000
00000010
00000000
00000001
00001000
00000000
,
00000001
00000100
00000101
00000000
00001000
00000100
00001100
00000000
,
00000010
00000000
00000000
00001000
00000000
00000000
00010000
00000000
00000000
00000000
00000000
00000000
01100000
00000000
00000000
00000000
,
10000000
00100000
10100000
00000000
00010000
00100000
00110000
00000000
,
00001000
00010000
00001000
00000010
00000000
00000001
00000100
00001000
,
00020000
00000000
00000000
00200000
00000000
00330000
00000000
02200000
,
00000000
00000000
00000000
03300000
00000000
00000000
00000000
00000000
;

//---------------dance-double - NewbStepper-BDP----------------
#NOTEDATA:;
#CHARTNAME:NewbStepper-BDP;
#STEPSTYPE:dance-double;
#DESCRIPTION:NewbStepper-BDP;
#DIFFICULTY:Easy;
#METER:5;
#RADARVALUES:0.195506,0.284193,0.080935,0.095651,0,186,175,11,13,0,0,0,0,0,0.195506,0.284193,0.080935,0.095651,0,186,175,11,13,0,0,0,0,0;
#CREDIT:NewbStepper;
#NOTES:
// measure 0
00000000
00000000
00000000
00000000
,  // measure 1
00000000
00000000
00000000
00000000
,  // measure 2
00000000
00000000
00000000
00000000
,  // measure 3
00000000
00000000
00000000
00000000
,  // measure 4
00000000
00000000
00000000
00000000
,  // measure 5
00100000
00000000
00100000
00000000
,  // measure 6
00100000
00000000
00100000
00000000
,  // measure 7
00010000
00001000
00010000
00001000
,  // measure 8
00022000
00000000
00000000
00033000
,  // measure 9
00000010
00000000
00000010
00000000
,  // measure 10
00001000
00000100
00001000
00000000
,  // measure 11
00000010
00000000
00000010
00000000
,  // measure 12
00000001
00000100
00000001
00000000
,  // measure 13
00000100
00000000
00000100
00000000
,  // measure 14
00001000
00010000
00100000
00000000
,  // measure 15
01000000
00000000
01000000
00000000
,  // measure 16
10000000
01000000
00100000
00000000
,  // measure 17
10000000
01000000
10000000
01000000
,  // measure 18
00010000
00001000
00000100
00000000
,  // measure 19
00000001
00000100
00000001
00000100
,  // measure 20
00001000
00010000
01000000
00000000
,  // measure 21
10000000
00100000
10000000
00100000
,  // measure 22
00010000
00001000
00000010
00000001
,  // measure 23
00002000
00000000
00000000
00000000
00003000
00000000
00000000
00002002
,  // measure 24
00000000
00000000
00000000
00003003
00000000
00000000
00000000
00000000
,  // measure 25
00000110
00000001
00000100
00001000
,  // measure 26
00011000
00010000
01000000
10000000
,  // measure 27
01100000
10000000
00100000
00010000
,  // measure 28
00011000
00000000
00001000
00000000
00000010
00000000
00000001
00000001
,  // measure 29
00000100
00000100
00000010
00000010
,  // measure 30
00001100
00000001
00000010
00001000
,  // measure 31
00011000
00010000
01000000
10000000
,  // measure 32
01010000
00000000
00100000
00000000
10000000
00000000
01000000
01000000
,  // measure 33
10000000
00000000
00010000
00000000
,  // measure 34
00001000
00000000
00000001
00000000
,  // measure 35
00001000
00000000
00010000
00000000
,  // measure 36
10000000
00000000
00010000
00000000
,  // measure 37
00000010
00000000
00000010
00000000
,  // measure 38
00000010
00000000
00000010
00000000
,  // measure 39
00001000
00010000
00001000
00010000
,  // measure 40
00022000
00000000
00000000
00033000
,  // measure 41
00100000
00000000
00100000
00000000
,  // measure 42
00010000
01000000
00010000
00000000
,  // measure 43
00100000
00000000
00100000
00000000
,  // measure 44
10000000
01000000
10000000
00000000
,  // measure 45
01000000
00000000
01000000
00000000
,  // measure 46
00010000
00001000
00000010
00000000
,  // measure 47
00000100
00000000
00000100
00000000
,  // measure 48
00000001
00000100
00000010
00000000
,  // measure 49
00000001
00000100
00000001
00000100
,  // measure 50
00001000
00010000
01000000
00000000
,  // measure 51
10000000
01000000
10000000
01000000
,  // measure 52
00010000
00001000
00000100
00000000
,  // measure 53
00000001
00000010
00000001
00000010
,  // measure 54
00001000
00010000
00100000
10000000
,  // measure 55
00020000
00000000
00000000
00000000
00030000
00000000
00000000
20020000
,  // measure 56
00000000
00000000
00000000
30030000
00000000
00000000
00000000
00000000
,  // measure 57
00100000
10000000
01000000
00100000
,  // measure 58
01000000
00010000
00010000
00001000
,  // measure 59
00000010
00000001
00000100
00000010
,  // measure 60
00000100
00001000
00001000
00010000
,  // measure 61
01000000
10000000
00100000
01000000
,  // measure 62
00100000
00010000
00001000
00000100
,  // measure 63
00000002
00000000
00000000
00002003
00000000
00000000
00000000
00000200
,  // measure 64
00000000
00000000
00000000
00003300
00000000
00000000
00000000
00000000
;
