#TITLE:Disable Mark;
#ARTIST:RoughSketch REVET D-crew;
#BANNER:Disable Mark.png;
#BACKGROUND:Disable Mark-bg.png;
#MUSIC:Disable Mark.ogg;
#SAMPLESTART:84.923;
#SAMPLELENGTH:15;
#BPMS:0=195,204=97.5,220=195,248=97.5,250=195;
#STOPS:203.5=2.462;

//---------------dance-single - RGTM-bSP----------------
#NOTES:
     dance-single:
     RGTM:
     Beginner:
     6:
     :
0000
0000
0000
0000
,
0000
0000
0000
0000
,
0000
0000
0000
0000
,
0000
0000
0000
0000
,
0000
0000
0000
0000
,
1001
0000
0000
0000
,
0000
0000
0000
0000
,
0110
0000
0000
0000
,
0000
0000
0000
0000
,
1000
0000
1000
0000
,
1000
0000
1000
0000
,
0001
0000
0001
0000
,
0001
0000
0001
0000
,
0100
0000
0100
0000
,
0100
0000
0100
0000
,
0010
0000
0010
0010
,
0020
0000
0000
0030
,
1000
0000
0100
0000
,
0010
0000
0001
0000
,
1000
0000
0001
0000
,
0100
0000
0010
0000
,
1000
0000
0010
0000
,
0010
0000
0100
0000
,
0100
0000
0001
0000
,
1000
1000
1000
0000
,
0001
0000
0010
0000
,
0100
0000
1000
0000
,
0001
0000
1000
0000
,
0010
0000
0100
0000
,
0001
0000
0001
0000
,
1000
0000
1000
0000
,
0100
0100
0100
0100
,
0100
0000
0010
0000
,
2002
0000
0000
0000
,
3003
0000
0000
0000
,
0000
1000
0000
1000
,
0000
0001
0000
0001
,
0000
1000
0000
0001
,
0000
1000
0000
0001
,
0000
0100
0000
0100
,
0000
0010
0000
0010
,
0000
0100
0000
0010
,
0000
0100
0000
0000
,
1001
0000
0000
0001
,
0000
1000
0000
0001
,
0000
0010
0000
0100
,
0000
0010
0000
0100
,
0000
1000
0000
0001
,
0000
0100
0000
0010
,
0000
1000
0000
0100
,
0100
0000
0000
0100
0000
0200
0000
0300
,
0000
0000
1000
1000
,
1000
0000
0001
0001
,
0001
0000
0100
0100
,
0100
0000
0010
0010
,
0010
0000
0000
0000
,
1000
0000
0000
0000
,
0100
0000
0000
0000
,
0010
0000
0000
0000
,
0001
0000
0001
0000
,
1000
0000
1000
0000
,
2002
0000
3003
0000
,
0000
0000
0001
0000
,
1000
0000
0001
0000
,
0100
0000
0010
0000
,
1000
0000
0001
0000
,
1000
0000
0100
0000
,
0010
0000
0001
0000
,
0010
0000
0100
0000
,
1000
0000
0002
0000
,
0000
0003
0000
0001
,
0001
0000
1000
0000
,
0010
0000
0100
0000
,
0001
0000
1000
0000
,
0100
0000
0010
0000
,
0100
0000
1000
0000
,
0010
0000
0100
0000
,
0001
0000
1000
1000
,
1000
0000
1001
0000
,
0001
0000
0100
0100
,
0100
0000
0010
0010
,
0010
0000
1000
1000
,
1000
0000
0100
0100
,
0000
0010
0010
0010
,
0000
0001
0001
0001
,
0001
0000
0001
0000
0000
1000
0000
0000
,
1000
0000
0000
1000
0000
0000
0000
0000
;

//---------------dance-single - RGTM-BSP----------------
#NOTES:
     dance-single:
     RGTM:
     Easy:
     9:
     :
0000
0000
0000
0000
,
1001
0000
0000
0000
,
0000
0000
0000
1000
,
0001
0000
0000
0000
,
0010
0000
0100
0100
,
1001
0000
0000
0000
,
0000
0000
0000
0001
,
1000
0000
0000
0000
,
0010
0000
0100
0010
,
1001
0000
1000
0000
,
1001
0000
0001
0000
,
0110
0000
0100
0000
,
0110
0000
0010
0000
,
1001
1000
0100
0100
,
0110
0010
0001
0001
,
1001
1000
0110
0010
,
0002
0000
0000
0203
,
0310
1000
0100
0010
,
0001
0010
0100
1000
,
1000
0010
0100
0001
,
0100
0010
1000
0001
,
0001
0010
0100
1000
,
1000
0010
0100
0001
,
0001
1000
0100
0010
,
0010
0100
0100
1001
,
1000
0000
0100
0000
,
0010
0000
0001
1000
,
0001
0000
0100
0000
,
0010
0010
1000
1000
,
0001
0010
1000
0010
,
0100
0010
0001
1000
,
1001
0110
1001
0110
,
0001
0000
1000
0000
,
0020
0000
0000
0000
,
0130
0000
0010
0000
,
1001
0000
1000
0100
,
0010
0010
0001
0001
,
1000
0000
0001
0100
,
0010
0010
1000
1000
,
0001
0000
1000
0100
,
0001
0100
1000
0001
,
1000
0000
0001
0100
,
1000
0100
0001
2000
,
3001
0010
0010
0100
,
0100
1000
1000
0001
,
1000
0001
0001
0100
,
0100
0010
0010
1000
,
0001
1000
0100
0010
,
0001
0010
0100
1000
,
1001
0001
0100
0010
,
0110
0000
0000
0110
0000
2002
0000
3003
,
1000
0000
0100
0000
0010
0000
0001
1000
,
0001
0000
0100
0000
0010
0000
1000
0001
,
1000
0000
0100
0000
0001
0000
0100
0010
,
0001
0000
0100
0000
1000
0100
0010
1000
,
0001
0000
0010
0000
,
0100
0000
1000
0000
,
0001
0000
0100
0000
,
0010
0000
1000
0000
,
1001
1000
0100
0010
,
0001
0100
0010
1000
,
2002
0000
3003
0000
,
0000
0000
0000
0110
1001
0000
1000
0000
,
0100
0001
0100
0010
,
0100
1000
1000
0001
,
0100
0010
0100
1000
,
0100
0100
0001
1000
,
0001
0010
0100
0001
,
0100
1000
1000
0001
,
1000
0010
0200
0010
,
0010
0310
0100
0001
,
1000
0100
0001
1000
,
0001
0100
0100
1000
,
0010
0100
1000
0001
,
1000
0100
0010
1000
,
0100
0010
0001
0100
,
0010
1000
1000
0001
,
0010
0100
0110
1001
,
0110
0000
1001
0000
,
1000
0000
0100
0100
,
0100
0010
0001
0001
,
0001
1000
1001
0110
,
1001
0110
1000
1000
,
0010
0100
0100
0100
,
0001
1000
0001
0100
,
1000
0000
0010
0000
0000
0001
0000
0000
,
1000
0000
0000
1001
0000
0000
0000
0000
;

//---------------dance-single - RGTM-DSP----------------
#NOTES:
     dance-single:
     RGTM:
     Medium:
     14:
     :
0000
0000
0000
0000
,
1001
0000
0000
0001
1000
0000
0000
1000
,
0010
0100
0000
0100
0010
0000
1000
0000
,
1001
0000
0000
1000
0001
0000
0000
0001
,
0010
0100
0000
0100
0010
0001
1000
0000
,
1001
0000
0000
0001
0100
0000
0000
0100
,
0010
1000
0000
1000
0100
0000
0010
0000
,
1001
0000
0000
1000
0001
0000
0000
0001
,
0100
0010
0000
1000
0001
0000
0020
0030
,
0110
0000
0000
1000
0100
0000
0000
0001
,
0100
0010
0000
0010
0100
1000
0001
1000
,
0100
0000
1000
0010
0100
0001
0100
0010
,
0100
0001
1000
0001
0010
0100
1000
0001
,
1001
1000
0100
0100
,
0110
0010
0001
0001
,
0001
0010
0100
1000
0001
0010
0100
1000
,
0020
0000
0030
0010
0010
0010
0200
0000
,
0301
0010
0001
1000
0100
0010
0100
1000
,
0001
0100
0001
1000
0100
0010
0001
1000
,
0010
1000
0001
1000
0100
1000
0001
1000
,
0100
0010
0001
1000
0010
0100
0001
1000
,
0001
0100
0001
0100
0010
0100
0010
1000
,
0002
0000
0103
0001
1000
0010
0100
0010
,
2000
0000
3100
0010
0100
1000
0001
1000
,
0001
0100
0010
0001
0010
1000
0001
1000
,
0001
0000
0010
0000
0100
0000
1000
0100
1000
0000
0010
0000
,
1000
0000
1000
0000
0001
0000
0100
0010
0100
0000
0001
0000
,
0010
0100
0010
0000
0001
0000
1000
0010
1000
0000
0001
0000
,
0100
0010
0100
0000
0001
0000
0010
0100
1000
0000
0001
1000
,
0001
0000
0000
0100
0010
0000
0000
0010
1000
0000
0001
0000
0010
0000
0000
0010
,
0100
0000
0000
0100
0010
0000
0001
0000
1000
0000
0100
0000
1000
0000
0001
0000
,
0100
0010
0100
1000
0100
0010
0100
0001
,
1000
0000
0100
0000
0010
0000
0001
0000
0100
0000
0010
0000
,
2000
0000
0000
0000
,
3100
0000
0010
0000
0001
1000
0001
0000
0100
0000
0010
0000
,
1001
0000
1000
0000
0001
0200
0000
0320
,
0000
0000
2030
0000
0000
3002
0000
0000
,
1003
0000
0110
0000
0001
2000
0000
3002
,
0000
0000
0023
0000
0000
0230
0000
0000
,
1300
0000
0001
1000
0001
0200
0000
0320
,
0000
0000
2030
0000
0000
3001
1000
0001
,
0010
0000
1001
0000
1000
0200
0000
0320
,
0100
0000
0031
1000
0001
1000
0020
0030
,
1001
0000
1000
0001
0100
0100
0010
1000
,
0100
0100
0010
0001
0100
0100
0010
1000
,
1001
0000
0001
1000
0100
0100
0010
0001
,
0100
0100
0010
1000
0100
0100
0010
0001
,
1001
0000
1000
0000
0010
0000
0010
0100
,
1001
0000
0001
0000
0010
0010
0100
0010
,
1001
0000
1000
0001
0100
0100
0010
1000
,
1001
0001
0010
0110
0000
2002
0000
3003
,
1000
0000
0010
0000
1000
0000
0001
0000
0010
0000
0100
1000
0000
0100
0010
0000
,
0001
0000
1000
0000
0001
0000
0100
0000
0010
0000
0100
0001
0010
0100
1000
0001
,
1000
0000
0100
0001
0000
0100
0010
0000
0100
1000
0000
0010
0100
0010
0001
0010
,
1000
0000
0001
0000
0010
0000
0100
0000
1000
0000
0010
0100
0010
0200
0000
0000
,
0301
0010
0100
1000
,
0010
0000
0100
1000
0000
0100
0001
0000
,
1000
0100
0010
0001
,
0100
0000
0010
0100
1000
0100
0001
0000
,
1000
0100
1000
0100
0010
0001
0010
0001
,
1000
0010
0100
0001
1000
0100
0010
0001
,
2002
0000
3003
0000
,
1000
0001
0010
0000
0100
0010
0110
0000
1001
0000
0000
1000
0010
0000
0000
0000
,
0100
0010
0000
0100
1000
0000
0100
0001
,
0000
0000
1000
0000
0001
0000
0001
0000
1000
0000
0000
0001
0010
0000
0000
0000
,
0100
1000
0000
0100
0001
0000
0100
0010
,
0100
0000
1000
0000
0001
0000
0001
0000
1000
0000
0000
1000
0100
0000
0000
0000
,
0010
0100
0000
0010
1000
0000
0010
0001
,
0000
0000
1000
0000
0001
0000
0001
0000
1000
0000
0000
0000
0010
0000
0000
0010
,
0100
0010
1000
0001
0020
0000
0100
0000
,
0100
0000
0130
0000
1001
0000
1000
0001
,
1000
0010
0100
0010
0001
0010
0100
0010
,
1000
0010
0100
0001
1000
0001
1000
0100
,
0010
0100
0001
0100
0010
0100
1000
0100
,
0010
0001
1000
0001
1000
0010
0100
0001
,
0010
0100
1000
0001
1000
0100
0010
0001
,
0100
0010
1000
0001
0011
0000
0110
0000
,
1100
0000
1001
0000
0001
0100
1000
0100
,
0001
0100
0010
0000
1001
0000
1000
0001
,
0200
0000
0010
0000
1300
1000
0100
0100
,
0001
0010
0100
0100
1000
0001
1000
0000
,
0100
0000
0010
0001
1000
0010
0100
0010
,
0001
0010
0100
0010
1000
1000
0001
0000
,
0011
0000
2010
0000
3001
0001
1000
1000
,
0100
0000
0100
0000
0010
0000
0010
0000
0001
0000
0000
1000
0010
0000
0100
0000
,
0000
0001
0010
0000
0100
0000
1000
0000
0000
0000
0001
0000
0000
0100
0000
0000
,
1000
0000
0000
0010
0000
0000
0110
0000
0000
0000
0000
0000
0000
0000
0000
0000
;

//---------------dance-single - RGTM-ESP----------------
#NOTES:
     dance-single:
     RGTM:
     Hard:
     16:
     :
0000
0000
0000
0000
,
1100
0000
0000
0100
0100
0000
0000
0100
,
0010
0010
0000
0010
0001
0000
1000
0001
,
0101
0000
0000
0100
0100
0000
0000
0100
,
0110
0010
0000
0010
1000
1000
0001
0010
,
0011
0000
0000
0010
0010
0000
0000
0010
,
0100
0100
0000
1000
1000
0000
0001
1000
,
1010
0000
0000
0010
0010
0000
0000
0010
,
0110
0100
0000
0100
0010
0010
2000
3000
,
0110
0001
0000
0100
0010
1000
0000
0100
,
0010
0001
0000
1000
0010
1000
0001
1000
,
0010
0000
1000
0001
0010
0000
0001
1000
,
0010
0100
0001
0100
0010
1000
0010
0100
,
1001
0001
0010
0010
0100
0100
1000
1000
,
1001
0001
0100
0100
0010
0010
1000
1000
,
0001
1000
0001
1000
0001
1000
0001
1000
0010
0100
0010
0100
0010
0100
0010
0100
,
0020
0000
0030
0010
0010
0010
0200
0300
,
1001
1000
0100
0001
0100
0010
0100
1000
,
0001
0100
0010
0100
1000
0001
0010
0010
,
1000
0100
0010
0001
0100
0010
0001
1000
,
0100
0000
0001
0000
0010
0000
0100
0000
0001
0000
0100
0010
0100
0000
1000
0000
,
0001
0100
0010
0100
1000
0100
0001
0010
,
0020
0000
0130
0001
0100
1000
0001
0001
,
0200
0000
0000
0000
1300
0000
0100
0000
0010
0000
0100
0000
0001
0000
1000
0001
,
1000
0100
0100
0010
0020
0000
0032
0000
,
1003
0000
1000
0000
0001
0000
0100
0001
0010
0000
0100
0000
,
0001
0000
0001
0000
0100
0000
1000
0100
0010
0002
1000
0003
,
0001
0100
0001
0000
0010
0000
0100
1000
0100
0000
0010
0001
,
1000
0000
0010
0010
0000
0100
0100
0000
0000
0110
0000
0000
,
1000
0000
1000
0100
0010
0000
0000
0010
0001
0000
1000
0000
0010
0000
0000
0010
,
0100
0000
0000
0100
0010
0000
1000
0000
0001
0000
0010
0000
2000
0000
0010
0000
,
3001
0100
0010
0100
1000
0010
0001
0010
,
1010
0000
0110
0000
0101
0000
0011
0000
0110
0000
1100
0000
,
0002
0000
0000
0000
,
0103
0000
1010
0000
1000
0100
0110
0000
0011
0000
0001
1000
,
1002
0000
0100
0003
0001
0200
0001
0320
,
0100
0100
2030
0010
0001
3002
1000
0000
,
0103
0000
1001
0000
1000
0200
1000
0320
,
0100
0000
0031
0000
0011
0000
0001
1000
0010
0000
1010
0000
1000
0000
0001
0000
,
2001
0000
0100
0100
3001
0020
0100
0032
,
0010
1000
0203
0001
0010
0310
1000
0100
,
0010
0010
1001
0000
0001
0101
0100
0010
,
1010
0000
1000
0100
1000
0000
1000
0000
0001
1000
0001
0000
0020
0000
0000
0030
,
1001
0000
0000
0000
1000
0000
0100
1000
0100
0000
0010
0000
0100
0000
0010
0001
,
0010
0000
0001
0000
1000
0000
0001
0000
0100
0001
0100
0000
0010
0000
0010
0000
,
0110
0000
0000
0000
0100
0000
0001
1000
0001
0000
0010
0000
0100
0000
1000
0100
,
1000
0100
1000
0000
0010
0000
0100
0001
0100
0000
0001
1000
0001
0000
0010
0000
,
1001
0000
1000
0000
0100
0000
1000
0100
0010
0000
0000
0000
0010
0000
0010
0000
,
0011
0000
0001
0000
0100
0000
0001
0100
0010
0000
0100
0010
1000
0001
1000
0000
,
0001
1000
0001
0000
0010
0000
0100
0010
0100
0010
0100
0000
1000
0001
1000
0000
,
1001
0000
0010
0100
0010
0000
0110
0000
0000
0000
2002
0000
0000
0000
3003
0000
,
1000
0000
0010
0100
1000
0100
0010
0100
0001
0000
0100
1000
0000
0100
0001
0000
,
1000
0000
0001
0100
1000
0100
0010
0100
0001
0100
0010
0100
1000
0001
0010
1000
,
0100
0000
0010
0100
0000
0100
0001
0000
0100
1000
0000
1000
0010
0100
1000
0100
,
0010
0000
0010
1000
0100
0010
0001
1000
0001
0010
1000
0000
1000
0010
0100
1000
,
0001
0000
0010
0100
0001
0100
0010
0100
,
2000
0000
3100
0002
0000
0103
0020
0000
,
0031
0000
1000
0100
0001
0100
0010
0100
,
1000
0100
0010
0100
0001
1000
0010
0001
,
1001
1000
0010
0100
0100
0010
0001
0001
,
0010
0100
0100
0010
1000
0010
0001
0010
,
0210
0000
0310
0100
0001
1000
0010
0100
,
1000
0001
0020
0000
1030
0001
0110
0000
1001
0000
1000
0100
0010
0000
0000
0000
,
1000
0000
0010
0000
0100
0010
0100
0000
1000
0000
0000
0000
0100
0010
0001
0000
,
0000
0000
0100
0000
0010
0100
0010
0100
0001
0000
0001
0100
0010
0000
0000
0000
,
0001
0000
0010
0000
0100
0010
0100
0000
0001
0000
0000
0000
0100
0010
1000
0000
,
0100
0000
0010
0000
0100
0000
0100
0010
0001
0000
0001
0010
0100
0000
0000
0000
,
0001
0000
0100
0000
0010
0100
0010
0000
0001
0000
0000
0000
0010
0100
1000
0000
,
0000
0000
0010
0000
0100
0010
0100
0010
1000
0000
0100
0000
0001
0000
0100
0010
,
0100
0000
1000
0000
0001
0000
1000
0100
0020
0000
0000
0000
0100
0000
0000
0000
,
0100
0000
0000
0000
0100
0000
0000
0000
0130
0010
0100
0000
0001
0000
0100
0000
,
1000
0010
0001
0010
0100
1000
0100
0001
,
0100
0000
0010
0000
0100
0010
1000
0000
0001
0000
0100
0000
1000
0000
0100
0000
,
0001
0010
0100
0010
1000
0010
0100
0010
,
0001
0000
1000
0000
0001
0010
0100
0000
1000
0000
0010
0000
0001
0000
1000
0000
,
0100
0001
0010
1000
0001
0100
1000
0001
,
1000
0000
0010
0000
1000
0010
0100
0000
0001
0000
0010
0000
1000
0000
0010
0000
,
0001
0000
1000
0000
0010
0000
0100
0000
0001
0000
1000
0010
1000
0000
0001
0010
,
0001
0100
0020
0030
2001
0000
0010
0000
,
3001
1000
0001
0000
0010
0000
0100
0000
1000
0000
1000
0000
0001
0000
0002
0000
,
0000
0000
0103
0010
0100
0000
0010
0000
0100
0000
0100
0000
0101
0000
0000
0000
,
1001
0000
0000
0000
1000
0100
0010
0000
0001
0000
1000
0010
0100
0000
0001
0010
,
0100
0000
1000
0010
0100
0000
0001
0010
0100
0000
0100
0000
1100
0000
0000
0000
,
1001
0000
0101
0200
0310
0010
0010
0010
,
1000
0000
1000
0000
1000
0000
1000
0000
0001
0000
1000
0100
1000
0100
1000
0100
,
0010
0001
0010
0001
0010
0001
0010
0001
1000
0000
1100
0000
0000
0101
0000
0000
,
1010
0000
0000
0011
0000
0000
1001
0000
0000
0000
0000
0000
0000
0000
0000
0000
;

//---------------dance-single - RGTM-CSP----------------
#NOTES:
     dance-single:
     RGTM:
     Challenge:
     18:
     :
0000
0000
0000
0000
,
0101
0000
0000
0100
0100
0000
0000
0100
,
1000
1000
0000
0001
0001
0000
0101
1000
,
0110
0000
0000
0010
0010
0000
0000
0010
,
1001
1001
0000
0110
1000
1000
0001
1000
,
1100
0000
0000
0100
0100
0000
0000
0100
,
0001
0001
0000
1000
1000
0000
1000
0001
,
0110
0000
0000
0010
0010
0000
0000
0010
,
1001
1001
0000
0110
0001
1100
0020
0030
,
1001
0100
0000
0001
1000
0100
0000
0001
,
1000
0010
0000
0001
1000
0010
0001
0010
,
1000
0000
0100
0010
1000
0010
0001
0100
,
1000
0100
0001
0010
1000
0001
1000
0010
,
1001
0001
0100
0100
1000
1000
0010
0010
,
1001
1000
0100
0100
0001
0001
0010
0010
,
0001
0010
0100
0010
0001
1000
0100
1000
0010
0100
0001
0100
0010
1000
0001
1000
,
0200
0000
0300
0100
0100
0100
0020
0030
,
0110
0001
1000
0010
0100
1000
0100
0001
,
1000
0100
1000
0001
0010
1000
0001
1001
,
1000
0010
0001
1000
0001
0100
1000
0001
,
1000
0000
0100
0000
0001
0000
0010
0000
0100
0000
1000
0100
0010
0000
1001
0000
,
0001
0100
1000
0100
0001
0010
0100
0110
,
0020
0000
0031
0100
1000
0100
0001
1001
,
2000
0000
0000
0000
3100
0000
0001
0000
0100
0000
0010
0000
0100
0000
1000
0001
,
0100
0101
0001
1001
2000
0001
3020
0000
,
1030
0000
1000
0001
0100
0000
0001
0100
1000
0001
0010
0000
,
0001
0000
1000
0001
0010
0000
0001
0010
1000
0200
0010
0000
,
1300
0100
0010
1000
0001
0000
1000
0010
0001
1000
0010
1000
,
1000
0001
1000
1000
0100
1000
1000
0001
0100
0020
0000
0100
,
0130
0010
1000
0100
0010
0000
0000
0010
0001
1000
0000
0000
0010
0000
0000
0010
,
0100
0000
0000
0100
0010
0000
1000
0000
0100
0000
0001
0000
0200
0000
1000
0000
,
0310
0101
1000
0011
0001
1100
0001
1010
,
0110
0000
0011
0000
0101
0000
1100
0000
1010
0000
0110
0000
,
0002
0000
0000
0000
,
0103
0000
0011
0000
1000
0100
1010
0000
0001
0000
0110
1000
,
2001
0000
3010
1000
0200
0010
0010
0000
,
1300
0000
1000
0000
0001
0000
0001
0000
0100
0010
0100
0000
0010
0000
1000
0001
,
0020
0030
1001
0000
0002
0103
0002
1003
,
0001
0000
1000
0100
0010
0000
0100
0000
0100
0000
0010
0001
0100
0000
0110
0000
,
1002
0000
0013
0001
0200
0010
0310
0100
,
0001
1000
0001
0000
0010
0000
0100
0010
0100
0000
1000
0100
0010
0000
0001
1000
,
0020
0000
0130
0001
0010
0000
0000
0000
0002
0000
1000
0000
0203
0000
0010
0000
,
0301
0100
0001
0000
1000
0000
0010
0000
1000
0000
1000
0100
0020
0000
0030
0000
,
1002
0000
0000
0000
0013
0000
0001
0100
0001
0100
0001
1000
0010
0000
1000
0100
,
1000
0100
1000
0001
0010
0000
0001
0010
0001
1000
0010
0100
0010
0000
0010
0000
,
2001
0000
0000
0000
3010
0000
1000
0100
1000
0100
1000
0001
0010
0000
1000
0010
,
0100
1000
0001
1000
0010
0000
0001
0010
0100
0001
1000
0001
0010
0100
0010
0000
,
1002
0000
1003
0001
0010
0000
0001
0100
0010
0000
1000
0100
0010
0000
0010
0000
,
2001
0000
3001
1000
0010
0000
1000
0100
0010
0000
0001
0100
0010
0100
1000
0100
,
0010
1000
0100
0000
0110
0000
0010
0001
0100
0000
0110
0000
0010
1000
0001
0000
,
0011
0000
0000
0000
0010
0000
0100
0000
1000
0000
0001
0000
1001
0000
0000
0000
0100
0000
0010
0000
2002
0000
0000
0000
0000
0000
0000
0000
0000
3003
0000
0000
,
0001
0000
0000
0000
1000
0000
0001
0000
0010
0000
0001
0000
1000
0000
0100
0010
0100
0000
0000
0000
0001
0000
0100
0000
0010
0000
0001
0000
0100
0000
0010
0000
,
1000
0000
0000
0000
0001
0000
1000
0000
0010
0000
1000
0000
0001
0000
0100
0010
0100
0000
0001
0000
1000
0000
0100
0000
0010
0000
1000
0000
0010
0000
0001
0000
,
1000
0000
0000
0000
0100
0000
1000
0000
0010
0000
0100
0000
0001
0000
1000
0001
1000
0000
0100
0000
0000
0000
1000
0000
0010
0000
0100
0000
0010
0000
0001
0000
,
1000
0000
0000
0000
0100
0000
0001
0000
0010
0000
0100
0000
1000
0000
0010
0100
0010
0000
0100
0000
0010
0000
0010
0000
0100
0000
0001
1000
0100
0010
0001
1000
,
0020
0000
1030
0100
0001
0100
1000
0100
,
0020
0000
0031
2000
0000
3001
0200
0000
,
0320
0000
1030
0010
0001
0010
1000
0100
,
0001
0100
1000
0001
0010
0100
0001
0100
,
0110
0010
0001
0001
0100
0100
1000
1000
,
0010
0010
1000
1000
0100
0100
0001
0001
,
0021
0000
1030
0010
0001
0100
1000
0001
,
1000
0100
0002
0000
0013
1000
1001
0000
0110
0000
0001
0100
0010
0000
0000
0000
,
0001
0000
0010
0000
0100
0001
0010
0000
1000
0000
0000
0000
0001
0100
1000
0000
,
0000
0000
0001
0000
0100
0010
0100
0010
1000
0000
1000
0100
0010
0000
0000
0000
,
1000
0000
0010
0000
0100
1000
0010
0000
0001
0000
0000
0000
1000
0100
0001
0000
,
0010
0000
1000
0010
0001
0000
0001
1000
0010
0000
0100
0001
0010
0000
0000
0000
,
1000
0000
0010
0000
0001
0100
0010
0000
0001
0000
0010
0000
1000
0100
0001
0000
,
0100
0000
1000
0000
1000
0001
1000
0100
0010
0000
0100
1000
0010
0000
0001
0010
,
1000
0000
0010
0000
0100
0000
0001
1000
0100
0000
0010
0000
0100
0001
0100
0000
,
0020
0000
0230
0000
2300
0000
3020
0000
0130
0010
0100
0000
0001
0000
0010
0000
,
0100
0001
0100
1000
0001
0100
1000
0100
,
0001
0000
0010
0000
0100
1000
0010
0000
0100
0000
1000
0000
0100
0000
0010
0000
,
0001
0010
1000
0001
0010
1000
0010
0100
,
0001
0000
0100
0000
1000
0010
0100
0000
0001
0000
0010
0000
1000
0000
0001
0000
,
1000
0010
0001
1000
1000
0010
0001
1000
,
0001
0000
0010
0000
0001
0010
1000
0000
0001
0000
0010
0000
0100
0000
0010
0000
,
1000
0000
0010
0000
0100
0000
0010
0000
0001
0000
0100
0010
1000
0000
0100
0010
,
0001
0000
1000
0010
0200
0000
0300
0000
0110
0000
0001
1000
0100
0000
0010
0001
,
0100
0010
0100
0001
0100
0000
0010
0000
1010
0000
1010
0000
0011
0000
0012
0000
,
0000
0000
0103
0001
0010
0100
1000
0001
1000
0000
1100
0000
0101
0000
0001
0100
,
0010
0000
1000
0100
0010
0001
0010
0100
1000
0000
0100
0100
0001
0000
0100
0100
,
1000
0000
0100
0100
0001
1000
0100
0100
0010
0000
0110
0000
1001
0000
1000
0001
,
0010
0100
1000
0000
1000
0001
0100
0000
0110
0000
0101
0000
1001
0000
1100
0000
,
0110
0000
0010
0100
0010
0001
1000
0000
0001
0000
0100
0010
0100
1000
0100
0001
,
1000
0100
0010
0100
0001
0100
1000
0001
0010
0000
0101
0000
0000
1100
0000
0000
,
1010
0000
0000
0011
0000
0000
0110
0000
0000
0000
0000
0000
0000
0000
0000
0000
;

//---------------dance-double - RGTM-BDP----------------
#NOTES:
     dance-double:
     RGTM:
     Easy:
     9:
     :
00000000
00000000
00000000
00000000
,
00011000
00000000
00000000
00000000
,
00000000
00000000
00000000
00010000
,
00001000
00000000
00000000
00000000
,
00000100
00000000
00000010
00000000
,
00001001
00000000
00000000
00000000
,
00000000
00000000
00000000
00000001
,
00001000
00000000
00000000
00000000
,
00100000
00000000
01000000
00100000
,
10010000
00000000
10000000
00000000
,
01000000
00000000
01000000
00000000
,
00010000
00000000
00010000
00000000
,
00001000
00000000
00001000
00000000
,
00000100
00000100
00000001
00000001
,
00000010
00000010
00000100
00000100
,
00010000
00001000
00010000
00001000
,
00020000
00000000
00000000
00000000
,
00031000
00001000
00010000
00010000
,
01000000
01000000
10000000
00100000
,
10000000
10000000
01000000
01000000
,
00010000
00010000
00001000
00010000
,
00000100
00000100
00000010
00000010
,
00000001
00000001
00001000
00001000
,
00000010
00000010
00000100
00000100
,
00000001
00001000
00000001
00001000
,
00000100
00000000
00010000
00000000
,
00001000
00000000
01000000
00000000
,
00001000
00000000
00010000
00000000
,
00000100
00000000
00000010
00000000
,
00000100
00010000
00010000
00001000
,
00001000
01000000
01000000
00100000
,
00100000
10000000
01000000
00100000
,
01100000
00000000
00100000
00000000
,
00022000
00000000
00000000
00000000
,
00033000
00000000
00010000
00000000
,
00011000
00000000
00001000
00000100
,
00000001
00000100
00001000
00001000
,
00011000
00000000
00010000
01000000
,
10000000
01000000
00010000
00010000
,
00011000
00000000
00001000
00000010
,
00000001
00000010
00001000
00010000
,
00011000
00000000
00010000
00100000
,
10000000
00100000
00010000
00002000
,
00013000
00000000
00010000
01000000
,
10000000
00100000
00010000
00001000
,
00011000
00000000
00001000
00000100
,
00000001
00000010
00001000
00010000
,
00011000
00001000
00010000
00010000
,
01100000
01000000
00100000
00100000
,
10010000
10000000
01000000
01000000
,
00010000
00000000
00000000
00011000
00000000
00022000
00000000
00033000
,
00000000
00000000
00010000
00000000
00001000
00000000
00000010
00000001
,
00000100
00000000
00001000
00000000
00010000
00000000
00100000
10000000
,
01000000
00000000
00010000
00000000
00001000
00010000
01000000
00000000
,
00010000
00000000
00001000
00000000
00010000
00001000
00000100
00000010
,
00001000
00000000
00000100
00000000
,
00010000
00000000
00001000
00000000
,
00010000
00000000
01000000
00000000
,
00010000
00000000
00001000
00000000
,
00011000
00010000
00100000
00100000
,
10000000
01000000
00100000
00001000
,
00020000
00000000
00000000
00000000
,
00030000
00000000
00000000
00011000
00010000
00000000
00000100
00000000
,
00000001
00000100
00010000
00001000
,
00010000
00010000
00001000
01000000
,
10000000
01000000
00001000
00010000
,
00001000
00001000
00010000
00000010
,
00000001
00000010
00001000
00100000
,
10000000
00100000
00010000
00010000
,
00001000
00001000
00000020
00000100
,
00000100
00000130
00000010
00000001
,
00000100
00001000
00010000
00001000
,
00000100
00000010
00001000
00100000
,
01000000
00010000
00100000
01000000
,
10000000
10000000
00100000
00001000
,
00000100
00010000
00010000
01000000
,
00010000
00000010
00000100
00000100
,
00000010
00000010
00001001
00000110
,
00001001
00000020
00000130
00000000
,
00000001
00000010
00001000
00010000
,
01000000
10000000
10010000
00010000
,
10000000
00100000
00010000
00001000
,
00000100
00000001
00000010
00000010
,
00001000
00001000
00100000
00100000
,
00010000
00010000
10000000
01000000
,
00010000
00000000
00001000
00000000
00000000
00010000
00000000
00000000
,
00001000
00000000
00000000
00011000
00000000
00000000
00000000
00000000
;

//---------------dance-double - RGTM-DDP----------------
#NOTES:
     dance-double:
     RGTM:
     Medium:
     14:
     :
00000000
00000000
00000000
00000000
,
00011000
00000000
00000000
00010000
00001000
00000000
00000000
00001000
,
01000000
00100000
00000000
00100000
10000000
00000000
00010000
00000000
,
10010000
00000000
00000000
10000000
01000000
00000000
00000000
01000000
,
00010000
00001000
00000000
00001000
00010000
00001000
00000010
00000000
,
00001001
00000000
00000000
00000001
00000100
00000000
00000000
00000100
,
00000010
00001000
00000000
00001000
00000100
00000000
00010000
00000000
,
00011000
00000000
00000000
00001000
00010000
00000000
00000000
00010000
,
01000000
10000000
00000000
10000000
00100000
00000000
00020000
00030000
,
00011000
00000000
00001000
00000000
,
00000100
00000000
00000100
00000000
,
00001001
00000000
00000001
00000000
,
00000010
00000000
00000010
00000010
,
00011000
00010000
01010000
01000000
,
10010000
10000000
10100000
00100000
,
00010000
00001000
00010000
00001000
00000100
00000010
00000100
00000010
,
00002000
00000000
00003000
00001000
00001000
00001000
00000002
00000000
,
00001003
00000001
00001000
00000001
00000010
00000100
00000010
00000100
,
00010000
00001000
01000000
00100000
01000000
00001000
00010000
00000100
,
00000010
00000100
00000010
00000100
00010000
00001000
00010000
00001000
,
00010000
01000000
00100000
00010000
10000000
00100000
01000000
00001000
,
00010000
00001000
00010000
00001000
00010000
00100000
01000000
00010000
,
20000000
00000000
31000000
00100000
01000000
10000000
00100000
00010000
,
00002000
00000000
00013000
00001000
00010000
00000010
00000100
00000001
,
00000010
00000100
00001000
00000010
00000100
00001000
00020000
00000000
,
00031000
00000000
00010000
00000000
01000000
00000000
00100000
01000000
00100000
00000000
00010000
00000000
,
10000000
00000000
00100000
00000000
01000000
00000000
00001000
00010000
00001000
00000000
00010000
00000000
,
00000100
00001000
00000100
00000000
00000010
00000000
00000001
00000010
00000001
00000000
00001000
00000000
,
00000010
00000100
00000010
00000000
00010000
00000000
00001000
00010000
00001000
00000000
00010000
00001000
,
00010000
00000000
00000000
01000000
00100000
00000000
00000000
00000000
00010000
00000000
01000000
00000000
00100000
00000000
00000000
00100000
,
10000000
00000000
00000000
10000000
00100000
00000000
00000000
00000000
01000000
00000000
00100000
00000000
10000000
00000000
00010000
00000000
,
00100000
01000000
10000000
01000000
00100000
01000000
10000000
01000000
,
00100000
00000000
00100000
00000000
00100000
00000000
00001000
00000000
00001000
00000000
00001000
00000000
,
00020000
00000000
00000000
00000000
,
00030100
00000000
00010000
00000000
00000010
00000100
00000010
00000000
00001000
00000000
00000001
00001000
,
00000001
00000000
00000000
00000000
00000100
00000002
00000000
00000023
,
00000000
00000000
00000230
00000000
00000000
00020300
00000000
00000000
,
00031000
00000000
00011000
00000000
00001000
00020000
00000000
00230000
,
00000000
00000000
20300000
00000000
00000000
32000000
00000000
00000000
,
03100000
00000000
00000000
00000000
01000000
00020000
00000000
00032000
,
00000000
00000000
00023000
00000000
00000000
00030200
00000000
00000000
,
00000310
00000000
00001001
00000000
00000001
00002000
00000000
00003010
,
00001000
00000100
00001000
00000001
00001000
00000100
00020000
00030000
,
00011000
00000000
00001000
00000000
00010000
00001000
00000000
00001000
,
00010000
01000000
00000000
01000000
00100000
00010000
10000000
00000000
,
10010000
00000000
10000000
00000000
00010000
10000000
00000000
10000000
,
00100000
01000000
00000000
01000000
00001000
00010000
00001000
00000000
,
00011000
00000000
00010100
00000000
00001100
00000000
00000100
00000010
,
00000011
00000101
00001100
00011000
,
00001000
00010000
00001000
00100000
01000000
10000000
00100000
01000000
,
00010000
00000000
00000000
01010000
00000000
00022000
00000000
00033000
,
00010000
00000000
00001000
00000000
00010000
00000000
00000100
00000000
00000010
00000000
00000100
00001000
00000000
00001000
00000001
00000000
,
00000100
00000000
00000010
00000000
00000100
00000000
00000001
00000000
00000010
00000000
00000100
00010000
00001000
00010000
00001000
01000000
,
00010000
00000000
00010000
00100000
00000000
00100000
01000000
00000000
01000000
10000000
00000000
10000000
00010000
00000000
10000000
00000000
,
00100000
00000000
01000000
00100000
10000000
01000000
00100000
00000000
00010000
00100000
00001000
00010000
00001000
00020000
00000000
00000000
,
00031000
00001000
00010000
00010000
,
00100000
00100000
01000000
01000000
,
00001000
00001000
00010000
00010000
,
00000100
00000100
00000010
00000010
,
00000001
00000010
00000100
00001000
00000001
00001000
00000010
00010000
,
00001000
00100000
01000000
10000000
00100000
01000000
00010000
00100000
,
00002000
00000000
00003000
00000000
,
00010000
00001000
00000010
00000000
00000010
00000001
00001001
00000000
00000001
00000000
00000000
00001000
00000010
00000000
00000000
00000000
,
00000100
00001000
00000000
00001000
00010000
00000000
00010000
00100000
,
00000000
00000000
00100000
00000000
10000000
00000000
00010000
00000000
10000000
00000000
00000000
00010000
00100000
00000000
00000000
00000000
,
01000000
00010000
00000000
00010000
00001000
00000000
00001000
00000010
,
00000000
00000000
00000010
00000000
00000001
00000000
00001000
00000000
00000001
00000000
00000000
00000100
00000010
00000000
00000000
00000000
,
00000100
00001000
00000000
00010000
01000000
00000000
00100000
00010000
,
00000000
10000000
00100000
00100000
10100000
00000000
00110000
00000000
,
00011000
00001010
00000120
00000100
,
00000100
00000000
00000130
00000000
00000010
00000010
00000100
00000001
,
00000100
00000010
00001000
00000100
00010000
00001000
00010000
01000000
,
00010000
00001000
00010000
00010000
00001000
00010000
00001000
00100000
,
01000000
10000000
00010000
10000000
00100000
01000000
00001000
01000000
,
00010000
01000000
00100000
00100000
10000000
00100000
01000000
00010000
,
00100000
01000000
10000000
00010000
01000000
00001000
00010000
00000100
,
00000010
00000001
00001000
00001000
00000010
00000100
00000001
00000100
,
00000010
00010000
00001000
00010000
00011000
00000000
00110000
00000000
,
01100000
00000000
20000000
30000000
10010000
00000000
10000000
00000000
,
01000000
01000000
00100000
00010000
01000000
01000000
00001000
00001000
,
00000000
00010000
00010000
00001000
00010000
00010000
00000100
00000000
,
00000010
00000000
00000100
00001000
00000010
00000100
00000010
00000001
,
00000010
00000100
00000010
00000000
00001000
00001000
00001000
00000000
,
00000100
00010000
00001000
00010000
01000000
00100000
01000000
10000000
,
00100000
01000000
00100000
10000000
00010000
00100000
00001000
00010000
,
00000100
00000000
00000010
00000000
00000001
00000000
00001000
00000000
00000000
00000000
00000001
00000000
00000000
00000100
00000000
00000000
,
00001000
00000000
00000000
00010000
00000000
00000000
00011000
00000000
00000000
00000000
00000000
00000000
00000000
00000000
00000000
00000000
;

//---------------dance-double - RGTM-EDP----------------
#NOTES:
     dance-double:
     RGTM:
     Hard:
     16:
     :
00000000
00000000
00000000
00000000
,
10010000
00000000
00000000
10000000
10000000
00000000
00000000
10000000
,
01000000
01000000
00000000
00010000
00010000
00000000
00001000
00010000
,
00011000
00000000
00000000
00001000
00001000
00000000
00000000
00000100
,
00000110
00000010
00000000
00000010
00001000
00001000
00000001
00000010
,
00001001
00000000
00000000
00000001
00000001
00000000
00000000
00000001
,
00000100
00000100
00000000
00001000
00001000
00000000
00010000
00001000
,
00011000
00000000
00000000
00010000
00010000
00000000
00000000
01000000
,
01100000
00100000
00000000
00100000
00010000
01000000
00200000
00300000
,
10010000
10000000
11000000
01000000
,
01010000
00010000
00011000
00001000
,
00001001
00000001
00000101
00000100
,
00001100
00001000
00011000
00110000
,
10010000
10000000
01000000
01000000
00100000
00100000
00001000
00001000
,
00011000
00010000
00000100
00000100
00000010
00000010
00000001
00000001
,
00000100
00000010
00000100
00000010
00000100
00000010
00000100
00000010
00001000
00000001
00001000
00000001
00001000
00000001
00001000
00000001
,
00000020
00000000
00000030
00000010
00000010
00000010
00002000
00003000
,
00011000
00010000
01000000
00100000
01000000
10000000
01000000
00010000
,
01000000
10000000
00100000
00010000
00001000
00000010
00000100
00000100
,
00000001
00000100
00001000
00000001
00001000
00000010
00000100
00001000
,
00010000
00000000
00001000
00000000
00100000
00000000
00010000
00000000
01000000
00000000
00100000
01000000
00100000
00000000
00100000
00000000
,
10000000
01000000
00010000
01000000
10000000
00100000
01000000
00001000
,
00002000
00000000
00013000
00001000
00010000
00000100
00000010
00000001
,
00000002
00000000
00000000
00000000
00000103
00000000
00000010
00000000
00001000
00000000
00000100
00000000
00010000
00000000
00010000
00001000
,
00010000
01000000
01000000
10000000
20000000
00000000
30200000
00000000
,
10300000
00000000
10000000
00000000
00010000
00000000
01000000
00100000
00010000
00000000
00001000
00000000
,
00010000
00000000
00010000
00000000
00001000
00000000
00010000
00001000
00000010
00000000
00000001
00000000
,
00000100
00001000
00000100
00000000
00000010
00000000
00010000
00001000
00010000
00000000
00100000
00000000
,
10000000
01000000
00010000
00000000
00001000
00000000
00010000
00000100
00000010
00000000
00000001
00001000
,
00000010
00000000
00001000
00000100
00000010
00000000
00000000
00000001
00000100
00000000
00000010
00000000
00010000
00000000
00000000
00010000
,
00001000
00000000
00000000
00001000
00100000
00000000
01000000
00000000
00010000
00000000
01000000
00000000
20000000
00000000
00100000
00000000
,
30010000
00100000
00001000
00010000
01000000
00010000
00001000
00000010
,
00000011
00000000
00000110
00000000
00001100
00000000
00011000
00000000
01010000
00000000
01100000
00000000
,
20000000
00000000
00000000
00000000
,
31000000
00000000
00101000
00000000
00001000
00010000
00000100
00000000
00000110
00000000
00000001
00001000
,
00002001
00000000
00000010
00000000
00003100
00000020
00000100
00000032
,
00000010
00000000
00002003
00000000
00000001
00003020
00010000
00000000
,
00001030
00000000
00011000
00000000
00010000
00200000
00010000
02300000
,
00100000
00000000
00000000
00000000
03010000
00000000
01000000
00010000
01000000
00000000
00100000
00000000
10000000
01000000
10000000
00000000
,
10020000
00000000
01000000
00000000
00130000
02000000
00100000
23000000
,
01000000
00000000
30020000
00000000
10000000
02030000
00001000
00000000
,
03010000
00000000
00011000
00000000
00001000
00000020
00000100
00000031
,
00000010
00000000
00000010
00000100
00000010
00000000
00000001
00000000
00000001
00001000
00000001
00000000
00000200
00000000
00000300
00000000
,
00001001
00000000
00000000
00000000
00000001
00000000
00000100
00000001
00000100
00000000
00000010
00000000
00001000
00000000
00000100
00010000
,
00000100
00000000
00010000
00000000
00001000
00000000
01000000
00010000
01000000
00000000
00100000
00000000
10000000
00000000
10000000
00000000
,
10010000
00000000
00000000
00000000
00010000
00000000
10000000
01000000
10000000
00000000
00100000
00000000
01000000
00000000
00001000
00010000
,
00001000
00010000
00001000
00000000
00000010
00000000
00000100
00001000
00000001
00001000
00000001
00000000
00000010
00000100
00000010
00000000
,
00001001
00000000
00001000
00000001
00001000
00000000
00000010
00001000
00000010
00000000
00010000
00000000
00000100
00000000
00000100
00000000
,
00011000
00000000
00001000
00010000
00001000
00000000
00100000
00010000
00100000
00000000
01000000
00000000
01000000
10000000
00000000
10000000
,
00100000
10000000
00100000
00000000
01000000
00000000
00010000
01000000
00010000
00000000
00100000
00000000
00100000
00000000
00001000
00000000
,
00011000
00000000
00010000
00000100
00000010
00000000
00000110
00000000
00000000
00000000
00002002
00000000
00000000
00000000
00003003
00000000
,
00000001
00000000
00000010
00000100
00000001
00000100
00000010
00000100
00001000
00000000
00000100
00000010
00000000
00000100
00010000
00000000
,
00001000
00000000
00001000
01000000
00100000
01000000
00010000
01000000
10000000
01000000
00100000
01000000
00010000
00100000
00010000
10000000
,
01000000
00000000
01000000
00010000
00000000
00010000
00001000
00000000
00001000
00000100
00000000
00000100
00000010
00000100
00001000
00000100
,
00000001
00000000
00000010
00000001
00000100
00000010
00010000
00001000
00010000
00100000
10000000
00000000
10000000
00010000
00100000
01000000
,
00010000
00000000
00001000
00010000
00000100
00000010
00000100
00000001
,
00000100
00000000
00000100
00001000
00000000
00001000
00000001
00000000
,
00001000
00000000
00001000
00000100
00010000
00100000
00010000
00001000
,
00010000
01000000
10000000
01000000
00100000
00010000
10000000
00100000
,
10000000
00000000
01000000
00010000
00000000
01000000
00100000
00000000
,
00100000
00001000
00000000
00001000
00010000
00001000
00000100
00000010
,
00000210
00000000
00000301
00000010
00000100
00001000
00000010
00010000
,
00001000
00010000
00200000
00000000
01300000
00100000
10010000
00000000
11000000
00000000
10000000
01000000
00100000
00000000
00000000
00000000
,
00010000
00000000
00100000
00000000
00010000
01000000
00010000
00000000
00100000
00000000
00000000
00000000
00001000
00010000
00000010
00000000
,
00000000
00000000
00000100
00000000
00000010
00001000
00000010
00001000
00000001
00000000
00000001
00000100
00000010
00000000
00000000
00000000
,
00001000
00000000
00000010
00000000
00001000
00000100
00001000
00000000
00000010
00000000
00000000
00000000
00010000
01000000
00100000
00000000
,
00010000
00000000
10000000
00100000
01000000
00000000
01000000
00010000
10000000
00000000
10000000
01000000
00010000
00000000
00000000
00000000
,
00010000
00000000
00100000
00000000
00010000
00001000
00010000
00000000
00000010
00000000
00001000
00000000
00001000
00000100
00000010
00000000
,
00000001
00000000
00000001
00000000
00000100
00000010
00000100
00000010
00001000
00000000
00000001
00000100
00001000
00000000
00001000
00010000
,
00001000
00000000
00010000
00000000
00100000
00000000
01000000
00010000
00200000
00000000
00000000
00000000
01000000
00000000
00000000
00000000
,
01000000
00000000
00000000
00000000
01000000
00000000
00000000
00000000
01300000
00100000
01000000
00000000
10000000
00000000
00100000
00000000
,
00010000
00001000
00010000
01000000
00010000
00001000
00010000
00000010
,
00010000
00000000
00000100
00000000
00001000
00000001
00000010
00000000
00000100
00000000
00000010
00000000
00000001
00000000
00000100
00000000
,
00001000
00010000
00001000
00000010
00001000
00010000
00001000
01000000
,
00001000
00000000
00100000
00000000
01000000
00100000
01000000
00000000
10000000
00000000
00100000
00000000
00010000
00000000
00001000
00000000
,
00010000
01000000
10000000
00010000
00010000
01000000
00100000
00010000
,
00001000
00000000
00001000
00000000
00010000
00000100
00000010
00000000
00000001
00000000
00000100
00000000
00001000
00000000
00000100
00000000
,
00000001
00000000
00000010
00000000
00001000
00000000
00010000
00000000
00001000
00000000
00010000
00001000
00010000
00000000
00001000
00010000
,
00001000
00000000
00010000
00001000
00200000
00000000
00300000
00000000
10020000
00000000
00000000
00000000
00100000
00000000
00000000
00000000
,
01030000
00010000
01000000
00000000
00010000
00000000
00100000
00000000
01100000
00000000
01000000
00000000
10000000
00000000
21000000
00000000
,
00000000
00000000
30010000
10000000
01000000
00000000
00100000
00000000
00101000
00000000
00001000
00000000
00011000
00000000
00000000
00000000
,
00010010
00000000
00000000
00000000
00001000
00000001
00001000
00000000
00000001
00000000
00000100
00000010
00001000
00000000
00000100
00010000
,
00001000
00000000
00010000
00001000
00100000
00000000
00010000
01000000
00100000
00000000
01000000
00000000
01100000
00000000
00000000
00000000
,
10010000
00000000
11000000
02000000
03100000
00010000
00110000
00100000
,
00101000
00000000
00001000
00000000
00011000
00000000
00010000
00000000
00000010
00000000
00001000
00000010
00001000
00000010
00001000
00000010
,
00000100
00000001
00000100
00000001
00000100
00000001
00000100
00000001
00001000
00000000
00001001
00000000
00000000
00001100
00000000
00000000
,
00011000
00000000
00000000
00101000
00000000
00000000
01100000
00000000
00000000
00000000
00000000
00000000
00000000
00000000
00000000
00000000
;

//---------------dance-double - RGTM-CDP----------------
#NOTES:
     dance-double:
     RGTM:
     Challenge:
     18:
     :
00000000
00000000
00000000
00000000
,
00000101
00000000
00000000
00000001
00000001
00000000
00000000
00000100
,
00001000
00001000
00000000
00010000
00010000
00000000
00110000
10000000
,
01100000
00000000
00000000
00100000
00100000
00000000
00000000
00100000
,
10010000
10010000
00000000
01100000
10000000
10000000
00010000
10000000
,
11000000
00000000
00000000
01000000
01000000
00000000
00000000
01000000
,
00010000
00010000
00000000
00001000
00001000
00000000
00000010
00000001
,
00001001
00000000
00000000
00001000
00001000
00000000
00000000
00001000
,
00000110
00000000
00000110
00000000
00000000
00000000
00000011
00000000
00001000
00000000
00000110
00000000
00000002
00000000
00000000
00000003
,
00000110
00001000
00000000
00010000
00100000
10000000
00000000
10000000
,
01000000
00010000
00000000
00001000
00000100
00000001
00001000
00000001
,
00000010
00001000
00010000
01000000
00100000
00010000
10000000
00100000
,
10000000
01000000
00010000
00001000
00000010
00000100
00001000
00000010
,
00001001
00000001
00000100
00000100
00001000
00001000
00010000
00010000
,
00011000
00001000
01000000
01000000
00100000
00100000
10000000
10000000
,
01000000
00100000
00010000
00100000
01000000
00010000
00001000
00010000
00000100
00000010
00000001
00000010
00000100
00010000
00000010
00010000
,
00002000
00000000
00003000
00001000
00001000
00001000
00020000
00030000
,
00011000
00001000
01000000
00100000
01000000
10000000
01000000
00010000
,
00100000
00001000
00000010
00000100
00001000
00000010
00000001
00001001
,
00001000
00000100
00000001
00000010
00001000
00010000
00100000
10000000
,
01000000
00000000
00010000
00000000
00001000
00000000
00000100
00000000
00000001
00000000
00000010
00000100
00001000
00000000
00001001
00000000
,
00000001
00000100
00001000
00000100
00000010
00010000
00001000
00011000
,
00020000
00000000
00031000
00010000
01000000
10000000
00100000
10100000
,
20000000
00000000
00000000
00000000
31000000
00000000
00010000
00000000
00001000
00000000
00010000
00000000
01000000
00000000
10000000
00100000
,
01000000
01010000
00010000
00110000
00100000
00001000
00020000
00000000
,
00030100
00000000
00000010
00000001
00001000
00000000
00000001
00000100
00001000
00000001
00000010
00000000
,
00000001
00000000
00001000
00000001
00000010
00000000
00000001
00000010
00001000
00000100
00020000
00000000
,
00031000
00100000
01000000
00010000
01000000
00000000
00010000
10000000
00100000
00010000
10000000
00010000
,
00010000
01000000
00010000
00010000
10000000
00010000
00010000
01000000
00100000
20000000
00000000
30010000
,
00010000
00100000
01000000
10000000
00100000
00000000
00000000
00100000
01000000
00000000
00010000
00000000
00100000
00000000
00000000
00100000
,
00001000
00000000
00000000
00001000
00000010
00000000
00000001
00000000
00000100
00000000
00000010
00000000
00020000
00000000
00032000
00000000
,
01003000
00000000
00110000
00000000
10000000
00000000
01010000
00000000
00100000
00000000
00011000
00000000
01000000
00100000
10000000
00000000
,
10010000
00000000
01001000
00000000
00011000
00000000
00010100
00000000
00001100
00000000
00001001
00000000
,
00000020
00000000
00000000
00000000
,
00000130
00000000
00001001
00000000
00000001
00000100
00001000
00000000
00011000
00000000
00010000
01000000
,
21000000
00000000
30010000
01000000
00200000
01000000
01000000
00000000
,
10300000
00000000
10000000
00000000
01000000
00000000
01000000
00000000
00100000
00010000
00100000
00000000
01000000
00000000
00010000
00001000
,
00020000
00030000
00011000
00000000
00002000
00003100
00000002
00000103
,
00000010
00000000
00001000
00000010
00000100
00000000
00001000
00000000
00010000
00001000
00010000
00000000
00000100
00000000
00000010
00000000
,
00000012
00000000
00001003
00000010
00000200
00000010
00000010
00000010
,
00000301
00000100
00000010
00000000
00010000
00000000
00001000
00010000
00001000
00000000
01000000
00010000
01000000
00000000
00100000
10000000
,
00020000
00000000
00130000
01000000
10000000
00000000
00000000
00000000
00020000
00000000
00100000
00000000
20030000
00000000
00100000
00000000
,
30010000
10000000
00100000
00000000
01000000
00000000
00001000
00100000
01000000
00000000
00010000
00001000
00000020
00000000
00000000
00000030
,
00001002
00000000
00000000
00000000
00000013
00000000
00000001
00000100
00000010
00000100
00000010
00001000
00000001
00000000
00000010
00000100
,
00010000
00001000
00010000
00001000
00010000
00000000
00100000
01000000
00010000
10000000
00010000
10000000
01000000
00000000
01000000
00000000
,
20010000
00000000
00000000
00000000
30100000
00000000
10000000
01000000
00100000
01000000
00100000
00010000
01000000
00000000
00010000
00100000
,
00001000
00010000
00001000
00010000
00000010
00000000
00001000
00000010
00010000
00001000
00010000
00001000
00010000
00000100
00000010
00000000
,
00001001
00000000
00000001
00000100
00000010
00000000
00000010
00001000
00000100
00000000
00000100
00010000
00001000
00000000
00001000
00000000
,
00010000
00001000
00010000
00100000
01000000
00000000
01000000
00100000
10000000
00000000
10000000
01000000
00100000
01000000
00100000
00001000
,
00010000
00001000
00010000
00000000
00000100
00000000
00000010
00000001
00000010
00000000
00000100
00000000
00010000
00001000
00010000
01000000
,
00100000
00000000
00000000
00000000
00100000
00000000
01000000
00000000
10000000
00000000
00100000
00000000
00010000
00000000
00000000
00000000
00001000
00000000
00010000
00000000
00022000
00000000
00000000
00000000
00000000
00000000
00000000
00000000
00000000
00033000
00000000
00000000
,
00001000
00000000
00010000
00000010
00000001
00000010
00001000
00000100
00000001
00000000
00000100
00000010
00000000
00000010
00001000
00000000
,
00010000
00000000
00001000
01000000
10000000
01000000
00010000
00100000
10000000
00100000
00010000
01000000
00100000
00010000
00001000
00000100
,
00000010
00000000
00000100
00000001
00000000
00000010
00001000
00000000
00010000
00100000
00000000
01000000
00010000
00100000
10000000
00100000
,
00010000
00000000
00000000
00000000
00100000
00000000
01000000
00000000
10000000
00000000
00100000
00000000
00010000
00000000
00001000
00000000
00000100
00000000
00000001
00000000
00000010
00000000
00000000
00000000
00000100
00000000
00010000
00001000
00010000
00001000
00010000
00001000
,
00010000
00000000
00001000
01000000
10000000
01000000
00010000
00100000
,
10000000
00000000
00100000
01000000
00000000
01000000
00010000
00000000
,
00001000
00000000
00010000
00000010
00000001
00000010
00001000
00000100
,
00000001
00000100
00001000
00000010
00000100
00001000
00010000
00100000
,
01100000
01000000
00010000
00010000
10000000
10000000
01000000
01000000
,
00010000
00010000
00001000
00001000
00000100
00000100
00000001
00000001
,
00002001
00000000
00003001
00000010
00001000
00010000
00100000
10000000
,
01000000
00010000
00002000
00000000
00003100
00000001
00001001
00000000
00000110
00000000
00000001
00000100
00001000
00000000
00000000
00000000
,
00010000
00000000
00001000
00000000
00010000
00100000
10000000
00000000
00010000
00000000
00000000
00000000
10000000
01000000
00010000
00000000
,
00000000
00000000
00001000
00000000
00010000
00001000
00000010
00000100
00001000
00000000
00000001
00000010
00001000
00000000
00000000
00000000
,
00010000
00000000
00001000
00000000
00010000
01000000
10000000
00000000
00010000
00000000
00000000
00000000
01000000
00100000
10000000
00000000
,
00010000
00000000
00100000
00001000
01000000
00000000
00100000
10000000
00010000
00000000
10000000
01000000
00010000
00000000
00000000
00000000
,
00001000
00000000
00010000
00000000
00001000
00000010
00000001
00000000
00001000
00000000
00000001
00000000
00000100
00000010
00010000
00000000
,
00001000
00000000
00001000
00000000
00010000
00100000
01000000
00010000
10000000
00000000
01000000
10000000
00100000
00000000
01000000
00001000
,
00010000
00000000
00001000
00000000
00000010
00000000
00000001
00001000
00000001
00000000
00000010
00000000
00001000
00010000
00001000
00000000
,
00020000
00000000
02030000
00000000
23000000
00000000
30200000
00000000
10300000
00010000
10000000
00000000
00010000
00000000
00100000
00000000
,
01000000
00010000
01000000
10000000
00100000
00010000
00100000
10000000
,
00010000
00000000
00100000
00000000
00001000
00010000
00001000
00000000
00000100
00000000
00000001
00000000
00000100
00000000
00000010
00000000
,
00001000
00000001
00000010
00001000
00000010
00000001
00000100
00001000
,
00000100
00000000
00000001
00000000
00000010
00001000
00010000
00000000
00100000
00000000
10000000
00000000
01000000
00000000
00010000
00000000
,
01000000
00100000
00001000
00011000
00010000
00000010
00000100
00000010
,
00001000
00000000
00000001
00000000
00000010
00000100
00001000
00000000
00000001
00000000
00000010
00000000
00001000
00000000
00000010
00000000
,
00000100
00000000
00010000
00000000
00001000
00000000
00010000
00000000
00100000
00000000
10000000
01000000
00100000
00000000
00001000
01000000
,
00100000
00000000
00010000
00001000
00000020
00000000
00000000
00000030
00001001
00000000
00000001
00000100
00000010
00000000
00000010
00001000
,
00000100
00000010
00000100
00010000
00001000
00000000
00010000
00000000
00011000
00000000
00001000
00000000
01000000
00000000
02010000
00000000
,
00000000
00000000
03100000
01000000
00100000
10000000
01000000
00000000
01100000
00000000
00100000
00000000
10010000
00000000
00010000
00100000
,
01000000
00000000
01000000
10000000
00100000
01000000
00010000
00100000
00001000
00000000
00001000
00001000
00010000
00000000
00010000
00010000
,
00001000
00000000
00001000
00001000
00010000
00001000
00001000
00000010
00000100
00000000
00000101
00000000
00001001
00000000
00000001
00000010
,
00000100
00001000
00000010
00000000
00000010
00010000
00001000
00000000
00011000
00000000
00001000
00000000
01001000
00000000
01000000
00000000
,
01010000
00000000
00010000
00100000
01000000
10000000
00010000
00000000
10000000
00000000
00100000
00010000
00001000
00010000
01000000
00010000
,
00001000
00000100
00001000
00010000
00001000
00000010
00001000
00010000
00100000
00000000
10010000
00000000
00000000
01001000
00000000
00000000
,
00010100
00000000
00000000
00001001
00000000
00000000
00000110
00000000
00000000
00000000
00000000
00000000
00000000
00000000
00000000
00000000
;
